<?xml version="1.0" standalone="no"?>
<!DOCTYPE svg PUBLIC "-//W3C//DTD SVG 1.1//EN" "http://www.w3.org/Graphics/SVG/1.1/DTD/svg11.dtd" >
<svg xmlns="http://www.w3.org/2000/svg" xmlns:xlink="http://www.w3.org/1999/xlink" version="1.1">
<metadata>
Created by FontForge 20170812 at Wed Jul 28 06:51:43 2010
 By www-data
Copyright (c) 2010 by Kreativagentur Thomas GmbH. All rights reserved.
</metadata>
<defs>
<font id="KlimmerGothicStd-BoldXt" horiz-adv-x="718" >
  <font-face 
    font-family="Klimmer Gothic Std BoldXt"
    font-weight="700"
    font-stretch="normal"
    units-per-em="1000"
    panose-1="2 11 8 3 3 5 4 2 2 4"
    ascent="790"
    descent="-210"
    x-height="570"
    cap-height="743"
    bbox="-80 -290 3621 1023"
    underline-thickness="50"
    underline-position="-150"
    unicode-range="U+0020-FE6A"
  />
<missing-glyph horiz-adv-x="500" 
d="M12 665h475v-665h-475v665zM250 375l161 243h-323zM60 91l7 10t18 27t25.5 39t29.5 45q35 54 81 121l-161 242v-484zM278 333l162 -243v485zM250 290l-162 -242h323z" />
    <glyph glyph-name="f_f" unicode="ff" horiz-adv-x="834" 
d="M496 0v446h-203v-446h-174v446l-95 11v113h95v47q0 86 39 132t134 46q39 0 76 -5.5t60 -11.5v-98q-20 1 -42 2t-40 1t-29 -3.5t-16 -12t-6.5 -21.5t-1.5 -31v-45h203v47q0 86 39 132t134 46q39 0 76 -5.5t60 -11.5v-98q-20 1 -42 2t-40 1t-29 -3.5t-16 -11.5t-6.5 -21
t-1.5 -32v-45h133v-124h-133v-446h-174z" />
    <glyph glyph-name="f_i" unicode="fi" horiz-adv-x="741" 
d="M119 0v446l-96 10v114h96v47q0 88 38.5 133t133.5 45q39 0 76 -5.5t60 -11.5v-98q-20 1 -41.5 2t-40.5 1q-36 0 -44 -15.5t-8 -52.5v-45h376v-570h-174v446h-202v-446h-174zM493 749q0 11 5.5 17t12.5 9t13 3.5l6 0.5h143v-131h-180v101z" />
    <glyph glyph-name="f_l" unicode="fl" horiz-adv-x="745" 
d="M119 0v446l-96 11v113h96v45q0 54 13 88.5t37.5 55t61 28.5t84.5 8q24 0 50.5 -2t52 -4.5t47 -5t34.5 -4.5h174v-779h-174v678q-24 2 -62 3.5t-73 1.5q-20 0 -33.5 -2t-21.5 -9.5t-12 -21t-4 -35.5v-45h132v-124h-132v-446h-174z" />
    <glyph glyph-name="f_f_i" unicode="ffi" horiz-adv-x="1117" 
d="M871 0v446h-202v-446h-173v446h-203v-446h-174v446l-95 11v113h95v47q0 87 39 132.5t134 45.5q39 0 76 -5.5t60 -11.5v-98q-20 1 -42 2t-40 1q-36 0 -44.5 -15.5t-8.5 -52.5v-45h203v47q0 87 38.5 132.5t133.5 45.5q39 0 76 -5.5t60 -11.5v-98q-20 1 -41.5 2t-40.5 1
q-36 0 -44.5 -15.5t-8.5 -52.5v-45h376v-570h-174zM866 750q0 11 5.5 17t12.5 9t13 3.5l6 0.5h145v-131h-182v101z" />
    <glyph glyph-name="f_f_l" unicode="ffl" horiz-adv-x="1120" 
d="M874 0v678q-23 1 -61 3t-72 2q-20 0 -33.5 -2t-22 -9.5t-12.5 -21t-4 -35.5v-45h133v-124h-133v-446h-174v446h-202v-446h-174v446l-95 11v113h95v47q0 87 39 132.5t134 45.5q39 0 76 -5.5t60 -11.5v-98q-20 1 -42 2t-40 1t-29 -3.5t-16 -11.5t-6.5 -21t-1.5 -32v-45h202
v45q0 54 13 88.5t37.5 55t61.5 28.5t85 8q23 0 49.5 -2t51.5 -4.5t46.5 -5t34.5 -4.5h175v-779h-175z" />
    <glyph glyph-name="f_b" unicode="fb" horiz-adv-x="1079" 
d="M119 0v446l-96 11v113h96v44q0 53 13 88t38 55.5t62 29t85 8.5q45 0 90 -4t87 -12h174v-215q29 12 59 17t58 5q128 0 187.5 -63t59.5 -197v-70q0 -74 -18.5 -125.5t-54.5 -84t-89.5 -47t-124.5 -14.5q-28 0 -53.5 1t-54 2.5t-63 4.5l-80.5 7v677q-28 2 -61.5 4t-69.5 2
q-19 0 -32.5 -2t-21.5 -9.5t-12 -21t-4 -36.5v-44h132v-124h-132v-446h-174zM667 121q14 -1 34.5 -2t46.5 -1q30 0 51 6t34.5 22t19.5 43t6 68v70q0 36 -5 60t-16 39t-30 21t-47 6q-16 0 -44 -3t-50 -14v-315z" />
    <glyph glyph-name="f_f_b" unicode="ffb" horiz-adv-x="1458" 
d="M498 0v446h-205v-446h-174v446l-95 10v114h95v47q0 43 9 76.5t29 56t53.5 34t81.5 11.5q38 0 73.5 -5t61.5 -12v-98q-24 1 -43.5 2t-36.5 1q-19 0 -29.5 -3.5t-16 -11.5t-7 -21t-1.5 -32v-45h205v45q0 52 13 87t38 55.5t61.5 29t83.5 8.5q22 0 47.5 -1.5t49.5 -4
t45.5 -5.5t36.5 -5h174v-214q25 11 55.5 16t61.5 5q128 0 187.5 -63t59.5 -197v-70q0 -74 -18.5 -125.5t-54.5 -84t-89.5 -47t-124.5 -14.5q-57 0 -116 3.5t-135 11.5v678q-23 2 -59 3.5t-72 1.5q-19 0 -32.5 -2t-22 -9.5t-12.5 -21t-4 -35.5v-45h133v-124h-133v-446h-173z
M1238 327q0 36 -5 60t-16 39t-30 21t-47 6q-15 0 -43.5 -3t-50.5 -14v-315q12 -1 33.5 -2t47.5 -1q30 0 51 6t34.5 22t19.5 43t6 68v70z" />
    <glyph glyph-name="f_h" unicode="fh" horiz-adv-x="1100" 
d="M859 0v359q0 55 -16.5 75t-58.5 20q-33 0 -64 -9t-51 -18v-427h-174v678q-24 2 -59 3.5t-70 1.5q-20 0 -34 -2t-22.5 -9.5t-12.5 -21t-4 -35.5v-45h133v-124h-133v-446h-174v446l-95 11v113h95v45q0 54 13 88.5t38.5 55t63 28.5t85.5 8q24 0 49.5 -1.5t49 -4t43.5 -5.5
t34 -5h174v-234q33 17 78 28.5t93 11.5q59 0 96.5 -16.5t59 -46t29.5 -71t8 -90.5v-361h-174z" />
    <glyph glyph-name="f_f_h" unicode="ffh" horiz-adv-x="1477" 
d="M1235 0v359q0 55 -16 75t-58 20q-33 0 -64 -9t-50 -18v-427h-175v678q-24 2 -59 3.5t-70 1.5q-20 0 -34 -2t-23 -9.5t-13 -21t-4 -35.5v-45h133v-124h-133v-446h-173v446h-203v-446h-174v446l-95 11v113h95v47q0 43 9 76.5t29 56t53.5 34t81.5 11.5q38 0 75.5 -5.5
t59.5 -11.5v-98q-20 1 -41.5 2t-39.5 1t-29 -3.5t-16 -11.5t-6.5 -21t-1.5 -32v-45h203v45q0 54 13 88.5t38.5 55t63 28.5t85.5 8q22 0 47 -1.5t49 -4t45 -5.5l35 -5h175v-234q32 17 77 28t93 11q59 0 96.5 -16.5t59 -45.5t29.5 -70.5t8 -90.5v-361h-175z" />
    <glyph glyph-name="f_j" unicode="fj" horiz-adv-x="745" 
d="M119 0v446l-95 11v113h95v47q0 86 39 132t134 46q38 0 75.5 -5.5t59.5 -11.5v-98q-20 1 -41.5 2t-39.5 1q-36 0 -44.5 -15.5t-8.5 -52.5v-45h380v-605q0 -51 -10 -86t-32 -56.5t-56.5 -31t-83.5 -9.5q-35 0 -62.5 3t-37.5 6v110q14 -1 27.5 -1.5t28.5 -0.5q33 0 42.5 14
t9.5 52v481h-206v-446h-174zM494 750q0 11 5.5 17t12.5 9t13 3.5l6 0.5h145v-131h-182v101z" />
    <glyph glyph-name="f_f_j" unicode="ffj" horiz-adv-x="1121" 
d="M495 0v446h-202v-446h-174v446l-96 11v113h96v47q0 43 9 76.5t29.5 56t53.5 34t80 11.5q39 0 76 -5.5t60 -11.5v-98q-20 1 -42 2t-40 1q-36 0 -44 -16t-8 -52v-45h202v47q0 86 39 132t134 46q39 0 75.5 -5.5t59.5 -11.5v-98q-20 1 -41.5 2t-40.5 1q-36 0 -44 -15.5
t-8 -52.5v-45h380v-605q0 -51 -10 -86t-32 -56.5t-56.5 -31t-83.5 -9.5q-36 0 -62.5 3t-37.5 6v110q14 -1 27 -1.5t29 -0.5q33 0 42 14t9 52v481h-205v-446h-174zM871 750q0 11 5.5 17t12.5 9t13 3.5l6 0.5h145v-131h-182v101z" />
    <glyph glyph-name="f_k" unicode="fk" horiz-adv-x="1051" 
d="M845 0l-176 264v-264h-173v678q-25 2 -60 3.5t-70 1.5q-20 0 -34 -2t-22.5 -9.5t-12.5 -21t-4 -35.5v-45h133v-124h-133v-446h-174v446l-95 11v113h95v45q0 54 13 88.5t38.5 55t63 28.5t85.5 8q24 0 49.5 -1.5t49 -4t44 -5.5t34.5 -5h173v-461l179 252h187l-198 -274
l205 -296h-197z" />
    <glyph glyph-name="f_f_k" unicode="ffk" horiz-adv-x="1428" 
d="M1221 0l-176 264v-264h-174v678q-24 2 -59 3.5t-69 1.5q-20 0 -34 -2t-23 -9.5t-13 -21t-4 -35.5v-45h133v-124h-133v-446h-174v446h-202v-446h-174v446l-95 10v114h95v47q0 86 39 132t134 46q39 0 76 -5.5t60 -11.5v-98q-20 1 -42 2t-40 1t-29 -3.5t-16 -11.5t-6.5 -21
t-1.5 -32v-45h202v45q0 54 13 88.5t38.5 55t63 28.5t85.5 8q24 0 49.5 -1.5t49 -4t43.5 -5.5t34 -5h174v-461l179 252h187l-198 -274l206 -296h-198z" />
    <glyph glyph-name=".notdef" horiz-adv-x="500" 
d="M12 665h475v-665h-475v665zM250 375l161 243h-323zM60 91l7 10t18 27t25.5 39t29.5 45q35 54 81 121l-161 242v-484zM278 333l162 -243v485zM250 290l-162 -242h323z" />
    <glyph glyph-name=".null" horiz-adv-x="0" 
 />
    <glyph glyph-name="nonmarkingreturn" horiz-adv-x="202" 
 />
    <glyph glyph-name="space" unicode=" " horiz-adv-x="202" 
 />
    <glyph glyph-name="exclam" unicode="!" horiz-adv-x="330" 
d="M262 780l-17 -557h-160l-17 557h194zM105 0q-11 0 -17 5.5t-9 12.5t-3.5 13l-0.5 6v128h179v-165h-149z" />
    <glyph glyph-name="quotedbl" unicode="&#x22;" horiz-adv-x="482" 
d="M59 770h153l-69 -262h-123zM392 508h-122l39 262h153z" />
    <glyph glyph-name="numbersign" unicode="#" horiz-adv-x="769" 
d="M573 178l-20 -178h-144l20 178h-137l-19 -178h-145l21 178h-86v109h97l17 158h-114v108h127l21 190h144l-21 -190h136l22 190h144l-21 -190h89v-108h-101l-18 -158h119v-109h-131zM322 445l-18 -158h137l17 158h-136z" />
    <glyph glyph-name="dollar" unicode="$" horiz-adv-x="673" 
d="M263 -15q-60 3 -110 9t-76 13v122q48 -4 102.5 -8t131.5 -4q60 0 87.5 19.5t27.5 61.5q0 16 -4 28t-13.5 23t-26.5 21t-43 21l-108 46q-40 17 -72 35.5t-54.5 43.5t-34.5 58.5t-12 79.5q0 91 51.5 139t153.5 61v107h147v-104q57 -3 105 -10.5t73 -12.5v-120
q-52 5 -110 8.5t-121 3.5q-57 0 -86.5 -14t-29.5 -52q0 -14 3.5 -25.5t13 -21.5t25.5 -20t42 -20l106 -43q46 -20 80 -40.5t56.5 -46t33.5 -58.5t11 -77q0 -97 -52.5 -151t-149.5 -68v-116h-147v112z" />
    <glyph glyph-name="percent" unicode="%" horiz-adv-x="1153" 
d="M1105 205q0 -105 -48 -160t-149 -55q-100 0 -148 55t-48 160v38q0 104 48 159t148 55q101 0 149 -55t48 -159v-38zM975 243q0 37 -5 60t-13.5 36t-21 17.5t-27.5 4.5t-27 -4.5t-21 -17.5t-13.5 -36t-4.5 -60v-38q0 -37 4.5 -60t13.5 -36t21 -18t27 -5t27.5 5t21 18
t13.5 36t5 60v38zM398 0h-146l497 745h146zM440 508q0 -50 -10.5 -89.5t-34 -68t-60.5 -43.5t-91 -15t-91.5 15.5t-60.5 44t-33.5 68.5t-10.5 88v36q0 49 10.5 88.5t33.5 67.5t60.5 43.5t91.5 15.5t91 -15t60.5 -43t34 -68t10.5 -89v-36zM310 544q0 36 -3.5 59t-11.5 36.5
t-20.5 19t-30.5 5.5t-30.5 -5.5t-20.5 -19.5t-11.5 -37t-3.5 -58v-36q0 -36 3.5 -59.5t11.5 -37t20.5 -18.5t30.5 -5t30.5 5t20.5 18.5t11.5 37t3.5 59.5v36z" />
    <glyph glyph-name="ampersand" unicode="&#x26;" horiz-adv-x="817" 
d="M597 0l-43 40q-35 -24 -90.5 -39.5t-132.5 -15.5q-59 0 -110.5 9.5t-89.5 33t-60 62t-22 97.5v7q0 35 9.5 63t27.5 51.5t44.5 43t61.5 38.5l-8 9q-47 46 -73 88t-26 95v5q0 91 67 131.5t194 40.5q33 0 67 -2t66.5 -6t62 -8.5t52.5 -8.5v-116q-53 5 -115.5 7.5t-120.5 2.5
q-45 0 -70.5 -11.5t-25.5 -47.5v-3q0 -30 14.5 -51t49.5 -54l244 -235q13 28 17.5 62.5t4.5 71.5l-47 8v84h231v-84l-47 -8q0 -67 -15.5 -124.5t-47.5 -103.5l99 -95v-37h-168zM295 288q-34 -18 -50 -39t-16 -56v-6q0 -24 9.5 -40.5t26 -27.5t37.5 -16t45 -5q77 0 118 29z
" />
    <glyph glyph-name="quotesingle" unicode="'" horiz-adv-x="232" 
d="M143 508h-123l39 262h153z" />
    <glyph glyph-name="parenleft" unicode="(" horiz-adv-x="399" 
d="M204 -201q-25 34 -51.5 81.5t-48 107t-35.5 129.5t-14 150v7q0 80 14 150.5t35.5 130t48 107t51.5 81.5h159q-63 -99 -100 -212t-37 -257v-7q0 -144 37 -257t100 -211h-159z" />
    <glyph glyph-name="parenright" unicode=")" horiz-adv-x="399" 
d="M343 267q0 -80 -13.5 -150t-35.5 -129.5t-48.5 -107t-51.5 -81.5h-158q63 98 99.5 211t36.5 257v7q0 144 -36.5 257t-99.5 212h158q25 -34 51.5 -81.5t48.5 -107t35.5 -130t13.5 -150.5v-7v0z" />
    <glyph glyph-name="asterisk" unicode="*" horiz-adv-x="550" 
d="M435 558q-17 -5 -35.5 -9t-38.5 -7q15 -12 27.5 -25.5t23.5 -27.5l37 -49l-99 -72l-38 49q-11 14 -20 30t-18 33q-8 -18 -17.5 -33t-19.5 -29l-38 -50l-99 72l38 50q9 14 22 27t27 26q-41 5 -72 15l-61 19l38 116l60 -19q34 -11 69 -29q-8 40 -8 71v62h123v-62
q0 -35 -9 -72q35 19 70 30l61 19l38 -116z" />
    <glyph glyph-name="plus" unicode="+" horiz-adv-x="677" 
d="M404 320v-194h-131v194h-200v131h200v194h131v-194h199v-131h-199z" />
    <glyph glyph-name="comma" unicode="," horiz-adv-x="349" 
d="M169 -94h-141l94 259h182z" />
    <glyph glyph-name="hyphen" unicode="-" horiz-adv-x="376" 
d="M57 234v121h261v-121h-261z" />
    <glyph glyph-name="period" unicode="." horiz-adv-x="302" 
d="M63 134q0 11 5.5 17t12.5 9t13 3.5l6 0.5h138v-164h-175v134z" />
    <glyph glyph-name="slash" unicode="/" horiz-adv-x="495" 
d="M197 0h-178l279 743h177z" />
    <glyph glyph-name="zero" unicode="0" horiz-adv-x="706" 
d="M657 326q0 -166 -74 -254.5t-230 -88.5t-230 88.5t-74 254.5v90q0 166 74 254.5t230 88.5t230 -88.5t74 -254.5v-90zM469 416q0 61 -8 100t-23 62t-36.5 32t-48.5 9t-48.5 -9t-36.5 -32t-23 -62t-8 -100v-90q0 -61 8 -100t23 -62t36.5 -32t48.5 -9t48.5 9t36.5 32t23 62
t8 100v90z" />
    <glyph glyph-name="one" unicode="1" horiz-adv-x="606" 
d="M51 0v125l160 8v453l-160 -43v132l211 71h135v-613l159 -8v-125h-505z" />
    <glyph glyph-name="two" unicode="2" horiz-adv-x="651" 
d="M52 0v92q0 69 11.5 117t38 85.5t69.5 68t105 63.5q44 23 71 40t41.5 31.5t19.5 29t5 32.5q0 19 -6.5 32t-22 21t-41 11.5t-63.5 3.5q-27 0 -57.5 -1t-59.5 -2.5t-54.5 -3.5t-42.5 -4v112q25 7 55.5 13t63 10t65 6t61.5 2q153 0 222.5 -45.5t69.5 -144.5
q0 -38 -10.5 -69.5t-34.5 -60t-63.5 -56t-97.5 -56.5q-53 -27 -85 -46.5t-49 -38.5t-22.5 -41.5t-5.5 -53.5v-10h354v-137h-537z" />
    <glyph glyph-name="three" unicode="3" horiz-adv-x="652" 
d="M602 205q0 -61 -18.5 -103t-55 -68.5t-92 -38.5t-130.5 -12q-36 0 -73.5 3t-70.5 8t-60 11t-43 11v114q19 -2 45.5 -4t56.5 -4t62.5 -3.5t63.5 -1.5q33 0 57.5 3.5t40 14t23.5 29.5t8 49v17q0 20 -3.5 36.5t-15.5 28t-33.5 17.5t-57.5 6h-202v122h203q35 0 56.5 6.5
t33 18.5t15.5 28.5t4 36.5v10q0 26 -6 42.5t-21 26.5t-40 13.5t-63 3.5q-63 0 -121 -3.5t-104 -7.5v113q13 4 39 9.5t59.5 10.5t71.5 8t75 3q70 0 125.5 -10t93 -34t57.5 -63.5t20 -97.5v-12q0 -49 -20 -92.5t-68 -69.5q49 -24 68.5 -67t19.5 -90v-18v0z" />
    <glyph glyph-name="four" unicode="4" horiz-adv-x="710" 
d="M569 169v-169h-187v169h-341v128l369 446h159v-446h99v-128h-99zM391 546l-202 -249h202v249z" />
    <glyph glyph-name="five" unicode="5" horiz-adv-x="641" 
d="M592 220q0 -65 -20.5 -110.5t-59.5 -73.5t-94.5 -40.5t-125.5 -12.5q-84 0 -150.5 10.5t-95.5 18.5v116q35 -3 91 -8.5t117 -5.5q42 0 70.5 5t46 17t25 32t7.5 50v20q0 27 -6.5 45.5t-22.5 30t-44.5 16t-71.5 4.5h-204l34 409h480v-134h-330l-13 -148h71q85 0 141.5 -13
t91 -40t49 -69t14.5 -99v-20v0z" />
    <glyph glyph-name="six" unicode="6" horiz-adv-x="688" 
d="M639 230q0 -71 -24 -118.5t-64.5 -76t-93 -40.5t-109.5 -12q-77 0 -133.5 17t-93 54.5t-54.5 95.5t-18 141v166q0 71 12.5 127t46.5 95t93.5 59.5t152.5 20.5q39 0 77 -3t71 -7.5t59 -9t41 -8.5v-117q-53 5 -107.5 8.5t-118.5 3.5q-49 0 -77.5 -9t-43 -26.5t-18.5 -44.5
t-4 -63v-25q13 3 30.5 6t35.5 5t35 3t31 1q58 0 108.5 -8.5t87 -31.5t57.5 -64.5t21 -107.5v-31zM455 258q0 31 -7 51t-20.5 31t-34 15t-47.5 4q-21 0 -52 -2.5t-61 -9.5v-86q0 -45 7.5 -74t22.5 -46.5t36.5 -24t49.5 -6.5q47 0 76.5 28t29.5 91v29z" />
    <glyph glyph-name="seven" unicode="7" horiz-adv-x="636" 
d="M270 0h-198l341 609h-372v134h556v-148z" />
    <glyph glyph-name="eight" unicode="8" horiz-adv-x="714" 
d="M663 213q0 -78 -24.5 -123.5t-66 -69t-97 -30.5t-116.5 -7h-5q-62 0 -117 7t-96 30.5t-65.5 69t-24.5 123.5v7q0 59 20 97.5t62 65.5q-37 24 -58.5 61t-21.5 97v9q0 66 23.5 106.5t64 63.5t95.5 31t118 8h5q63 0 118 -8t95.5 -31t64 -63.5t23.5 -106.5v-9q0 -60 -21 -97
t-58 -61q42 -27 62 -65.5t20 -97.5v-7zM479 222q0 56 -17 80t-63 24h-84q-47 0 -63.5 -24t-16.5 -80v-7q0 -35 8.5 -56.5t24 -33.5t37.5 -16t49 -4h5q28 0 50 4t37.5 16t24 33.5t8.5 56.5v7zM477 544q0 28 -8.5 45.5t-23.5 28t-37 14.5t-49 4h-5q-27 0 -49 -4t-37 -14.5
t-23.5 -28t-8.5 -45.5v-9q0 -44 16 -68.5t63 -24.5h84q47 0 62.5 24.5t15.5 68.5v9z" />
    <glyph glyph-name="nine" unicode="9" horiz-adv-x="688" 
d="M639 288q0 -70 -13 -126.5t-47 -96t-93.5 -61t-152.5 -21.5q-39 0 -77 3t-71 7.5t-59 9t-41 8.5v117q44 -4 104 -8.5t126 -4.5q48 0 75.5 9t41.5 27t18 45t4 62v26q-13 -3 -30 -6t-35 -5t-35.5 -3t-31.5 -1q-58 0 -108 8.5t-86.5 31.5t-57.5 64.5t-21 107.5v31
q0 70 24 117.5t64.5 76.5t93 41t109.5 12q76 0 132.5 -16.5t93.5 -53t55 -94t18 -139.5v-168zM454 481q0 45 -7.5 74t-22 46.5t-36 24t-49.5 6.5q-48 0 -77.5 -28t-29.5 -91v-29q0 -32 7 -51.5t20.5 -30.5t34 -15t47.5 -4q21 0 52.5 2.5t60.5 8.5v87z" />
    <glyph glyph-name="colon" unicode=":" horiz-adv-x="314" 
d="M69 0v165h175v-165h-175zM68 539q0 11 5.5 17t12.5 9t13 3.5l6 0.5h138v-164h-175v134z" />
    <glyph glyph-name="semicolon" unicode=";" horiz-adv-x="328" 
d="M146 -94h-140l79 259h187zM87 539q0 11 5.5 17t12.5 9t13 3.5l6 0.5h138v-164h-175v134z" />
    <glyph glyph-name="less" unicode="&#x3c;" horiz-adv-x="677" 
d="M382 121l-279 265l279 265h191l-277 -265l277 -265h-191z" />
    <glyph glyph-name="equal" unicode="=" horiz-adv-x="677" 
d="M582 183h-488v131h488v-131zM94 454v132h488v-132h-488z" />
    <glyph glyph-name="greater" unicode="&#x3e;" horiz-adv-x="677" 
d="M293 121h-190l277 265l-277 265h190l280 -265z" />
    <glyph glyph-name="question" unicode="?" horiz-adv-x="541" 
d="M32 760q43 15 99 23t118 8q118 0 177.5 -39t59.5 -127v-8q0 -25 -5 -47.5t-17 -45t-32 -46t-49 -51.5q-35 -35 -56 -59t-31.5 -43t-13.5 -36.5t-3 -38.5v-26h-152v26q0 31 2 56.5t10 49.5t23 47.5t42 52.5q24 25 39 44t24 34.5t12.5 28t3.5 26.5v6q0 35 -23.5 47
t-73.5 12q-35 0 -76 -2.5t-78 -5.5v114zM142 0q-11 0 -17 5.5t-9 12.5t-3.5 13l-0.5 6v128h179v-165h-149z" />
    <glyph glyph-name="at" unicode="@" horiz-adv-x="882" 
d="M837 369q0 -71 -19.5 -130.5t-64 -102.5t-117.5 -67t-180 -24q-119 0 -174.5 36.5t-55.5 123.5q0 17 1.5 40t3.5 41q12 113 68 160t155 47q51 0 97.5 -6.5t84.5 -15.5l-33 -316q72 19 105 74.5t33 140.5q0 113 -67.5 167.5t-195.5 54.5q-138 0 -217.5 -71.5
t-107.5 -214.5q-6 -30 -9.5 -63.5t-3.5 -68.5q0 -57 15 -98.5t47.5 -68.5t83.5 -40t122 -13q28 0 58 1t56 2.5t46 3t29 2.5v-60q-10 -2 -30 -4.5t-46 -5t-55 -4.5t-57 -2q-187 0 -275.5 72t-88.5 215q0 39 4 77t11 70q69 344 425 344q81 0 146 -19t111 -56t70.5 -92.5
t24.5 -128.5zM495 393q-10 2 -23 2.5t-24 0.5q-19 0 -34 -4.5t-26.5 -17t-19 -36t-10.5 -61.5q-2 -27 -3 -44t-1 -29q0 -39 18.5 -53.5t63.5 -14.5h17t17 1z" />
    <glyph glyph-name="A" unicode="A" horiz-adv-x="748" 
d="M531 0l-53 187h-211l-54 -187h-192l207 743h290l209 -743h-196zM399 518q-7 27 -12.5 56t-10.5 58h-7l-10 -58t-13 -56l-53 -197h160z" />
    <glyph glyph-name="B" unicode="B" horiz-adv-x="711" 
d="M664 218q0 -71 -26 -115.5t-72.5 -69t-111 -33.5t-142.5 -9q-32 0 -58.5 0.5t-54 1.5t-58 2.5t-68.5 4.5v743q40 3 71.5 4.5t59.5 2.5t54 1.5t56 0.5q82 0 146.5 -9t108.5 -32t67.5 -63.5t23.5 -104.5v-9q0 -48 -20.5 -89t-66.5 -64q50 -23 70.5 -65t20.5 -87v-11z
M483 230q0 22 -6 39.5t-20 29.5t-38.5 18t-61.5 6h-104v-197q20 -1 36.5 -1h37.5q40 0 69 3.5t48.5 14t29 28.5t9.5 48v11zM481 536q0 27 -9.5 43.5t-29 25t-48 11t-65.5 2.5h-37.5t-38.5 -1v-179h103q38 0 62.5 6t38.5 17.5t19 28t5 38.5v8z" />
    <glyph glyph-name="C" unicode="C" horiz-adv-x="616" 
d="M584 3q-14 -3 -38.5 -6.5t-53 -6.5t-57.5 -5t-52 -2q-80 0 -142 16.5t-104.5 56t-65 106t-22.5 167.5v86q0 100 22.5 166.5t65 106t104.5 55.5t142 16q23 0 52 -2t57.5 -5t53 -6.5t38.5 -7.5v-133q-38 3 -87.5 6t-95.5 3q-41 0 -72 -8.5t-51 -30.5t-30 -60.5t-10 -99.5
v-86q0 -61 10 -100t30.5 -61.5t51 -31t72.5 -8.5q46 0 95 2.5t87 5.5v-133v0z" />
    <glyph glyph-name="D" unicode="D" horiz-adv-x="738" 
d="M689 335q0 -89 -20.5 -154t-64 -107t-111.5 -62.5t-164 -20.5q-36 0 -67 0.5t-61 1.5t-61 2.5t-67 4.5v743q36 3 66 4.5t59.5 2.5t61 1.5t69.5 0.5q187 0 273.5 -82.5t86.5 -257.5v-77zM505 412q0 59 -9.5 97.5t-30.5 61t-54 31.5t-80 9h-76v-480h76q47 0 80 9.5t54 33
t30.5 63t9.5 98.5v77z" />
    <glyph glyph-name="E" unicode="E" horiz-adv-x="628" 
d="M73 0v743h506v-136h-319v-162h298v-129h-298v-181h319v-135h-506z" />
    <glyph glyph-name="F" unicode="F" horiz-adv-x="619" 
d="M260 606v-162h298v-129h-298v-315h-187v743h507v-137h-320z" />
    <glyph glyph-name="G" unicode="G" horiz-adv-x="705" 
d="M644 7q-20 -4 -48.5 -8t-63 -7.5t-74 -6t-81.5 -2.5q-66 0 -125.5 14t-104.5 52.5t-71.5 105.5t-26.5 173v88q0 74 13.5 128.5t36.5 92.5t55 62t69 37.5t77 18t81 4.5t82 -3t76 -7t62 -9t40 -8v-127q-20 1 -49 2.5t-60.5 3t-62.5 2.5t-53 1q-44 0 -77.5 -6.5t-57 -27.5
t-35.5 -60t-12 -104v-88q0 -60 9 -98.5t28 -61t47 -31.5t67 -9h45t40 2v271h174v-394v0z" />
    <glyph glyph-name="H" unicode="H" horiz-adv-x="800" 
d="M540 0v313h-279v-313h-188v743h188v-288h279v288h187v-743h-187z" />
    <glyph glyph-name="I" unicode="I" horiz-adv-x="333" 
d="M73 0v743h187v-743h-187z" />
    <glyph glyph-name="J" unicode="J" horiz-adv-x="333" 
d="M260 -23q0 -103 -47.5 -147.5t-150.5 -44.5q-25 0 -53.5 2.5t-45.5 6.5v114q15 -1 28 -1.5t25 -0.5q38 0 47.5 14.5t9.5 49.5v773h187v-766v0z" />
    <glyph glyph-name="K" unicode="K" horiz-adv-x="738" 
d="M505 0l-241 345v-345h-188v743h188v-344l254 344h216l-277 -367l274 -376h-226z" />
    <glyph glyph-name="L" unicode="L" horiz-adv-x="579" 
d="M73 0v743h188v-603h291v-140h-479z" />
    <glyph glyph-name="M" unicode="M" horiz-adv-x="896" 
d="M643 0v369q0 33 1 61t3 60h-2q-11 -26 -23.5 -49.5t-24.5 -45.5l-95 -174h-109l-93 174q-12 22 -24.5 46.5t-23.5 48.5h-2q2 -32 2.5 -60t0.5 -61v-369h-180v743h183l144 -264q12 -21 23.5 -44.5t22.5 -46.5h2q11 23 23 47t24 45l145 263h183v-743h-180z" />
    <glyph glyph-name="N" unicode="N" horiz-adv-x="776" 
d="M509 0l-215 386q-14 24 -27.5 50.5t-24.5 51.5h-2q1 -29 2 -59.5t1 -60.5v-368h-170v743h191l217 -379q14 -24 28 -52t25 -53h2q-2 26 -2.5 59.5t-0.5 67.5v357h170v-743h-194z" />
    <glyph glyph-name="O" unicode="O" horiz-adv-x="745" 
d="M696 333q0 -96 -23.5 -163t-66 -108.5t-102.5 -60t-132 -18.5t-131.5 18.5t-102 60t-66 108.5t-23.5 163v76q0 97 23.5 163.5t66.5 108t102 60t131 18.5t131.5 -18.5t102.5 -60t66.5 -108t23.5 -163.5v-76zM512 409q0 58 -9 97.5t-27 63.5t-44 34t-60 10q-33 0 -59 -10
t-43.5 -34t-27 -63.5t-9.5 -97.5v-75q0 -59 9.5 -98.5t27.5 -63.5t43.5 -34t58.5 -10t59 10t44 34t27.5 63.5t9.5 98.5v75z" />
    <glyph glyph-name="P" unicode="P" horiz-adv-x="691" 
d="M660 500q0 -78 -27 -126t-73 -75t-105.5 -36t-125.5 -9h-36.5t-39.5 1v-255h-180v743q62 5 118 7t120 2q72 0 136 -9t111 -35t74.5 -73.5t27.5 -124.5v-10zM479 510q0 32 -10 52t-29.5 31t-48 15t-67.5 4q-18 0 -36.5 -0.5t-34.5 -0.5v-216h71q39 0 68 4.5t48.5 16t29 32
t9.5 52.5v10z" />
    <glyph glyph-name="Q" unicode="Q" horiz-adv-x="745" 
d="M696 331q0 -80 -17 -139.5t-48 -101t-75 -66t-99 -33.5v-35q0 -12 2 -19t8 -10.5t17 -5t30 -1.5h82v-102q-22 -6 -64 -11.5t-84 -5.5q-37 0 -67.5 6.5t-52 23.5t-33 46t-11.5 75v40q-54 9 -97.5 34t-74 66.5t-47 101t-16.5 137.5v79q0 97 24 163.5t67 107.5t102 59.5
t130 18.5t130.5 -18.5t102.5 -59.5t67 -107.5t24 -163.5v-79zM512 411q0 58 -9.5 97t-27.5 62.5t-44 33.5t-59 10t-58.5 -10t-43.5 -33.5t-27.5 -62.5t-9.5 -97v-80q0 -58 9.5 -97t27.5 -62.5t43.5 -33.5t58.5 -10t59 10t44 33.5t27.5 62.5t9.5 97v80z" />
    <glyph glyph-name="R" unicode="R" 
d="M517 0l-152 265h-112v-265h-180v743q56 3 113.5 6t126.5 3q70 0 132.5 -9t110 -34.5t75 -73t27.5 -123.5v-7q0 -83 -31 -130.5t-87 -74.5l166 -300h-189zM477 509q0 31 -9 51.5t-28.5 31.5t-49.5 15.5t-71 4.5h-33t-33 -1v-216h68q83 0 119.5 23t36.5 84v7z" />
    <glyph glyph-name="S" unicode="S" horiz-adv-x="646" 
d="M601 209q0 -116 -74.5 -171t-210.5 -55q-37 0 -74 2t-70.5 5.5t-61 7.5t-45.5 9v122q48 -4 102.5 -8t127.5 -4q63 0 91 19.5t28 61.5q0 16 -4 27.5t-14 21.5t-27 19.5t-43 20.5l-108 46q-40 17 -71.5 36.5t-54 45t-34.5 59.5t-12 80q0 110 74.5 157.5t215.5 47.5
q75 0 134.5 -8.5t92.5 -16.5v-120q-52 5 -103 8.5t-114 3.5q-57 0 -86.5 -14t-29.5 -52q0 -14 3.5 -24.5t13 -19.5t25.5 -18t42 -19l105 -43q46 -19 80.5 -40.5t57 -48.5t33.5 -60.5t11 -77.5z" />
    <glyph glyph-name="T" unicode="T" horiz-adv-x="670" 
d="M429 607v-607h-188v607h-215v136h618v-136h-215z" />
    <glyph glyph-name="U" unicode="U" horiz-adv-x="763" 
d="M695 301q0 -161 -81.5 -239.5t-231.5 -78.5t-232 78.5t-82 239.5v442h185v-437q0 -50 6 -84.5t20.5 -56t39.5 -31.5t63 -10t63 10t40 31.5t21 56t6 84.5v437h183v-442v0z" />
    <glyph glyph-name="V" unicode="V" horiz-adv-x="749" 
d="M516 0h-284l-204 743h191l129 -498q8 -32 14.5 -68.5t11.5 -66.5h2q6 31 12.5 67t14.5 68l129 498h189z" />
    <glyph glyph-name="W" unicode="W" horiz-adv-x="995" 
d="M834 0h-227l-87 353q-6 25 -11 52t-10 50h-3q-5 -23 -10 -50t-11 -52l-86 -353h-228l-124 743h186l61 -406q5 -36 9.5 -73t8.5 -69h4q8 33 14.5 66.5t14.5 65.5l67 276h193l67 -278q8 -31 15 -64.5t14 -65.5h4q3 33 7.5 68.5t9.5 73.5l62 406h184z" />
    <glyph glyph-name="X" unicode="X" horiz-adv-x="735" 
d="M511 0l-160 238l-154 -238h-173l241 379l-237 364h199l156 -230l147 230h173l-235 -370l243 -373h-200z" />
    <glyph glyph-name="Y" unicode="Y" horiz-adv-x="706" 
d="M444 268v-268h-182v268l-248 475h191l100 -197q12 -26 24.5 -56t22.5 -58h5q9 28 23 58t26 56l100 197h186z" />
    <glyph glyph-name="Z" unicode="Z" horiz-adv-x="658" 
d="M51 0v142l331 462h-322v139h538v-144l-330 -460h339v-139h-556z" />
    <glyph glyph-name="bracketleft" unicode="[" horiz-adv-x="437" 
d="M81 -202v945h308v-130h-134v-686h134v-129h-308z" />
    <glyph glyph-name="backslash" unicode="\" horiz-adv-x="511" 
d="M306 0l-278 743h175l279 -743h-176z" />
    <glyph glyph-name="bracketright" unicode="]" horiz-adv-x="437" 
d="M47 -202v129h134v686h-134v130h308v-945h-308z" />
    <glyph glyph-name="asciicircum" unicode="^" horiz-adv-x="677" 
d="M455 428l-117 249l-117 -249h-164l157 317h248l157 -317h-164z" />
    <glyph glyph-name="underscore" unicode="_" horiz-adv-x="612" 
d="M9 -138v90h593v-90h-593z" />
    <glyph glyph-name="grave" unicode="`" horiz-adv-x="485" 
d="M212 631l-167 146h198l131 -146h-162z" />
    <glyph glyph-name="a" unicode="a" horiz-adv-x="609" 
d="M388 0v37q-28 -19 -75 -35.5t-104 -16.5q-81 0 -124 41t-43 122v23q0 57 20.5 90.5t57.5 51.5t88 23t112 5h53v31q0 26 -4 42.5t-15 25.5t-31.5 12.5t-54.5 3.5q-38 0 -87 -2.5t-97 -7.5v104q12 4 34.5 10.5t51.5 11.5t63.5 9t70.5 4q67 0 113 -11.5t75 -37t42 -66
t13 -98.5v-372h-159zM379 251h-58q-30 0 -51 -2.5t-35 -10t-20.5 -22.5t-6.5 -39v-23q0 -34 18 -46t47 -12q34 0 63.5 9.5t42.5 17.5v128z" />
    <glyph glyph-name="b" unicode="b" horiz-adv-x="653" 
d="M606 256q0 -74 -18.5 -125.5t-54.5 -84t-89.5 -47t-124.5 -14.5q-30 0 -57.5 1t-57 2.5t-62.5 4.5t-74 8v778h175v-214q25 11 55 16t61 5q128 0 187.5 -63t59.5 -197v-70zM433 327q0 36 -5 60t-16 39t-30 21t-47 6q-16 0 -44.5 -3.5t-49.5 -13.5v-315q14 -1 34.5 -2
t45.5 -1q30 0 51 6t34.5 22t20 43t6.5 68v70z" />
    <glyph glyph-name="c" unicode="c" horiz-adv-x="533" 
d="M492 7q-25 -6 -73.5 -14t-117.5 -8q-132 0 -193 67.5t-61 200.5v64q0 136 61 202t193 66q69 0 117.5 -8t73.5 -14v-119q-57 4 -95 6t-63 2q-29 0 -50 -5.5t-35.5 -20t-21.5 -41t-7 -68.5v-64q0 -42 7.5 -68.5t21.5 -41.5t35.5 -20.5t49.5 -5.5q25 0 63 2t95 6v-118v0z
" />
    <glyph glyph-name="d" unicode="d" horiz-adv-x="654" 
d="M424 0v29q-29 -18 -69.5 -31t-91.5 -13q-103 0 -159.5 63.5t-56.5 198.5v70q0 75 18 126t51.5 82.5t81.5 45.5t108 14q31 0 56 -2.5t49 -6.5v203h174v-779h-161zM413 446q-23 4 -46 6t-40 2q-27 0 -46.5 -5t-33 -20t-20 -42t-6.5 -70v-70q0 -72 21.5 -101t76.5 -29
q25 0 48.5 5.5t45.5 14.5v309z" />
    <glyph glyph-name="e" unicode="e" horiz-adv-x="637" 
d="M219 238v-8q0 -28 3.5 -49.5t17 -36.5t40 -22.5t72.5 -7.5q43 0 92.5 3t121.5 8v-115q-33 -8 -90.5 -16.5t-131.5 -8.5q-78 0 -134.5 14.5t-92.5 48t-53 87.5t-17 132v31q0 150 69.5 218.5t205.5 68.5q80 0 132.5 -24t83.5 -64.5t43.5 -95.5t12.5 -116v-47h-375zM423 341
q0 24 -3.5 45.5t-14 38t-31 26.5t-53.5 10q-32 0 -52 -10t-31 -26.5t-14.5 -38.5t-3.5 -45v-8h203v8z" />
    <glyph glyph-name="f" unicode="f" horiz-adv-x="457" 
d="M293 446v-446h-174v446l-95 9v115h95v47q0 86 38.5 132t134.5 46q39 0 74 -5t61 -12v-98q-24 1 -43.5 2t-36.5 1q-19 0 -29.5 -3.5t-16 -11.5t-7 -21t-1.5 -32v-45h133v-124h-133z" />
    <glyph glyph-name="g" unicode="g" horiz-adv-x="655" 
d="M587 -15q0 -48 -12.5 -85t-43.5 -63t-83 -39.5t-130 -13.5q-41 0 -80 3t-71.5 6.5t-55 7.5t-29.5 6v104q49 -2 109.5 -5t112.5 -3q37 0 58.5 5t32.5 15t14.5 25.5t3.5 36.5v19q-14 -2 -41 -5t-50 -3q-131 0 -202 62.5t-71 202.5v58q0 138 72 202t232 64q63 0 123 -4.5
t111 -10.5v-585zM414 449q-8 2 -29.5 3.5t-48.5 1.5q-34 0 -56 -8t-35 -24.5t-18 -42t-5 -60.5v-58q0 -74 25.5 -104t87.5 -30q23 0 46.5 1.5t32.5 3.5v317z" />
    <glyph glyph-name="h" unicode="h" horiz-adv-x="673" 
d="M432 0v359q0 55 -16.5 75t-58.5 20q-33 0 -64 -9t-51 -18v-427h-174v779h174v-234q33 17 78 28.5t93 11.5q59 0 96.5 -16.5t59 -46t29.5 -71t8 -90.5v-361h-174z" />
    <glyph glyph-name="i" unicode="i" horiz-adv-x="318" 
d="M72 0v570h174v-570h-174zM69 749q0 11 5.5 17t12.5 9t13 3.5l6 0.5h144v-131h-181v101z" />
    <glyph glyph-name="j" unicode="j" horiz-adv-x="318" 
d="M246 -35q0 -52 -10 -87t-32.5 -56.5t-57.5 -30.5t-84 -9q-30 0 -58 2.5t-40 5.5v110q14 0 28 -0.5t28 -0.5q34 0 43 14t9 52v605h174v-605zM69 749q0 11 5.5 17t12.5 9t13 3.5l6 0.5h144v-131h-181v101z" />
    <glyph glyph-name="k" unicode="k" horiz-adv-x="624" 
d="M418 0l-176 264v-264h-174v779h174v-461l179 252h186l-198 -274l206 -296h-197z" />
    <glyph glyph-name="l" unicode="l" horiz-adv-x="317" 
d="M72 0v779h174v-779h-174z" />
    <glyph glyph-name="m" unicode="m" horiz-adv-x="962" 
d="M723 0v371q0 20 -1 36t-7 26.5t-18 16t-34 5.5q-20 0 -46 -7.5t-50 -20.5q2 -14 2.5 -28t0.5 -28v-371h-174v371q0 20 -1 36t-6.5 26.5t-17 16t-31.5 5.5q-25 0 -51 -9t-47 -20v-426h-174v570h164v-45q35 28 79.5 44t92.5 16q53 0 84.5 -16.5t50.5 -45.5q48 33 94 47.5
t86 14.5q59 0 94 -17t54 -46t24.5 -67t5.5 -80v-375h-174z" />
    <glyph glyph-name="n" unicode="n" horiz-adv-x="671" 
d="M432 0v361q0 52 -13.5 72.5t-54.5 20.5q-24 0 -55.5 -9t-66.5 -23v-422h-174v570h164v-46q44 27 91 44t96 17q64 0 101.5 -17.5t56.5 -48t24 -71.5t5 -87v-361h-174z" />
    <glyph glyph-name="o" unicode="o" horiz-adv-x="642" 
d="M595 253q0 -140 -72 -204t-203 -64q-130 0 -201.5 64t-71.5 204v63q0 141 71.5 205t201.5 64q131 0 203 -64t72 -205v-63zM421 316q0 76 -23.5 106t-77.5 30q-53 0 -76.5 -30t-23.5 -106v-63q0 -76 23.5 -106t76.5 -30q54 0 77.5 30t23.5 106v63z" />
    <glyph glyph-name="p" unicode="p" horiz-adv-x="654" 
d="M607 263q0 -78 -18.5 -131t-53 -85.5t-83.5 -46.5t-110 -14q-25 0 -53.5 2.5t-46.5 6.5v-198h-174v773h161v-36q40 27 83.5 39t85.5 12q48 0 86.5 -14t66 -46t42 -84t14.5 -127v-51zM433 314q0 41 -5.5 67.5t-16.5 42.5t-28.5 22t-42.5 6q-22 0 -45 -5t-55 -19v-303
q23 -4 44.5 -6.5t41.5 -2.5q27 0 47 5.5t33.5 21.5t20 45t6.5 75v51z" />
    <glyph glyph-name="q" unicode="q" horiz-adv-x="652" 
d="M411 -203v210q-31 -12 -62 -17t-62 -5q-62 0 -107 15t-74.5 48t-44 84.5t-14.5 124.5v48q0 82 18.5 136.5t55.5 86t91.5 44.5t126.5 13q29 0 55.5 -1t55 -2.5t61 -5t73.5 -7.5v-772h-173zM411 448q-14 2 -37 3t-40 1q-30 0 -51.5 -4.5t-35.5 -19.5t-20.5 -44.5
t-6.5 -79.5v-47q0 -40 4 -67t14.5 -43t27.5 -22.5t43 -6.5q17 0 43.5 3.5t58.5 14.5v312z" />
    <glyph glyph-name="r" unicode="r" horiz-adv-x="435" 
d="M418 439q-48 0 -95 -7.5t-81 -18.5v-413h-174v570h162v-47q42 38 91.5 50t96.5 12v-146v0z" />
    <glyph glyph-name="s" unicode="s" horiz-adv-x="543" 
d="M507 167q0 -92 -61 -136.5t-191 -44.5q-30 0 -61 2t-59 5.5t-50 7.5t-34 7v106q9 0 30 -2t48 -4t57.5 -3.5t59.5 -1.5q53 0 73 12.5t20 38.5q0 13 -4 21.5t-14 15.5t-27.5 14t-44.5 17l-46 17q-40 15 -70 32.5t-50.5 39.5t-30.5 49.5t-10 62.5q0 47 16 78t46.5 50
t74 26.5t98.5 7.5q31 0 61.5 -2t57.5 -5.5t48 -7.5t35 -8v-109q-51 5 -96 7.5t-90 2.5q-42 0 -63 -5t-21 -31q0 -11 3.5 -18.5t12.5 -14t24 -12.5t38 -15l50 -18q48 -17 80.5 -35t52.5 -39.5t28.5 -47.5t8.5 -60z" />
    <glyph glyph-name="t" unicode="t" horiz-adv-x="452" 
d="M421 1q-6 -2 -18 -4.5t-29 -5t-37.5 -4.5t-42.5 -2q-91 0 -132.5 39.5t-41.5 134.5v287l-99 9v115h99v144h174v-144h128v-124h-128v-285q0 -18 1 -29t6 -17t14 -8.5t26 -2.5q10 0 22 0.5t23 1t20.5 1t14.5 1.5v-107v0z" />
    <glyph glyph-name="u" unicode="u" horiz-adv-x="673" 
d="M441 0v46q-45 -26 -94 -43.5t-106 -17.5q-59 0 -93.5 19t-52.5 50t-23 71.5t-5 83.5v361h174v-361q0 -52 13 -72.5t55 -20.5q25 0 56 9t66 23v422h174v-570h-164z" />
    <glyph glyph-name="v" unicode="v" horiz-adv-x="620" 
d="M434 0h-248l-168 570h179l79 -310q10 -40 18.5 -79.5t16.5 -74.5q8 35 16 74.5t18 79.5l78 310h179z" />
    <glyph glyph-name="w" unicode="w" horiz-adv-x="936" 
d="M788 0h-215l-76 244q-10 32 -16.5 60t-10.5 54h-4q-7 -50 -28 -114l-76 -244h-214l-120 570h176l52 -282q7 -38 11.5 -72.5t6.5 -63.5h4q8 31 16 66t19 70l63 199h184l63 -199q11 -35 19.5 -70t16.5 -66h4q2 29 5.5 63.5t11.5 73.5l52 281h176z" />
    <glyph glyph-name="x" unicode="x" horiz-adv-x="615" 
d="M317 415l101 155h178l-192 -285l189 -285h-193l-108 163l-106 -163h-178l198 293l-184 277h193z" />
    <glyph glyph-name="y" unicode="y" horiz-adv-x="637" 
d="M435 -4q-18 -57 -38.5 -97t-48 -65.5t-64 -37.5t-87.5 -12q-47 0 -89.5 3.5t-71.5 9.5v111q18 -1 32.5 -1.5t27 -0.5h24h24.5q32 0 49 14.5t28 54.5l9 31l-207 564h187l84 -293q11 -36 18 -74t18 -77q8 39 15.5 76.5t17.5 75.5l76 292h177z" />
    <glyph glyph-name="z" unicode="z" horiz-adv-x="548" 
d="M40 0v128l269 317h-260v125h455v-130l-267 -317h268v-123h-465z" />
    <glyph glyph-name="braceleft" unicode="{" horiz-adv-x="462" 
d="M350 -203q-72 0 -119.5 9t-75.5 30.5t-39 57.5t-11 90v133q0 24 -3.5 39.5t-10.5 27t-18.5 20.5t-27.5 19v95q16 9 27.5 18t18.5 20.5t10.5 27.5t3.5 39v133q0 54 11 90t39 57.5t75.5 30.5t119.5 9h63v-130h-61q-24 0 -38.5 -1.5t-22 -7.5t-10 -17.5t-2.5 -30.5v-133
q0 -31 -4.5 -54t-14 -41t-24.5 -31.5t-37 -26.5q21 -13 36.5 -27t25 -31.5t14 -40.5t4.5 -54v-133q0 -19 2.5 -30.5t10 -17.5t22 -8t38.5 -2h62v-129h-64z" />
    <glyph glyph-name="bar" unicode="|" horiz-adv-x="336" 
d="M81 -203v946h173v-946h-173z" />
    <glyph glyph-name="braceright" unicode="}" horiz-adv-x="462" 
d="M417 223q-16 -10 -27 -19t-18 -20.5t-10.5 -27t-3.5 -39.5v-133q0 -54 -11 -90t-39 -57.5t-75.5 -30.5t-120.5 -9h-63v129h61q24 0 38.5 2t22 8t10 17.5t2.5 30.5v133q0 31 4.5 54t14 40.5t25 31.5t36.5 27q-43 25 -61.5 58t-18.5 95v133q0 19 -2.5 30t-10 17t-22 8
t-38.5 2h-61v130h63q73 0 120.5 -9t75.5 -30.5t39 -57.5t11 -90v-133q0 -23 3.5 -39t10.5 -27.5t18 -20.5t27 -18v-95v0z" />
    <glyph glyph-name="asciitilde" unicode="~" horiz-adv-x="677" 
d="M602 488q0 -86 -31 -126.5t-101 -40.5q-37 0 -65 6.5t-60 25.5l-61 37q-17 10 -28.5 16t-26.5 6q-22 0 -29 -13t-7 -40v-32h-120v32q0 90 38 129t103 39q31 0 56.5 -9t55.5 -27l60 -36q18 -10 31.5 -15t30.5 -5q23 0 29 14t6 39v32h119v-32v0z" />
    <glyph glyph-name="uni00A0" unicode="&#xa0;" horiz-adv-x="202" 
 />
    <glyph glyph-name="exclamdown" unicode="&#xa1;" horiz-adv-x="330" 
d="M68 -206l17 557h160l17 -557h-194zM75 546q0 11 5.5 17t12.5 9t13 3.5l6 0.5h138v-165h-175v135z" />
    <glyph glyph-name="cent" unicode="&#xa2;" horiz-adv-x="542" 
d="M493 445q-43 4 -84 5.5t-73 1.5q-29 0 -50.5 -5.5t-35.5 -20t-21 -41t-7 -68.5v-64q0 -42 7 -68.5t21 -41.5t35.5 -20.5t50.5 -5.5q30 0 70 2t87 5v-117q-15 -5 -47 -10.5t-75 -8.5v-109h-144v114q-91 18 -134.5 84t-43.5 176v64q0 110 43.5 175.5t134.5 84.5v113h144
v-109q45 -3 77.5 -9t44.5 -9v-118z" />
    <glyph glyph-name="sterling" unicode="&#xa3;" horiz-adv-x="659" 
d="M606 614q-13 1 -35 2t-48 2.5t-53.5 2.5t-51.5 1q-36 0 -58 -5.5t-33 -19.5t-14.5 -38t-3.5 -61v-55h208v-121h-208v-101q0 -26 -7 -47.5t-19 -40.5h323v-133h-525v109q26 25 36 53.5t10 58.5v101h-75v121h75v54q0 69 14 118.5t45 81.5t81 47.5t122 15.5q63 0 119.5 -6
t97.5 -15v-125z" />
    <glyph glyph-name="currency" unicode="&#xa4;" horiz-adv-x="665" 
d="M529 108l-80 77q-54 -31 -115 -31q-31 0 -60.5 7.5t-56.5 24.5l-82 -79l-76 74l81 79q-16 26 -24 55.5t-8 58.5t7.5 57.5t24.5 54.5l-82 80l77 73l81 -78q27 16 57.5 23.5t60.5 7.5q31 0 60.5 -7t55.5 -24l80 76l76 -74l-79 -77q16 -26 24.5 -55t8.5 -58t-8 -58.5
t-25 -55.5l79 -76zM456 374q0 25 -10 46.5t-26.5 37.5t-39 25.5t-46.5 9.5q-25 0 -47.5 -9.5t-39 -25.5t-26.5 -37.5t-10 -46.5q0 -26 10 -47.5t27 -38t39.5 -25.5t46.5 -9t46 9.5t39 25.5t27 38t10 47z" />
    <glyph glyph-name="yen" unicode="&#xa5;" horiz-adv-x="748" 
d="M463 205v-205h-181v205h-237v99h220l-49 88h-171v100h119l-133 251h193l101 -197q12 -26 24.5 -56t22.5 -58h4q10 28 23.5 58t25.5 56l100 197h189l-133 -251h119v-100h-171l-50 -88h221v-99h-237z" />
    <glyph glyph-name="brokenbar" unicode="&#xa6;" horiz-adv-x="336" 
d="M81 353v389h173v-389h-173zM254 -203h-173v390h173v-390z" />
    <glyph glyph-name="section" unicode="&#xa7;" horiz-adv-x="687" 
d="M84 -72q53 -4 116.5 -7.5t117.5 -3.5q34 0 56.5 5.5t35.5 15.5t18 25t5 35q0 17 -3.5 30t-14 25t-31.5 23t-55 25l-113 44q-76 28 -113.5 74t-37.5 122q0 28 7.5 58t24.5 55q-16 23 -23.5 49.5t-7.5 62.5q0 97 70 144t216 47q39 0 76.5 -3t70 -6.5t57.5 -8t38 -7.5v-120
q-20 1 -47 3.5t-58 4t-63.5 3t-63.5 1.5q-63 0 -88.5 -15.5t-25.5 -51.5q0 -15 3.5 -27t12.5 -22.5t25 -20.5t42 -20l112 -43q52 -19 86.5 -40t55 -46.5t29 -55t8.5 -64.5q0 -26 -7 -54t-27 -58q33 -45 33 -107q0 -109 -73 -163t-213 -54q-31 0 -65 2t-67 5t-64 7t-55 9v123
zM477 198q0 22 -2.5 37.5t-11.5 28t-27 23t-49 22.5l-112 42q-32 12 -48 23t-28 25v-34q0 -25 2 -41t11 -28t26 -21t47 -20l114 -43q26 -8 43.5 -18.5t34.5 -21.5v26z" />
    <glyph glyph-name="dieresis" unicode="&#xa8;" horiz-adv-x="508" 
d="M312 645v127h139v-127h-139zM57 742q0 11 5.5 17t12.5 9t13 3.5l6 0.5h103v-127h-140v97z" />
    <glyph glyph-name="copyright" unicode="&#xa9;" horiz-adv-x="859" 
d="M799 374q0 -93 -27.5 -164t-77 -119t-117.5 -73t-149 -25t-149.5 25t-118 73t-77.5 119t-28 164q0 92 28 163t77.5 119.5t118 73.5t149.5 25t149 -25t117.5 -73t77 -119t27.5 -164zM710 374q0 72 -20.5 127.5t-58 94t-89.5 58.5t-114 20q-63 0 -114.5 -20t-89 -58.5
t-58 -94t-20.5 -127.5t20.5 -128t58 -94.5t89 -58.5t114.5 -20q62 0 114 20t89.5 58.5t58 94.5t20.5 128zM438 158q-100 0 -147 49.5t-47 140.5v52q0 91 47 140.5t147 49.5q15 0 32 -1t32.5 -3t29 -4t21.5 -5v-84q-63 6 -103 6q-49 0 -67.5 -21.5t-18.5 -77.5v-52
q0 -55 18.5 -77t67.5 -22q20 0 45.5 1t57.5 4v-83q-8 -3 -21.5 -5t-29 -4t-32.5 -3t-32 -1z" />
    <glyph glyph-name="ordfeminine" unicode="&#xaa;" horiz-adv-x="458" 
d="M275 412v25q-18 -12 -49 -23t-69 -11q-51 0 -80.5 26.5t-29.5 77.5v13q0 37 14.5 58.5t39.5 32t59 13.5t72 3h32v17q0 15 -2.5 25t-9.5 15.5t-20 7.5t-34 2q-29 0 -63 -2.5t-60 -4.5v71q20 8 60.5 15.5t89.5 7.5q87 0 125 -30.5t38 -106.5v-232h-113zM269 567h-36
q-37 0 -53.5 -6.5t-16.5 -35.5v-13q0 -20 12 -25t29 -5q20 0 38.5 5.5t26.5 10.5v69z" />
    <glyph glyph-name="guillemotleft" unicode="&#xab;" horiz-adv-x="773" 
d="M546 70l-154 222l154 221h180l-150 -221l150 -222h-180zM380 70h-180l-154 222l154 221h180l-150 -221z" />
    <glyph glyph-name="logicalnot" unicode="&#xac;" horiz-adv-x="677" 
d="M446 183v271h-352v132h488v-403h-136z" />
    <glyph glyph-name="uni00AD" unicode="&#xad;" horiz-adv-x="376" 
d="M57 234v121h261v-121h-261z" />
    <glyph glyph-name="registered" unicode="&#xae;" horiz-adv-x="668" 
d="M610 474q0 -67 -20 -121t-56.5 -92t-87.5 -58.5t-113 -20.5q-63 0 -114.5 20.5t-87.5 58.5t-56 92t-20 121t20 121t56 92.5t87.5 59t114.5 20.5q62 0 113 -20.5t87.5 -59t56.5 -92.5t20 -121zM534 474q0 105 -53.5 164.5t-147.5 59.5q-95 0 -149 -59.5t-54 -164.5
q0 -106 54 -165.5t149 -59.5q94 0 147.5 59.5t53.5 165.5zM387 329l-64 107h-29v-107h-78v303q32 2 52 2.5t46 0.5q30 0 55.5 -4t44 -14.5t29.5 -29.5t11 -50v-4q0 -33 -14.5 -53.5t-39.5 -29.5l75 -121h-88zM376 537q0 24 -14.5 31t-44.5 7h-23v-83h24q30 0 44 8t14 34v3z
" />
    <glyph glyph-name="glyph113" unicode="&#xaf;" horiz-adv-x="503" 
d="M47 653v99h409v-99h-409z" />
    <glyph glyph-name="degree" unicode="&#xb0;" horiz-adv-x="432" 
d="M387 595q0 -34 -13.5 -64t-36.5 -52t-54 -35t-67 -13t-67 13t-54 35t-36.5 52t-13.5 64t13.5 64t36.5 52.5t54 35.5t67 13t67 -13t54 -35.5t36.5 -52.5t13.5 -64zM298 595q0 35 -24 57.5t-59 22.5q-34 0 -57.5 -22.5t-23.5 -57.5q0 -34 23.5 -56.5t57.5 -22.5
q35 0 59 22.5t24 56.5z" />
    <glyph glyph-name="plusminus" unicode="&#xb1;" horiz-adv-x="677" 
d="M78 0v107h520v-107h-520zM405 370v-186h-132v186h-197v131h197v185h132v-185h195v-131h-195z" />
    <glyph glyph-name="two.superior" unicode="&#xb2;" horiz-adv-x="454" 
d="M57 777q13 4 33 7t42.5 5.5t45.5 4t44 1.5q96 0 139.5 -28t43.5 -91q0 -24 -7 -43t-22.5 -35.5t-40.5 -32.5t-61 -32q-32 -15 -51.5 -25.5t-30 -21.5t-13.5 -23t-3 -30v-4h220v-91h-346v55q0 42 7.5 72t24.5 53t43.5 41.5t64.5 37.5q29 14 46 23.5t25.5 17.5t11 15.5
t2.5 18.5q0 20 -16 28.5t-59 8.5q-19 0 -40.5 -1t-41.5 -2t-36.5 -2t-24.5 -2v75z" />
    <glyph glyph-name="three.superior" unicode="&#xb3;" horiz-adv-x="450" 
d="M212 328q-24 0 -48.5 2t-46.5 5t-39 6.5t-26 6.5v74q8 -1 25 -2t37.5 -2t42.5 -1.5t40 -0.5q40 0 58 9.5t18 43.5v9q0 11 -2.5 20t-9.5 15t-20 9t-35 3h-126v81h127q21 0 34 3.5t20 10t9.5 15.5t2.5 20v6q0 27 -15.5 37t-60.5 10q-39 0 -77.5 -2.5t-67.5 -4.5v74
q9 3 26.5 6.5t39 6.5t46 5t48.5 2q45 0 80 -6t59 -20.5t37 -38.5t13 -59v-6q0 -29 -12.5 -56t-42.5 -42q31 -14 43 -40.5t12 -54.5v-9q0 -73 -46 -104t-143 -31z" />
    <glyph glyph-name="acute" unicode="&#xb4;" horiz-adv-x="485" 
d="M266 631h-163l132 146h198z" />
    <glyph glyph-name="mu" unicode="&#xb5;" horiz-adv-x="711" 
d="M456 0v46q-39 -21 -75.5 -34t-71.5 -17q-29 -1 -53 3v-200h-174v772h174v-361q0 -52 13 -72.5t55 -20.5q25 0 56 9t66 23v422h174v-570h-164z" />
    <glyph glyph-name="paragraph" unicode="&#xb6;" horiz-adv-x="753" 
d="M415 -196v440h-49q-65 0 -122 10.5t-99 38t-66.5 75t-24.5 121.5v10q0 75 24.5 122.5t67 74.5t100.5 37t125 10h320v-939h-106v834h-64l1 -834h-107z" />
    <glyph glyph-name="glyph121" unicode="&#xb7;" horiz-adv-x="302" 
d="M68 421q0 11 5.5 17t12.5 9t13 3.5l6 0.5h128v-166h-165v136z" />
    <glyph glyph-name="cedilla" unicode="&#xb8;" horiz-adv-x="454" 
d="M216 -203h-159l105 140h185z" />
    <glyph glyph-name="one.superior" unicode="&#xb9;" horiz-adv-x="407" 
d="M62 338v85l80 4v246l-81 -26v96l118 44h93v-360l81 -4v-85h-291z" />
    <glyph glyph-name="ordmasculine" unicode="&#xba;" horiz-adv-x="463" 
d="M415 576q0 -92 -48 -132.5t-136 -40.5q-87 0 -135.5 40.5t-48.5 132.5v32q0 92 49 132.5t135 40.5q87 0 135.5 -40.5t48.5 -132.5v-32zM293 608q0 47 -14.5 64t-47.5 17q-32 0 -47 -17t-15 -64v-32q0 -46 14.5 -63.5t47.5 -17.5t47.5 17.5t14.5 63.5v32z" />
    <glyph glyph-name="guillemotright" unicode="&#xbb;" horiz-adv-x="773" 
d="M573 70h-179l148 222l-148 221h179l154 -221zM381 292l-155 -222h-179l150 222l-150 221h179z" />
    <glyph glyph-name="onequarter" unicode="&#xbc;" horiz-adv-x="1002" 
d="M347 0h-148l497 745h147zM62 302v85l80 4v246l-81 -26v96l118 44h93v-360l81 -4v-85h-291zM767 0v98h-213v82l236 267h105v-265h60v-84h-60v-98h-128zM774 318l-119 -136h119v136z" />
    <glyph glyph-name="onehalf" unicode="&#xbd;" horiz-adv-x="1093" 
d="M347 0h-148l497 745h147zM62 302v85l80 4v246l-81 -26v96l118 44h93v-360l81 -4v-85h-291zM704 439q13 4 33 7t42.5 5.5t45.5 4t44 1.5q96 0 139.5 -28t43.5 -91q0 -24 -7 -43t-22.5 -35.5t-40.5 -32.5t-61 -32q-32 -15 -51.5 -25.5t-30 -21.5t-13.5 -23t-3 -30v-4h220
v-91h-346v55q0 42 7.5 72t24.5 53t43.5 41.5t64.5 37.5q29 14 46 23.5t25.5 17.5t11 15.5t2.5 18.5q0 20 -16 28.5t-59 8.5q-19 0 -40.5 -1t-41.5 -2t-36.5 -2t-24.5 -2v75z" />
    <glyph glyph-name="threequarters" unicode="&#xbe;" horiz-adv-x="1061" 
d="M380 0h-147l497 745h148zM212 292q-24 0 -48.5 2t-46.5 5t-39 6.5t-26 6.5v74q8 -1 25 -2t37.5 -2t42.5 -1.5t40 -0.5q40 0 58 9.5t18 43.5q0 29 -12 42.5t-55 13.5h-126v81h127q43 0 54.5 14.5t11.5 40.5q0 27 -15.5 37t-60.5 10q-39 0 -77.5 -2.5t-67.5 -4.5v74
q9 3 26.5 6.5t39 6.5t46 5t48.5 2q45 0 80 -6.5t59 -21.5t37 -40t13 -62q0 -29 -12.5 -56t-42.5 -42q31 -14 43 -40.5t12 -54.5q0 -80 -46 -112t-143 -32zM822 0v98h-213v82l236 267h105v-265h60v-84h-60v-98h-128zM829 318l-119 -136h119v136z" />
    <glyph glyph-name="questiondown" unicode="&#xbf;" horiz-adv-x="541" 
d="M509 -185q-42 -15 -98.5 -23t-118.5 -8q-118 0 -177.5 39.5t-59.5 127.5v7q0 25 5 47.5t17 45t32 46.5t49 52q35 34 56 58.5t32 43.5t14 36.5t3 38.5v26h151v-26q0 -32 -2 -57.5t-9.5 -49t-23 -47.5t-41.5 -52q-24 -26 -39 -45t-24 -34t-12.5 -28t-3.5 -27v-6
q0 -35 23 -46.5t73 -11.5q35 0 76 2.5t78 5.5v-115zM251 546q0 11 5.5 17t12.5 9t13 3.5l6 0.5h138v-165h-175v135z" />
    <glyph glyph-name="Agrave" unicode="&#xc0;" horiz-adv-x="748" 
d="M531 0l-53 187h-211l-54 -187h-192l207 743h290l209 -743h-196zM399 518q-7 27 -12.5 56t-10.5 58h-7l-10 -58t-13 -56l-53 -197h160zM327 789l-167 146h198l131 -146h-162z" />
    <glyph glyph-name="Aacute" unicode="&#xc1;" horiz-adv-x="748" 
d="M531 0l-53 187h-211l-54 -187h-192l207 743h290l209 -743h-196zM399 518q-7 27 -12.5 56t-10.5 58h-7l-10 -58t-13 -56l-53 -197h160zM434 789h-163l132 146h197z" />
    <glyph glyph-name="Acircumflex" unicode="&#xc2;" horiz-adv-x="748" 
d="M531 0l-53 187h-211l-54 -187h-192l207 743h290l209 -743h-196zM399 518q-7 27 -12.5 56t-10.5 58h-7l-10 -58t-13 -56l-53 -197h160zM459 789l-86 82l-87 -82h-152l135 146h208l135 -146h-153z" />
    <glyph glyph-name="Atilde" unicode="&#xc3;" horiz-adv-x="748" 
d="M531 0l-53 187h-211l-54 -187h-192l207 743h290l209 -743h-196zM399 518q-7 27 -12.5 56t-10.5 58h-7l-10 -58t-13 -56l-53 -197h160zM600 924q0 -76 -33.5 -107.5t-84.5 -31.5q-23 0 -48.5 6.5t-56.5 23.5l-47 26q-17 10 -29 15.5t-25 5.5q-19 0 -25 -12.5t-6 -35.5v-24
h-99v24q0 38 9 64.5t25.5 43t39 24t49.5 7.5q25 0 46.5 -6t51.5 -23l48 -26q17 -9 30 -15t27 -6q19 0 25 11.5t6 35.5v24h97v-24z" />
    <glyph glyph-name="Adieresis" unicode="&#xc4;" horiz-adv-x="748" 
d="M531 0l-53 187h-211l-54 -187h-192l207 743h290l209 -743h-196zM399 518q-8 27 -13 56l-10 58h-7l-10 -58t-13 -56l-53 -197h160zM175 898q0 11 5.5 17t12.5 9t13 3.5l6 0.5h104v-127h-141v97zM430 898v30h141v-127h-141v97z" />
    <glyph glyph-name="Aring" unicode="&#xc5;" horiz-adv-x="748" 
d="M531 0l-53 187h-211l-54 -187h-192l207 743h290l209 -743h-196zM399 518q-7 27 -12.5 56t-10.5 58h-7l-10 -58t-13 -56l-53 -197h160zM516 896q0 -60 -40 -91t-101 -31q-31 0 -57 8t-45.5 23t-30.5 38t-11 53t11 52.5t30.5 38t45.5 23.5t57 8q61 0 101 -31t40 -91z
M430 896q0 26 -15.5 37t-39.5 11t-40 -11t-16 -37q0 -25 15.5 -36.5t40.5 -11.5q24 0 39.5 11.5t15.5 36.5z" />
    <glyph glyph-name="AE" unicode="&#xc6;" horiz-adv-x="1875" 
d="M429 607v-607h-188v607h-215v136h586v-136h-183zM1041 0l-241 345v-345h-188v743h188v-344l254 344h216l-277 -367l274 -376h-226zM1346 0v743h188v-603h291v-140h-479z" />
    <glyph glyph-name="Ccedilla" unicode="&#xc7;" horiz-adv-x="616" 
d="M584 3q-14 -3 -38.5 -6.5t-53 -6.5t-57.5 -5t-52 -2q-80 0 -142 16.5t-104.5 56t-65 106t-22.5 167.5v86q0 100 22.5 166.5t65 106t104.5 55.5t142 16q23 0 52 -2t57.5 -5t53 -6.5t38.5 -7.5v-133q-38 3 -87.5 6t-95.5 3q-41 0 -72 -8.5t-51 -30.5t-30 -60.5t-10 -99.5
v-86q0 -61 10 -100t30.5 -61.5t51 -31t72.5 -8.5q46 0 95 2.5t87 5.5v-133zM326 -203h-159l105 140h186z" />
    <glyph glyph-name="Egrave" unicode="&#xc8;" horiz-adv-x="628" 
d="M73 0v743h506v-136h-319v-162h298v-129h-298v-181h319v-135h-506zM270 789l-167 146h198l131 -146h-162z" />
    <glyph glyph-name="Eacute" unicode="&#xc9;" horiz-adv-x="628" 
d="M73 0v743h506v-136h-319v-162h298v-129h-298v-181h319v-135h-506zM394 789h-163l132 146h197z" />
    <glyph glyph-name="Ecircumflex" unicode="&#xca;" horiz-adv-x="628" 
d="M73 0v743h506v-136h-319v-162h298v-129h-298v-181h319v-135h-506zM414 789l-87 82l-86 -82h-152l135 146h208l134 -146h-152z" />
    <glyph glyph-name="Edieresis" unicode="&#xcb;" horiz-adv-x="628" 
d="M73 0v743h506v-136h-319v-162h298v-129h-298v-181h319v-135h-506zM130 897q0 11 5.5 17t12.5 9t13 3.5l6 0.5h104v-127h-141v97zM385 897v30h141v-127h-141v97z" />
    <glyph glyph-name="Igrave" unicode="&#xcc;" horiz-adv-x="333" 
d="M73 0v743h187v-743h-187zM129 789l-166 146h197l132 -146h-163z" />
    <glyph glyph-name="Iacute" unicode="&#xcd;" horiz-adv-x="333" 
d="M73 0v743h187v-743h-187zM226 788h-162l131 146h198z" />
    <glyph glyph-name="Icircumflex" unicode="&#xce;" horiz-adv-x="333" 
d="M73 0v743h187v-743h-187zM254 789l-86 82l-87 -82h-152l135 146h208l135 -146h-153z" />
    <glyph glyph-name="Idieresis" unicode="&#xcf;" horiz-adv-x="333" 
d="M73 0v743h187v-743h-187zM-31 897q0 11 5.5 17t12.5 9t13 3.5l6 0.5h104v-127h-141v97zM224 897v30h141v-127h-141v97z" />
    <glyph glyph-name="Eth" unicode="&#xd0;" horiz-adv-x="738" 
d="M689 335q0 -89 -20.5 -154t-64 -107t-111.5 -62.5t-164 -20.5q-66 0 -128.5 2t-127.5 7v318h-50v126h50v299q65 5 127.5 7t128.5 2q187 0 273.5 -82.5t86.5 -257.5v-77zM505 412q0 59 -9.5 97.5t-30.5 61t-54 31.5t-80 9h-76v-167h110v-126h-110v-187h76q47 0 80 9.5
t54 33t30.5 63t9.5 98.5v77z" />
    <glyph glyph-name="Ntilde" unicode="&#xd1;" horiz-adv-x="776" 
d="M509 0l-215 386q-14 24 -27.5 50.5t-24.5 51.5h-2q1 -29 2 -59.5t1 -60.5v-368h-170v743h191l217 -379q14 -24 28 -52t25 -53h2q-2 26 -2.5 59.5t-0.5 67.5v357h170v-743h-194zM616 923q0 -38 -9 -64.5t-24.5 -43t-37.5 -24t-48 -7.5q-23 0 -48 6.5t-57 23.5l-47 26
q-17 10 -29 15t-25 5q-18 0 -24.5 -12t-6.5 -35v-25h-99v25q0 38 9.5 64.5t26 43t39 24t48.5 7.5t47 -6.5t52 -22.5l47 -26q17 -9 30 -15t27 -6q19 0 25 11.5t6 35.5v24h98v-24z" />
    <glyph glyph-name="Ograve" unicode="&#xd2;" horiz-adv-x="745" 
d="M696 333q0 -96 -23.5 -163t-66 -108.5t-102.5 -60t-132 -18.5t-131.5 18.5t-102 60t-66 108.5t-23.5 163v76q0 97 23.5 163.5t66.5 108t102 60t131 18.5t131.5 -18.5t102.5 -60t66.5 -108t23.5 -163.5v-76zM512 409q0 58 -9 97.5t-27 63.5t-44 34t-60 10q-33 0 -59 -10
t-43.5 -34t-27 -63.5t-9.5 -97.5v-75q0 -59 9.5 -98.5t27.5 -63.5t43.5 -34t58.5 -10t59 10t44 34t27.5 63.5t9.5 98.5v75zM327 789l-166 146h197l132 -146h-163z" />
    <glyph glyph-name="Oacute" unicode="&#xd3;" horiz-adv-x="745" 
d="M696 333q0 -96 -23.5 -163t-66 -108.5t-102.5 -60t-132 -18.5t-131.5 18.5t-102 60t-66 108.5t-23.5 163v76q0 97 23.5 163.5t66.5 108t102 60t131 18.5t131.5 -18.5t102.5 -60t66.5 -108t23.5 -163.5v-76zM512 409q0 58 -9 97.5t-27 63.5t-44 34t-60 10q-33 0 -59 -10
t-43.5 -34t-27 -63.5t-9.5 -97.5v-75q0 -59 9.5 -98.5t27.5 -63.5t43.5 -34t58.5 -10t59 10t44 34t27.5 63.5t9.5 98.5v75zM420 789h-163l132 146h197z" />
    <glyph glyph-name="Ocircumflex" unicode="&#xd4;" horiz-adv-x="745" 
d="M696 333q0 -96 -23.5 -163t-66 -108.5t-102.5 -60t-132 -18.5t-131.5 18.5t-102 60t-66 108.5t-23.5 163v76q0 97 23.5 163.5t66.5 108t102 60t131 18.5t131.5 -18.5t102.5 -60t66.5 -108t23.5 -163.5v-76zM512 409q0 58 -9 97.5t-27 63.5t-44 34t-60 10q-33 0 -59 -10
t-43.5 -34t-27 -63.5t-9.5 -97.5v-75q0 -59 9.5 -98.5t27.5 -63.5t43.5 -34t58.5 -10t59 10t44 34t27.5 63.5t9.5 98.5v75zM459 788l-87 82l-86 -82h-153l135 146h209l134 -146h-152z" />
    <glyph glyph-name="Otilde" unicode="&#xd5;" horiz-adv-x="745" 
d="M696 333q0 -96 -23.5 -163t-66 -108.5t-102.5 -60t-132 -18.5t-131.5 18.5t-102 60t-66 108.5t-23.5 163v76q0 97 23.5 163.5t66.5 108t102 60t131 18.5t131.5 -18.5t102.5 -60t66.5 -108t23.5 -163.5v-76zM512 409q0 58 -9 97.5t-27 63.5t-44 34t-60 10q-33 0 -59 -10
t-43.5 -34t-27 -63.5t-9.5 -97.5v-75q0 -59 9.5 -98.5t27.5 -63.5t43.5 -34t58.5 -10t59 10t44 34t27.5 63.5t9.5 98.5v75zM599 923q0 -76 -33.5 -107.5t-84.5 -31.5q-23 0 -48.5 6.5t-56.5 23.5l-47 26q-17 10 -29 15t-25 5q-19 0 -25 -12t-6 -35v-25h-99v25q0 38 9 64.5
t25.5 43t39 24t49.5 7.5q25 0 46.5 -6.5t51.5 -22.5l48 -26q17 -9 30 -15t27 -6q19 0 25 11.5t6 35.5v24h97v-24z" />
    <glyph glyph-name="Odieresis" unicode="&#xd6;" horiz-adv-x="745" 
d="M696 333q0 -96 -23.5 -163t-66 -108.5t-102.5 -60t-132 -18.5t-131.5 18.5t-102 60t-66 108.5t-23.5 163v76q0 97 23.5 163.5t66.5 108t102 60t131 18.5t131.5 -18.5t102.5 -60t66.5 -108t23.5 -163.5v-76zM512 409q0 58 -9 97.5t-27 63.5t-44 34t-60 10q-33 0 -59 -10
t-43.5 -34t-27 -63.5t-9.5 -97.5v-75q0 -59 9.5 -98.5t27.5 -63.5t43.5 -34t58.5 -10t59 10t44 34t27.5 63.5t9.5 98.5v75zM175 898q0 11 5.5 17t12.5 9t13 3.5l6 0.5h104v-127h-141v97zM430 898v30h141v-127h-141v97z" />
    <glyph glyph-name="multiply" unicode="&#xd7;" horiz-adv-x="677" 
d="M485 154l-146 141l-148 -143l-90 89l148 144l-148 142l89 89l149 -143l147 143l90 -90l-148 -142l147 -141z" />
    <glyph glyph-name="Oslash" unicode="&#xd8;" horiz-adv-x="745" 
d="M696 333q0 -96 -23.5 -163t-66 -108.5t-102.5 -60t-132 -18.5q-55 0 -102.5 10.5t-86.5 33.5l-20 -27h-137l78 103q-26 42 -40.5 98.5t-14.5 131.5v76q0 97 23.5 163.5t66.5 108t102 60t131 18.5q56 0 104.5 -11t87.5 -35l23 30h138l-82 -109q26 -41 39.5 -96.5
t13.5 -128.5v-76zM233 334q0 -32 3 -57l229 304q-33 33 -93 33q-33 0 -59 -10t-43.5 -34t-27 -63.5t-9.5 -97.5v-75zM512 409q0 14 -0.5 26t-1.5 23l-228 -300q17 -17 39.5 -23.5t50.5 -6.5q33 0 59 10t44 34t27.5 63.5t9.5 98.5v75z" />
    <glyph glyph-name="Ugrave" unicode="&#xd9;" horiz-adv-x="763" 
d="M695 301q0 -161 -81.5 -239.5t-231.5 -78.5t-232 78.5t-82 239.5v442h185v-437q0 -50 6 -84.5t20.5 -56t39.5 -31.5t63 -10t63 10t40 31.5t21 56t6 84.5v437h183v-442zM322 789l-167 146h198l131 -146h-162z" />
    <glyph glyph-name="Uacute" unicode="&#xda;" horiz-adv-x="763" 
d="M695 301q0 -161 -81.5 -239.5t-231.5 -78.5t-232 78.5t-82 239.5v442h185v-437q0 -50 6 -84.5t20.5 -56t39.5 -31.5t63 -10t63 10t40 31.5t21 56t6 84.5v437h183v-442zM447 790h-163l132 145h197z" />
    <glyph glyph-name="Ucircumflex" unicode="&#xdb;" horiz-adv-x="763" 
d="M695 301q0 -161 -81.5 -239.5t-231.5 -78.5t-232 78.5t-82 239.5v442h185v-437q0 -50 6 -84.5t20.5 -56t39.5 -31.5t63 -10t63 10t40 31.5t21 56t6 84.5v437h183v-442zM469 789l-87 82l-86 -82h-152l135 146h208l134 -146h-152z" />
    <glyph glyph-name="Udieresis" unicode="&#xdc;" horiz-adv-x="763" 
d="M695 301q0 -161 -81.5 -239.5t-231.5 -78.5t-232 78.5t-82 239.5v442h185v-437q0 -50 6 -84.5t20.5 -56t39.5 -31.5t63 -10t63 10t40 31.5t21 56t6 84.5v437h183v-442zM184 898q0 11 5.5 17t12.5 9t13 3.5l6 0.5h104v-127h-141v97zM439 898v30h141v-127h-141v97z" />
    <glyph glyph-name="Yacute" unicode="&#xdd;" horiz-adv-x="706" 
d="M444 268v-268h-182v268l-248 475h191l100 -197q12 -26 24.5 -56t22.5 -58h5q9 28 23 58t26 56l100 197h186zM420 789h-163l132 146h198z" />
    <glyph glyph-name="Thorn" unicode="&#xde;" horiz-adv-x="697" 
d="M73 0v754h180v-112q22 1 42.5 1h36.5q68 0 128.5 -9t106.5 -35.5t72.5 -74t26.5 -123.5v-12q0 -77 -27 -124.5t-72.5 -74t-105.5 -36t-126 -9.5h-38t-44 1v-146h-180zM485 402q0 31 -9.5 51t-29 31.5t-48.5 15.5t-68 4q-21 0 -42 -0.5t-35 -0.5v-216q14 -1 34.5 -1h43.5
q78 0 116 20.5t38 83.5v12z" />
    <glyph glyph-name="germandbls" unicode="&#xdf;" horiz-adv-x="704" 
d="M654 217q0 -51 -14.5 -93t-45 -72t-77.5 -46.5t-111 -16.5q-24 0 -46 2t-45 5v124h43q67 0 95.5 25.5t28.5 80.5v17q0 49 -29 75t-98 26h-40v110h40q65 0 91 26t26 73v9q0 20 -5 37t-17.5 29t-34 19t-54.5 7q-32 0 -54.5 -7.5t-36.5 -24.5t-20 -44.5t-6 -68.5v-509h-174
v509q0 65 15 116.5t49.5 87.5t91 55t139.5 19q78 0 130.5 -18t84 -48t44.5 -69t13 -80v-10q0 -50 -21.5 -91.5t-69.5 -65.5q57 -26 82.5 -73t25.5 -97v-18v0z" />
    <glyph glyph-name="agrave" unicode="&#xe0;" horiz-adv-x="609" 
d="M388 0v37q-28 -19 -75 -35.5t-104 -16.5q-81 0 -124 41t-43 122v23q0 57 20.5 90.5t57.5 51.5t88 23t112 5h53v31q0 26 -4 42.5t-15 25.5t-31.5 12.5t-54.5 3.5q-38 0 -87 -2.5t-97 -7.5v104q12 4 34.5 10.5t51.5 11.5t63.5 9t70.5 4q67 0 113 -11.5t75 -37t42 -66
t13 -98.5v-372h-159zM379 251h-58q-30 0 -51 -2.5t-35 -10t-20.5 -22.5t-6.5 -39v-23q0 -34 18 -46t47 -12q34 0 63.5 9.5t42.5 17.5v128zM266 631l-167 146h198l131 -146h-162z" />
    <glyph glyph-name="aacute" unicode="&#xe1;" horiz-adv-x="609" 
d="M388 0v37q-28 -19 -75 -35.5t-104 -16.5q-81 0 -124 41t-43 122v23q0 57 20.5 90.5t57.5 51.5t88 23t112 5h53v31q0 26 -4 42.5t-15 25.5t-31.5 12.5t-54.5 3.5q-38 0 -87 -2.5t-97 -7.5v104q12 4 34.5 10.5t51.5 11.5t63.5 9t70.5 4q67 0 113 -11.5t75 -37t42 -66
t13 -98.5v-372h-159zM379 251h-58q-30 0 -51 -2.5t-35 -10t-20.5 -22.5t-6.5 -39v-23q0 -34 18 -46t47 -12q34 0 63.5 9.5t42.5 17.5v128zM374 631h-162l131 146h198z" />
    <glyph glyph-name="acircumflex" unicode="&#xe2;" horiz-adv-x="609" 
d="M388 0v37q-28 -19 -75 -35.5t-104 -16.5q-81 0 -124 41t-43 122v23q0 57 20.5 90.5t57.5 51.5t88 23t112 5h53v31q0 26 -4 42.5t-15 25.5t-31.5 12.5t-54.5 3.5q-38 0 -87 -2.5t-97 -7.5v104q12 4 34.5 10.5t51.5 11.5t63.5 9t70.5 4q67 0 113 -11.5t75 -37t42 -66
t13 -98.5v-372h-159zM379 251h-58q-30 0 -51 -2.5t-35 -10t-20.5 -22.5t-6.5 -39v-23q0 -34 18 -46t47 -12q34 0 63.5 9.5t42.5 17.5v128zM393 631l-86 82l-87 -82h-152l135 146h208l135 -146h-153z" />
    <glyph glyph-name="atilde" unicode="&#xe3;" horiz-adv-x="609" 
d="M388 0v37q-28 -19 -75 -35.5t-104 -16.5q-81 0 -124 41t-43 122v23q0 57 20.5 90.5t57.5 51.5t88 23t112 5h53v31q0 26 -4 42.5t-15 25.5t-31.5 12.5t-54.5 3.5q-38 0 -87 -2.5t-97 -7.5v104q12 4 34.5 10.5t51.5 11.5t63.5 9t70.5 4q67 0 113 -11.5t75 -37t42 -66
t13 -98.5v-372h-159zM379 251h-58q-30 0 -51 -2.5t-35 -10t-20.5 -22.5t-6.5 -39v-23q0 -34 18 -46t47 -12q34 0 63.5 9.5t42.5 17.5v128zM534 766q0 -38 -9 -64.5t-24.5 -43t-37.5 -24t-48 -7.5q-23 0 -48 6.5t-57 23.5l-47 26q-17 10 -29 15.5t-25 5.5q-18 0 -24.5 -12.5
t-6.5 -35.5v-24h-98v24q0 38 9 64.5t25.5 43t39 24t48.5 7.5t47 -6t52 -23l48 -26q16 -9 29 -15t28 -6q18 0 24 11.5t6 35.5v24h98v-24z" />
    <glyph glyph-name="adieresis" unicode="&#xe4;" horiz-adv-x="609" 
d="M388 0v37q-28 -19 -75 -35.5t-104 -16.5q-81 0 -124 41t-43 122v23q0 57 20.5 90.5t57.5 51.5t88 23t112 5h53v31q0 26 -4 42.5t-15 25.5t-31.5 12.5t-54.5 3.5q-38 0 -87 -2.5t-97 -7.5v104q12 4 34.5 10.5t51.5 11.5t63.5 9t70.5 4q67 0 113 -11.5t75 -37t42 -66
t13 -98.5v-372h-159zM379 251h-58q-30 0 -51 -2.5t-35 -10t-20.5 -22.5t-6.5 -39v-23q0 -34 18 -46t47 -12q34 0 63.5 9.5t42.5 17.5v128zM110 742q0 11 5.5 17t12.5 9t13 3.5l6 0.5h104v-127h-141v97zM365 742v30h141v-127h-141v97z" />
    <glyph glyph-name="aring" unicode="&#xe5;" horiz-adv-x="609" 
d="M388 0v37q-28 -19 -75 -35.5t-104 -16.5q-81 0 -124 41t-43 122v23q0 57 20.5 90.5t57.5 51.5t88 23t112 5h53v31q0 26 -4 42.5t-15 25.5t-31.5 12.5t-54.5 3.5q-38 0 -87 -2.5t-97 -7.5v104q12 4 34.5 10.5t51.5 11.5t63.5 9t70.5 4q67 0 113 -11.5t75 -37t42 -66
t13 -98.5v-372h-159zM379 251h-58q-30 0 -51 -2.5t-35 -10t-20.5 -22.5t-6.5 -39v-23q0 -34 18 -46t47 -12q34 0 63.5 9.5t42.5 17.5v128zM455 736q0 -60 -40 -91t-101 -31q-31 0 -57 8t-45.5 23t-30.5 38t-11 53t11 52.5t30.5 38t45.5 23.5t57 8q61 0 101 -31t40 -91z
M369 736q0 26 -15.5 37t-39.5 11t-40 -11t-16 -37q0 -25 15.5 -36.5t40.5 -11.5q24 0 39.5 11.5t15.5 36.5z" />
    <glyph glyph-name="ae" unicode="&#xe6;" horiz-adv-x="963" 
d="M893 9q-17 -4 -42 -8t-55 -7.5t-64 -5.5t-70 -2q-76 0 -131.5 16t-88.5 51q-56 -38 -110.5 -52.5t-122.5 -14.5q-81 0 -124 40.5t-43 121.5v23q0 57 20.5 90.5t57.5 51.5t88 23t112 5h53v31q0 25 -3.5 41t-14.5 25.5t-31.5 13.5t-54.5 4q-80 0 -185 -9v103q12 4 34 10.5
t51.5 11.5t64 9t70.5 4q71 0 110.5 -11.5t64.5 -33.5q31 21 71.5 32.5t97.5 11.5q80 0 132.5 -24t83.5 -63.5t43.5 -90.5t12.5 -106v-62h-374v-8q0 -28 3.5 -50.5t16.5 -38t39.5 -24t72.5 -8.5q25 0 53.5 0.5t57 2t55.5 3.5t49 5v-111zM750 341q0 24 -3.5 45.5t-14 38
t-31 26.5t-53.5 10t-52.5 -10t-30.5 -26.5t-14.5 -38.5t-3.5 -45v-8h203v8zM379 251h-58q-30 0 -51 -2.5t-35 -10t-20.5 -22.5t-6.5 -39v-23q0 -34 18 -46t47 -12q33 0 62.5 9.5t43.5 17.5v128z" />
    <glyph glyph-name="ccedilla" unicode="&#xe7;" horiz-adv-x="533" 
d="M492 7q-25 -6 -73.5 -14t-117.5 -8q-132 0 -193 67.5t-61 200.5v64q0 136 61 202t193 66q69 0 117.5 -8t73.5 -14v-119q-57 4 -95 6t-63 2q-29 0 -50 -5.5t-35.5 -20t-21.5 -41t-7 -68.5v-64q0 -42 7.5 -68.5t21.5 -41.5t35.5 -20.5t49.5 -5.5q25 0 63 2t95 6v-118z
M268 -203h-159l105 140h185z" />
    <glyph glyph-name="egrave" unicode="&#xe8;" horiz-adv-x="637" 
d="M219 238v-8q0 -28 3.5 -49.5t17 -36.5t40 -22.5t72.5 -7.5q43 0 92.5 3t121.5 8v-115q-33 -8 -90.5 -16.5t-131.5 -8.5q-78 0 -134.5 14.5t-92.5 48t-53 87.5t-17 132v31q0 150 69.5 218.5t205.5 68.5q80 0 132.5 -24t83.5 -64.5t43.5 -95.5t12.5 -116v-47h-375zM423 341
q0 24 -3.5 45.5t-14 38t-31 26.5t-53.5 10q-32 0 -52 -10t-31 -26.5t-14.5 -38.5t-3.5 -45v-8h203v8zM286 631l-167 146h198l131 -146h-162z" />
    <glyph glyph-name="eacute" unicode="&#xe9;" horiz-adv-x="637" 
d="M219 238v-8q0 -28 3.5 -49.5t17 -36.5t40 -22.5t72.5 -7.5q43 0 92.5 3t121.5 8v-115q-33 -8 -90.5 -16.5t-131.5 -8.5q-78 0 -134.5 14.5t-92.5 48t-53 87.5t-17 132v31q0 150 69.5 218.5t205.5 68.5q80 0 132.5 -24t83.5 -64.5t43.5 -95.5t12.5 -116v-47h-375zM423 341
q0 24 -3.5 45.5t-14 38t-31 26.5t-53.5 10q-32 0 -52 -10t-31 -26.5t-14.5 -38.5t-3.5 -45v-8h203v8zM390 631h-163l132 146h197z" />
    <glyph glyph-name="ecircumflex" unicode="&#xea;" horiz-adv-x="637" 
d="M219 238v-8q0 -28 3.5 -49.5t17 -36.5t40 -22.5t72.5 -7.5q43 0 92.5 3t121.5 8v-115q-33 -8 -90.5 -16.5t-131.5 -8.5q-78 0 -134.5 14.5t-92.5 48t-53 87.5t-17 132v31q0 150 69.5 218.5t205.5 68.5q80 0 132.5 -24t83.5 -64.5t43.5 -95.5t12.5 -116v-47h-375zM423 341
q0 24 -3.5 45.5t-14 38t-31 26.5t-53.5 10q-32 0 -52 -10t-31 -26.5t-14.5 -38.5t-3.5 -45v-8h203v8zM407 631l-86 82l-87 -82h-152l135 146h208l135 -146h-153z" />
    <glyph glyph-name="edieresis" unicode="&#xeb;" horiz-adv-x="637" 
d="M219 238v-8q0 -28 3.5 -49.5t17 -36.5t40 -22.5t72.5 -7.5q43 0 92.5 3t121.5 8v-115q-33 -8 -90.5 -16.5t-131.5 -8.5q-78 0 -134.5 14.5t-92.5 48t-53 87.5t-17 132v31q0 150 69.5 218.5t205.5 68.5q80 0 132.5 -24t83.5 -64.5t43.5 -95.5t12.5 -116v-47h-375zM423 341
q0 24 -3.5 45.5t-14 38t-31 26.5t-53.5 10q-32 0 -52 -10t-31 -26.5t-14.5 -38.5t-3.5 -45v-8h203v8zM121 742q0 11 5.5 17t12.5 9t13 3.5l6 0.5h104v-127h-141v97zM376 742v30h141v-127h-141v97z" />
    <glyph glyph-name="igrave" unicode="&#xec;" horiz-adv-x="318" 
d="M72 0v570h174v-570h-174zM107 631l-167 146h198l131 -146h-162z" />
    <glyph glyph-name="iacute" unicode="&#xed;" horiz-adv-x="318" 
d="M72 0v570h174v-570h-174zM211 631h-163l132 146h198z" />
    <glyph glyph-name="icircumflex" unicode="&#xee;" horiz-adv-x="318" 
d="M72 0v570h174v-570h-174zM246 631l-87 82l-86 -82h-153l135 146h209l134 -146h-152z" />
    <glyph glyph-name="idieresis" unicode="&#xef;" horiz-adv-x="318" 
d="M72 0v570h174v-570h-174zM-40 742q0 11 5.5 17t12.5 9t13 3.5l6 0.5h104v-127h-141v97zM215 742v30h141v-127h-141v97z" />
    <glyph glyph-name="eth" unicode="&#xf0;" horiz-adv-x="642" 
d="M595 269q0 -147 -69.5 -215t-204.5 -68q-134 0 -204 64t-70 200v48q0 141 71.5 203.5t200.5 62.5q43 0 79 -17q-40 76 -124 109l-115 -83l-43 48l79 58q-21 4 -43.5 6.5t-45.5 2.5h-13t-17 -1v100q30 3 55 3q48 0 89.5 -6t77.5 -17l75 55l44 -47l-46 -36q57 -26 99.5 -68
t70 -95.5t41 -117.5t13.5 -135v-54zM421 307q0 69 -23.5 97t-76.5 28q-54 0 -77.5 -29.5t-23.5 -101.5v-51q0 -74 24 -103.5t77 -29.5t76.5 29.5t23.5 103.5v57z" />
    <glyph glyph-name="ntilde" unicode="&#xf1;" horiz-adv-x="671" 
d="M432 0v361q0 52 -13.5 72.5t-54.5 20.5q-24 0 -55.5 -9t-66.5 -23v-422h-174v570h164v-46q44 27 91 44t96 17q64 0 101.5 -17.5t56.5 -48t24 -71.5t5 -87v-361h-174zM563 766q0 -38 -9 -64.5t-24.5 -43t-37.5 -24t-48 -7.5q-23 0 -48 6.5t-57 23.5l-47 26
q-17 10 -29 15.5t-25 5.5q-18 0 -24.5 -12.5t-6.5 -35.5v-24h-99v24q0 38 9.5 64.5t26 43t39 24t48.5 7.5t47 -6t52 -23l47 -26q17 -9 30 -15t27 -6q19 0 25 11.5t6 35.5v24h98v-24z" />
    <glyph glyph-name="ograve" unicode="&#xf2;" horiz-adv-x="642" 
d="M595 253q0 -140 -72 -204t-203 -64q-130 0 -201.5 64t-71.5 204v63q0 141 71.5 205t201.5 64q131 0 203 -64t72 -205v-63zM421 316q0 76 -23.5 106t-77.5 30q-53 0 -76.5 -30t-23.5 -106v-63q0 -76 23.5 -106t76.5 -30q54 0 77.5 30t23.5 106v63zM271 631l-167 146h198
l131 -146h-162z" />
    <glyph glyph-name="oacute" unicode="&#xf3;" horiz-adv-x="642" 
d="M595 253q0 -140 -72 -204t-203 -64q-130 0 -201.5 64t-71.5 204v63q0 141 71.5 205t201.5 64q131 0 203 -64t72 -205v-63zM421 316q0 76 -23.5 106t-77.5 30q-53 0 -76.5 -30t-23.5 -106v-63q0 -76 23.5 -106t76.5 -30q54 0 77.5 30t23.5 106v63zM376 631h-163l132 146
h197z" />
    <glyph glyph-name="ocircumflex" unicode="&#xf4;" horiz-adv-x="642" 
d="M595 253q0 -140 -72 -204t-203 -64q-130 0 -201.5 64t-71.5 204v63q0 141 71.5 205t201.5 64q131 0 203 -64t72 -205v-63zM421 316q0 76 -23.5 106t-77.5 30q-53 0 -76.5 -30t-23.5 -106v-63q0 -76 23.5 -106t76.5 -30q54 0 77.5 30t23.5 106v63zM407 631l-86 82l-87 -82
h-152l135 146h208l135 -146h-153z" />
    <glyph glyph-name="otilde" unicode="&#xf5;" horiz-adv-x="642" 
d="M595 253q0 -140 -72 -204t-203 -64q-130 0 -201.5 64t-71.5 204v63q0 141 71.5 205t201.5 64q131 0 203 -64t72 -205v-63zM421 316q0 76 -23.5 106t-77.5 30q-53 0 -76.5 -30t-23.5 -106v-63q0 -76 23.5 -106t76.5 -30q54 0 77.5 30t23.5 106v63zM548 766q0 -38 -9 -64.5
t-24.5 -43t-37.5 -24t-48 -7.5q-23 0 -48 6.5t-56 23.5l-47 26q-17 10 -29.5 15.5t-25.5 5.5q-18 0 -24.5 -12.5t-6.5 -35.5v-24h-98v24q0 38 9 64.5t25.5 43t39 24t49.5 7.5q25 0 46 -6t52 -23l48 -26q17 -9 29.5 -15t27.5 -6q18 0 24 11.5t6 35.5v24h98v-24z" />
    <glyph glyph-name="odieresis" unicode="&#xf6;" horiz-adv-x="642" 
d="M595 253q0 -140 -72 -204t-203 -64q-130 0 -201.5 64t-71.5 204v63q0 141 71.5 205t201.5 64q131 0 203 -64t72 -205v-63zM421 316q0 76 -23.5 106t-77.5 30q-53 0 -76.5 -30t-23.5 -106v-63q0 -76 23.5 -106t76.5 -30q54 0 77.5 30t23.5 106v63zM123 742q0 11 5.5 17
t12.5 9t13 3.5l6 0.5h104v-127h-141v97zM378 742v30h141v-127h-141v97z" />
    <glyph glyph-name="divide" unicode="&#xf7;" horiz-adv-x="677" 
d="M253 75v153h170v-153h-170zM591 320h-506v132h506v-132zM253 665q0 11 5.5 17t12.5 9t13 3.5l6 0.5h133v-154h-170v124z" />
    <glyph glyph-name="oslash" unicode="&#xf8;" horiz-adv-x="642" 
d="M595 253q0 -140 -72 -204t-203 -64q-100 0 -167 38l-30 -38h-100l72 90q-48 65 -48 178v63q0 141 71.5 205t201.5 64q98 0 160 -34l28 34h100l-68 -83q55 -67 55 -186v-63zM421 316q0 10 -0.5 19t-1.5 17l-170 -211q23 -24 71 -24q54 0 77.5 30t23.5 106v63zM385 433
q-23 19 -65 19q-53 0 -76.5 -30t-23.5 -106v-87z" />
    <glyph glyph-name="ugrave" unicode="&#xf9;" horiz-adv-x="673" 
d="M441 0v46q-45 -26 -94 -43.5t-106 -17.5q-59 0 -93.5 19t-52.5 50t-23 71.5t-5 83.5v361h174v-361q0 -52 13 -72.5t55 -20.5q25 0 56 9t66 23v422h174v-570h-164zM285 631l-166 146h197l132 -146h-163z" />
    <glyph glyph-name="uacute" unicode="&#xfa;" horiz-adv-x="673" 
d="M441 0v46q-45 -26 -94 -43.5t-106 -17.5q-59 0 -93.5 19t-52.5 50t-23 71.5t-5 83.5v361h174v-361q0 -52 13 -72.5t55 -20.5q25 0 56 9t66 23v422h174v-570h-164zM397 631h-163l132 146h198z" />
    <glyph glyph-name="ucircumflex" unicode="&#xfb;" horiz-adv-x="673" 
d="M441 0v46q-45 -26 -94 -43.5t-106 -17.5q-59 0 -93.5 19t-52.5 50t-23 71.5t-5 83.5v361h174v-361q0 -52 13 -72.5t55 -20.5q25 0 56 9t66 23v422h174v-570h-164zM424 631l-87 82l-86 -82h-152l135 146h208l134 -146h-152z" />
    <glyph glyph-name="udieresis" unicode="&#xfc;" horiz-adv-x="673" 
d="M441 0v46q-45 -26 -94 -43.5t-106 -17.5q-59 0 -93.5 19t-52.5 50t-23 71.5t-5 83.5v361h174v-361q0 -52 13 -72.5t55 -20.5q25 0 56 9t66 23v422h174v-570h-164zM140 742q0 11 5.5 17t12.5 9t13 3.5l6 0.5h104v-127h-141v97zM395 742v30h141v-127h-141v97z" />
    <glyph glyph-name="yacute" unicode="&#xfd;" horiz-adv-x="637" 
d="M435 -4q-17 -57 -37 -97.5t-48 -66t-65 -37t-88 -11.5q-47 0 -89.5 3.5t-71.5 9.5v111q18 -1 32.5 -1.5t27 -0.5h24h24.5q31 0 46.5 15t29.5 54l10 31l-207 564h187l84 -293q10 -37 17.5 -74.5t16.5 -76.5h2q8 39 15.5 76.5t17.5 75.5l76 292h177zM394 631h-163l132 146
h197z" />
    <glyph glyph-name="thorn" unicode="&#xfe;" horiz-adv-x="654" 
d="M68 -203v982h163v-244q42 26 82 38t83 12q49 0 88 -14.5t66.5 -46t42 -81.5t14.5 -121v-68q0 -74 -18.5 -125t-53 -83t-83 -46.5t-109.5 -14.5q-26 0 -52 2.5t-49 6.5v-197h-174zM433 322q0 73 -22 101.5t-71 28.5q-22 0 -45 -5t-55 -19v-304q23 -4 46 -6t40 -2
q27 0 47 5.5t33.5 21t20 42.5t6.5 69v68z" />
    <glyph glyph-name="ydieresis" unicode="&#xff;" horiz-adv-x="637" 
d="M435 -4q-17 -57 -37 -97.5t-48 -66t-65 -37t-88 -11.5q-47 0 -89.5 3.5t-71.5 9.5v111q18 -1 32.5 -1.5t27 -0.5h24h24.5q31 0 46.5 15t29.5 54l10 31l-207 564h187l84 -293q10 -37 17.5 -74.5t16.5 -76.5h2q8 39 15.5 76.5t17.5 75.5l76 292h177zM132 742q0 11 5.5 17
t12.5 9t13 3.5l6 0.5h104v-127h-141v97zM387 742v30h141v-127h-141v97z" />
    <glyph glyph-name="dotlessi" unicode="&#x131;" horiz-adv-x="318" 
d="M72 0v570h174v-570h-174z" />
    <glyph glyph-name="Lslash" unicode="&#x141;" horiz-adv-x="579" 
d="M8 328l65 51v364h188v-255l96 75v-108l-96 -75v-239h291v-141h-479v273l-65 -53v108z" />
    <glyph glyph-name="lslash" unicode="&#x142;" horiz-adv-x="352" 
d="M89 0v266l-77 -68v132l77 68v381h174v-228l77 68v-132l-77 -68v-419h-174z" />
    <glyph glyph-name="OE" unicode="&#x152;" horiz-adv-x="1016" 
d="M970 0h-442q-41 -7 -80 -12t-84 -5q-69 0 -127.5 18t-101 59t-66 107.5t-23.5 163.5v79q0 97 23.5 163.5t66 107.5t101 59.5t127.5 18.5q42 0 83 -4.5t80 -11.5h443v-136h-319v-162h297v-129h-297v-181h319v-135zM467 607q-29 4 -49 5.5t-44 1.5q-35 0 -62 -10t-45 -33.5
t-27.5 -63t-9.5 -97.5v-79q0 -58 9.5 -97t28 -63t45 -34t61.5 -10q23 0 41.5 1t51.5 6v473z" />
    <glyph glyph-name="oe" unicode="&#x153;" horiz-adv-x="1014" 
d="M594 238v-8q0 -28 3 -50.5t16.5 -38t39.5 -24t73 -8.5q25 0 53 0.5t56.5 2t55.5 3.5t49 5v-111q-17 -4 -41.5 -8t-55 -7.5t-64.5 -5.5t-70 -2q-74 0 -123.5 16t-78.5 44q-67 -61 -188 -61q-130 0 -201.5 64t-71.5 204v63q0 141 71.5 205t201.5 64q125 0 189 -62
q64 62 188 62q80 0 132.5 -24t83.5 -64t43.5 -91t12.5 -106v-62h-374zM798 341q0 24 -3.5 45.5t-14.5 38.5t-31 27t-53 10q-32 0 -52 -10t-31 -25.5t-15 -35.5t-4 -41v-17h204v8zM420 316q0 76 -23.5 106.5t-77.5 30.5q-53 0 -76.5 -30.5t-23.5 -106.5v-63q0 -76 23.5 -106
t76.5 -30q54 0 77.5 30t23.5 106v63z" />
    <glyph glyph-name="Scaron" unicode="&#x160;" horiz-adv-x="646" 
d="M237 934l86 -82l87 82h152l-134 -146h-209l-135 146h153zM601 209q0 -116 -74.5 -171t-210.5 -55q-37 0 -74 2t-70.5 5.5t-61 7.5t-45.5 9v122q48 -4 102.5 -8t127.5 -4q63 0 91 19.5t28 61.5q0 16 -4 27.5t-14 21.5t-27 19.5t-43 20.5l-108 46q-40 17 -71.5 36.5t-54 45
t-34.5 59.5t-12 80q0 110 74.5 157.5t215.5 47.5q75 0 134.5 -8.5t92.5 -16.5v-120q-52 5 -103 8.5t-114 3.5q-57 0 -86.5 -14t-29.5 -52q0 -14 3.5 -24.5t13 -19.5t25.5 -18t42 -19l105 -43q46 -19 80.5 -40.5t57 -48.5t33.5 -60.5t11 -77.5z" />
    <glyph glyph-name="scaron" unicode="&#x161;" horiz-adv-x="543" 
d="M188 777l86 -82l87 82h152l-134 -146h-209l-135 146h153zM507 167q0 -92 -61 -136.5t-191 -44.5q-30 0 -61 2t-59 5.5t-50 7.5t-34 7v106q9 0 30 -2t48 -4t57.5 -3.5t59.5 -1.5q53 0 73 12.5t20 38.5q0 13 -4 21.5t-14 15.5t-27.5 14t-44.5 17l-46 17q-40 15 -70 32.5
t-50.5 39.5t-30.5 49.5t-10 62.5q0 47 16 78t46.5 50t74 26.5t98.5 7.5q31 0 61.5 -2t57.5 -5.5t48 -7.5t35 -8v-109q-51 5 -96 7.5t-90 2.5q-42 0 -63 -5t-21 -31q0 -11 3.5 -18.5t12.5 -14t24 -12.5t38 -15l50 -18q48 -17 80.5 -35t52.5 -39.5t28.5 -47.5t8.5 -60z" />
    <glyph glyph-name="Ydieresis" unicode="&#x178;" horiz-adv-x="706" 
d="M444 268v-268h-182v268l-248 475h191l100 -197q12 -26 24.5 -56t22.5 -58h5q9 28 23 58t26 56l100 197h186zM157 897q0 11 5.5 17t12.5 9t13 3.5l6 0.5h104v-127h-141v97zM412 897v30h141v-127h-141v97z" />
    <glyph glyph-name="Zcaron" unicode="&#x17d;" horiz-adv-x="658" 
d="M51 0v142l331 462h-322v139h538v-144l-330 -460h339v-139h-556zM254 935l86 -82l87 82h152l-134 -146h-208l-135 146h152z" />
    <glyph glyph-name="zcaron" unicode="&#x17e;" horiz-adv-x="548" 
d="M40 0v128l269 317h-260v125h455v-130l-267 -317h268v-123h-465zM204 777l86 -82l87 82h152l-134 -146h-209l-135 146h153z" />
    <glyph glyph-name="florin" unicode="&#x192;" horiz-adv-x="662" 
d="M601 644q-26 2 -42 2.5t-30 0.5q-17 0 -29 -2t-20.5 -9t-14 -20t-8.5 -34l-18 -130h147l-15 -120h-149l-43 -322q-7 -51 -24 -84t-42.5 -52.5t-58.5 -27t-71 -7.5q-44 0 -76.5 5t-57.5 10l13 100q24 -2 40.5 -2.5t33.5 -0.5q15 0 26.5 2t19.5 8.5t14 19t9 34.5l43 317
h-132l16 120h132l19 135q7 51 24 84t43 52.5t59.5 27.5t72.5 8q41 0 74 -5t57 -11z" />
    <glyph glyph-name="circumflex" unicode="&#x2c6;" horiz-adv-x="545" 
d="M359 631l-87 82l-86 -82h-153l135 146h208l135 -146h-152z" />
    <glyph glyph-name="caron" unicode="&#x2c7;" horiz-adv-x="545" 
d="M186 777l86 -82l87 82h152l-135 -146h-208l-135 146h153z" />
    <glyph glyph-name="uni02C9" unicode="&#x2c9;" horiz-adv-x="503" 
d="M47 653v99h409v-99h-409z" />
    <glyph glyph-name="breve" unicode="&#x2d8;" horiz-adv-x="513" 
d="M464 788q-5 -43 -24 -73t-47 -49t-63.5 -28t-73.5 -9t-73 9t-63 28t-47 49t-24 73h101q6 -45 35 -61t71 -16q43 0 72 16t36 61h100v0z" />
    <glyph glyph-name="dotaccent" unicode="&#x2d9;" horiz-adv-x="426" 
d="M123 651v127h180v-127h-180z" />
    <glyph glyph-name="ring" unicode="&#x2da;" horiz-adv-x="445" 
d="M365 738q0 -60 -40 -90.5t-101 -30.5q-31 0 -57 8t-45.5 23t-30.5 37.5t-11 52.5t11 53t30.5 38t45.5 23t57 8q61 0 101 -31t40 -91zM279 739q0 26 -16 37t-39 11q-25 0 -40.5 -11t-15.5 -37t15.5 -37t40.5 -11q23 0 39 11t16 37z" />
    <glyph glyph-name="ogonek" unicode="&#x2db;" horiz-adv-x="458" 
d="M380 -200q-17 -5 -53.5 -11t-81.5 -6q-73 0 -112 24.5t-39 74.5q0 39 38.5 73.5t119.5 54.5l128 -10q-43 -16 -70 -28.5t-42 -23.5t-20 -20t-5 -17q0 -17 12 -26t41 -9q22 0 43 1.5t41 3.5v-81v0z" />
    <glyph glyph-name="tilde" unicode="&#x2dc;" horiz-adv-x="516" 
d="M487 766q0 -38 -9 -64.5t-24.5 -43t-37.5 -24t-48 -7.5q-23 0 -48 6.5t-57 23.5l-47 26q-17 10 -29 15.5t-25 5.5q-18 0 -24.5 -12.5t-6.5 -35.5v-24h-98v24q0 38 9 64.5t25.5 43t39 24t48.5 7.5t47 -6t52 -23l48 -26q16 -9 29 -15t28 -6q18 0 24 11.5t6 35.5v24h98v-24
v0z" />
    <glyph glyph-name="hungarumlaut" unicode="&#x2dd;" horiz-adv-x="621" 
d="M508 630h-150l132 146h185zM400 776l-166 -146h-150l132 146h184z" />
    <glyph glyph-name="uni037E" unicode="&#x37e;" horiz-adv-x="280" 
d="M60 394q0 11 5.5 17t12.5 9t13 3.5l6 0.5h127v-165h-164v135z" />
    <glyph glyph-name="uni03A9" unicode="&#x3a9;" horiz-adv-x="747" 
d="M701 408q0 -94 -37.5 -161t-123.5 -99v-35h149v-113h-281v213q60 14 85.5 60.5t25.5 121.5v58q0 47 -10.5 78t-30 49.5t-46.5 26t-59 7.5t-59 -7.5t-46.5 -26t-30 -49.5t-10.5 -78v-58q0 -75 25.5 -121.5t85.5 -60.5v-213h-280v113h148v35q-86 32 -123.5 99t-37.5 161
l1 57q0 151 86 222.5t241 71.5t241.5 -71.5t86.5 -222.5v-57v0z" />
    <glyph glyph-name="uni03BC" unicode="&#x3bc;" horiz-adv-x="711" 
d="M456 0v46q-39 -21 -75.5 -34t-71.5 -17q-29 -1 -53 3v-200h-174v772h174v-361q0 -52 13 -72.5t55 -20.5q25 0 56 9t66 23v422h174v-570h-164z" />
    <glyph glyph-name="pi" unicode="&#x3c0;" horiz-adv-x="732" 
d="M690 -7q-17 -4 -42.5 -6t-46.5 -2q-46 0 -77.5 9.5t-51.5 30t-29 52.5t-9 78v267h-139v-422h-175v422h-83v148h653v-148h-82v-270q0 -28 7 -38t31 -10h22.5t21.5 1v-112v0z" />
    <glyph glyph-name="figuredash" unicode="&#x2012;" horiz-adv-x="723" 
d="M57 225v112h609v-112h-609z" />
    <glyph glyph-name="endash" unicode="&#x2013;" horiz-adv-x="474" 
d="M57 234v122h359v-122h-359z" />
    <glyph glyph-name="emdash" unicode="&#x2014;" horiz-adv-x="650" 
d="M57 234v122h535v-122h-535z" />
    <glyph glyph-name="quoteleft" unicode="&#x2018;" horiz-adv-x="256" 
d="M176 523h-156l96 256h120z" />
    <glyph glyph-name="quoteright" unicode="&#x2019;" horiz-adv-x="256" 
d="M141 523h-121l60 256h156z" />
    <glyph glyph-name="quotesinglbase" unicode="&#x201a;" horiz-adv-x="256" 
d="M141 -99h-121l60 256h156z" />
    <glyph glyph-name="quotedblleft" unicode="&#x201c;" horiz-adv-x="480" 
d="M399 523h-156l96 256h121zM236 779l-60 -256h-156l95 256h121z" />
    <glyph glyph-name="quotedblright" unicode="&#x201d;" horiz-adv-x="480" 
d="M81 779h156l-96 -256h-121zM244 523l60 256h156l-95 -256h-121z" />
    <glyph glyph-name="quotedblbase" unicode="&#x201e;" horiz-adv-x="480" 
d="M365 -99h-121l61 256h155zM236 157l-95 -256h-121l60 256h156z" />
    <glyph glyph-name="dagger" unicode="&#x2020;" horiz-adv-x="539" 
d="M353 452v-582h-174v582h-120v132h120v194h174v-194h127v-132h-127z" />
    <glyph glyph-name="daggerdbl" unicode="&#x2021;" horiz-adv-x="539" 
d="M353 214v-344h-174v344h-120v132h120v116h-120v132h120v183h174v-183h127v-132h-127v-116h127v-132h-127z" />
    <glyph glyph-name="bullet" unicode="&#x2022;" horiz-adv-x="6947" 
 />
    <glyph glyph-name="onedotenleader" unicode="&#x2024;" horiz-adv-x="295" 
d="M60 134q0 11 5.5 17t12.5 9t13 3.5l6 0.5h138v-164h-175v134z" />
    <glyph glyph-name="twodotenleader" unicode="&#x2025;" horiz-adv-x="569" 
d="M335 0v164h175v-164h-175zM59 134q0 11 5.5 17t12.5 9t13 3.5l6 0.5h137v-164h-174v134z" />
    <glyph glyph-name="ellipsis" unicode="&#x2026;" horiz-adv-x="4598" 
 />
    <glyph glyph-name="perthousand" unicode="&#x2030;" horiz-adv-x="1593" 
d="M1545 202q0 -104 -48 -158t-148 -54t-148.5 54t-48.5 158v37q0 105 48.5 158.5t148.5 53.5t148 -53.5t48 -158.5v-37zM1415 239q0 36 -5 59t-13.5 35.5t-20.5 17.5t-27 5t-27.5 -5t-21.5 -17.5t-13.5 -35.5t-4.5 -59v-37q0 -36 4.5 -59t13.5 -35.5t21.5 -17.5t27.5 -5
t27 5t20.5 17.5t13.5 35.5t5 59v37zM1099 202q0 -104 -48.5 -158t-148.5 -54t-148 54t-48 158v37q0 105 48 158.5t148 53.5t148.5 -53.5t48.5 -158.5v-37zM969 239q0 36 -5 59t-13.5 35.5t-21 17.5t-27.5 5t-27 -5t-21 -17.5t-13.5 -35.5t-4.5 -59v-37q0 -36 4.5 -59
t13.5 -35.5t21 -17.5t27 -5t27.5 5t21 17.5t13.5 35.5t5 59v37zM396 0h-147l497 745h146zM440 511q0 -49 -11 -88.5t-34.5 -67t-60.5 -42t-90 -14.5t-90.5 15t-61 43t-34 67t-10.5 87v36q0 48 10.5 87.5t34 67t61 42.5t90.5 15t90 -14.5t60.5 -42t34.5 -67t11 -88.5v-36z
M310 547q0 35 -3.5 58t-11.5 36.5t-20.5 18.5t-30.5 5q-35 0 -50.5 -25t-15.5 -93v-36q0 -35 3.5 -57.5t11.5 -36t20.5 -18.5t30.5 -5t30.5 5t20.5 18.5t11.5 36t3.5 57.5v36z" />
    <glyph glyph-name="guilsinglleft" unicode="&#x2039;" horiz-adv-x="425" 
d="M198 70l-152 222l152 221h180l-148 -221l148 -222h-180z" />
    <glyph glyph-name="guilsinglright" unicode="&#x203a;" horiz-adv-x="425" 
d="M226 70h-179l148 222l-148 221h179l153 -221z" />
    <glyph glyph-name="exclamdbl" unicode="&#x203c;" horiz-adv-x="6897" 
 />
    <glyph glyph-name="fraction" unicode="&#x2044;" horiz-adv-x="556" 
d="M103 0h-147l496 745h148z" />
    <glyph glyph-name="zero.superior" unicode="&#x2070;" horiz-adv-x="2625" 
d="M219 488q-32 0 -59.5 12t-48 33t-32.5 48.5t-12 59.5q0 31 12 59t32.5 49t48 33.5t59.5 12.5t60.5 -12.5t49.5 -33.5t33.5 -49t12.5 -59q0 -32 -12.5 -59.5t-33.5 -48.5t-49.5 -33t-60.5 -12zM219 497q31 0 57.5 11.5t46.5 31t31.5 45.5t11.5 56q0 29 -11 56t-30 44
q-18 10 -37 15.5t-42 5.5q-30 0 -57.5 -11.5t-47.5 -31t-32 -47t-12 -58.5q0 -21 6 -41t15 -38q20 -19 46.5 -28.5t54.5 -9.5zM219 98q32 0 60.5 -12.5t49.5 -33.5t33.5 -49.5t12.5 -60.5t-12.5 -59.5t-33.5 -48t-49.5 -32.5t-60.5 -12t-59.5 12t-48 32.5t-32.5 48t-12 59.5
t12 60.5t32.5 49.5t48 33.5t59.5 12.5zM219 -202q31 0 57.5 11.5t46.5 31t31.5 45.5t11.5 56q0 31 -11 57t-30 44q-18 10 -37 16t-42 6q-30 0 -57.5 -11.5t-47.5 -31.5t-32 -47.5t-12 -59.5q0 -20 6 -40.5t15 -37.5q20 -19 46.5 -29t54.5 -10zM219 445q32 0 60.5 -12
t49.5 -32.5t33.5 -48.5t12.5 -59q0 -33 -12.5 -61t-33.5 -49t-49.5 -33t-60.5 -12t-59.5 12t-48 33t-32.5 49t-12 61q0 31 12 59t32.5 48.5t48 32.5t59.5 12zM219 146q31 0 57.5 11.5t46.5 31.5t31.5 46.5t11.5 57.5q0 29 -11 54.5t-30 45.5q-18 11 -37 17t-42 6
q-30 0 -57.5 -12t-47.5 -33t-32 -48.5t-12 -57.5q0 -22 6 -42t15 -36q20 -19 46.5 -30t54.5 -11zM877 440l-131 -172l128 -173h-106l-112 160v-160h-87v345h87v-161l121 161h100zM912 458h82v-363h-82v363zM1059 361h81v-266h-81v266zM1119 -107v47h-47v-47h-13v98h13v-41
h47v41h13v-98h-13zM1153 -9h12v-98h-12v98zM1330 -107v47h-49v-47h-11v98h11v-41h49v41h11v-98h-11zM1423 -20v-87h-10v87h-31v11h70v-11h-29zM1469 -107v98h58v-11h-47v-32h44v-11h-44v-32h47v-12h-58zM1675 -107v47h-48v-47h-11v98h11v-41h48v41h11v-98h-11zM1735 -9h10
v-98h-10v98zM1823 -107l-36 68q-2 5 -4 9t-4 10v-21v-66h-11v98h16l35 -67q3 -5 5 -9l4 -8v19v65h10v-98h-15zM1920 -20v-87h-14v87h-30v11h74v-11h-30zM2018 -52q0 18 -7 25t-18 7q-12 0 -19.5 -7t-7.5 -25v-14q0 -18 7.5 -25t19.5 -7q11 0 18 7t7 25v14zM2162 -20v-32h44
v-11h-44v-44h-11v98h57v-11h-46zM2281 -52q0 18 -7 25t-18 7t-18.5 -7t-7.5 -25v-14q0 -18 7.5 -25t18.5 -7t18 7t7 25v14zM2366 -107l-23 38h-8h-13v-38h-11v98h22q19 0 30 -5.5t11 -24.5q0 -22 -16 -27l24 -41h-16zM2466 -107v63v19q-5 -10 -5 -16l-17 -35h-15l-17 35
q0 4 -2 7.5t-4 8.5v-19v-63h-10v98h13l22 -46q0 -2 1.5 -5.5t3.5 -5.5q2 2 3 5.5t3 8.5l21 43h14v-98h-11zM2523 -14v-25h-5v25h-8v5h22v-5h-9zM2558 -39v17v5l-2 -3l-3 -8h-5l-6 8v3v-5v-17h-5v30h5l6 -11q0 -2 1 -2h2v2l7 11h6v-30h-6z" />
    <glyph glyph-name="i.superior" unicode="&#x2071;" horiz-adv-x="3699" 
d="M644 757l-232 -302l227 -307h-186l-198 283v-283h-153v609h153v-284l211 284h178zM707 791h143v-643h-143v643zM965 618h144v-470h-144v470zM1071 -207v82h-82v-82h-24v172h24v-70h82v70h24v-172h-24zM1132 -35h19v-172h-19v172zM1446 -207v82h-87v-82h-20v172h20v-70h87
v70h18v-172h-18zM1607 -53v-154h-19v154h-54v18h125v-18h-52zM1689 -207v172h100v-18h-81v-57h76v-19h-76v-59h81v-19h-100zM2053 -207v82h-86v-82h-18v172h18v-70h86v70h20v-172h-20zM2158 -35h19v-172h-19v172zM2313 -207l-64 120q-4 8 -7 15.5t-7 18.5v-39v-115h-18v172
h27l64 -120q4 -7 7.5 -14t7.5 -14v33v115h18v-172h-28zM2484 -53v-154h-24v154h-53v18h130v-18h-53zM2657 -110q0 32 -12.5 44.5t-30.5 12.5q-21 0 -34 -12.5t-13 -44.5v-23q0 -35 13 -47.5t34 -12.5q18 0 30.5 12.5t12.5 47.5v23zM2910 -53v-57h78v-19h-78v-78h-19v172h101
v-18h-82zM3123 -110q0 32 -13 44.5t-31 12.5q-22 0 -35 -12.5t-13 -44.5v-23q0 -35 13 -47.5t35 -12.5q18 0 31 12.5t13 47.5v23zM3270 -207l-38 69h-13h-24v-69h-20v172h39q32 0 51 -10t19 -42q0 -40 -28 -46l44 -74h-30zM3449 -207v110v34q-4 -8 -6.5 -14.5t-2.5 -14.5
l-30 -63h-29l-28 63q0 8 -3 14.5t-7 14.5v-34v-110h-18v172h23l38 -80q0 -4 2.5 -9.5t6.5 -8.5q4 3 5 9t5 14l39 75h24v-172h-19zM3549 -44v-43h-10v43h-15v9h40v-9h-15zM3611 -87v29v10l-5 -5l-3 -15h-10l-10 15v5v-10v-29h-9v52h9l10 -18q0 -2 2 -4q1 -1 3 -1v5l13 18h10
v-52h-10z" />
    <glyph glyph-name="four.superior" unicode="&#x2074;" horiz-adv-x="4504" 
d="M768 750l-282 -372l276 -376h-230l-239 347v-347h-189v748h189v-349l257 349h218zM846 791h178v-789h-178v789zM1161 579h178v-577h-178v577zM2140 590q59 0 93.5 -17t52.5 -46.5t23 -68t5 -80.5v-376h-174v371q0 21 -1 37.5t-6.5 27.5t-17.5 16.5t-34 5.5q-17 0 -45 -8
t-51 -22v-57v-371h-175v371q0 21 -1 37.5t-6 27.5t-16 16.5t-31 5.5q-27 0 -52 -10.5t-48 -19.5v-428h-174v577h165v-47q33 26 79 42t96 16q54 0 85.5 -16t50.5 -42q48 31 95 44.5t87 13.5z" />
    <glyph glyph-name="five.superior" unicode="&#x2075;" horiz-adv-x="451" 
d="M180 697l-8 -81h43q53 0 89 -7.5t57.5 -23.5t31 -41.5t9.5 -61.5v-8q0 -80 -51.5 -113t-138.5 -33q-54 0 -97 6.5t-63 11.5v77q20 -2 36.5 -4t31.5 -3t30.5 -1.5t33.5 -0.5q50 0 69 12.5t19 45.5v10q0 30 -17 40.5t-69 10.5h-131l23 252h310v-88h-208z" />
    <glyph glyph-name="six.superior" unicode="&#x2076;" horiz-adv-x="477" 
d="M402 700q-29 2 -69 4t-76 2q-29 0 -45.5 -4.5t-25 -14t-11 -24.5t-2.5 -35v-13q16 5 38.5 7t39.5 2q37 0 69.5 -5t55.5 -19.5t36.5 -40t13.5 -66.5v-15q0 -42 -15 -71t-40.5 -46.5t-59.5 -25t-73 -7.5q-104 0 -148 46t-44 144v87q0 44 8 79t30 60t59.5 38t97.5 13
q51 0 96 -6.5t65 -11.5v-77zM299 492q0 36 -15.5 47t-46.5 11q-12 0 -29.5 -1.5t-34.5 -5.5v-46q0 -26 4.5 -43t13 -27t20.5 -13.5t28 -3.5q26 0 43 15.5t17 52.5v14z" />
    <glyph glyph-name="seven.superior" unicode="&#x2077;" horiz-adv-x="448" 
d="M55 785h350v-96l-205 -351h-135l213 359h-223v88z" />
    <glyph glyph-name="eight.superior" unicode="&#x2078;" horiz-adv-x="492" 
d="M439 471q0 -48 -15.5 -76.5t-42.5 -43t-63 -19t-77 -4.5q-40 0 -75.5 4.5t-62 19t-42 43t-15.5 76.5q0 65 50 97q-23 16 -36 39.5t-13 62.5t15 63.5t41.5 38t62.5 18.5t78 5q41 0 76 -5t61 -19.5t41 -40t15 -66.5q0 -35 -13 -57.5t-36 -38.5q51 -32 51 -97zM314 473
q0 31 -10 45t-37 14h-50q-26 0 -36 -14t-10 -45q0 -41 19 -53t54 -12q32 0 51 12t19 53zM267 607q27 0 36 14t9 38q0 35 -18.5 45.5t-52.5 10.5q-32 0 -50.5 -10.5t-18.5 -45.5q0 -24 9 -38t36 -14h50z" />
    <glyph glyph-name="nine.superior" unicode="&#x2079;" horiz-adv-x="477" 
d="M70 422q28 -2 68.5 -4.5t79.5 -2.5q27 0 43.5 5t25 14.5t11 24.5t2.5 35v13q-16 -4 -39 -6t-39 -2q-38 0 -70 5t-55.5 19t-37 39.5t-13.5 66.5v16q0 42 15 70.5t40.5 46t60 25.5t73.5 8q104 0 147.5 -46.5t43.5 -144.5v-88q0 -43 -8 -78t-29.5 -59.5t-59 -37.5t-97.5 -13
q-25 0 -49.5 1.5t-46.5 4t-39 5.5t-27 6v77zM300 626q0 52 -17 69t-50 17q-26 0 -43 -15.5t-17 -51.5v-15q0 -35 15.5 -46t45.5 -11q13 0 31 1.5t35 4.5v47z" />
    <glyph glyph-name="parenleft.superior" unicode="&#x207d;" horiz-adv-x="287" 
d="M134 259q-15 20 -29.5 47t-26 60.5t-18.5 72t-7 82.5v5q0 43 7 82.5t18.5 73t26 61t29.5 47.5h112q-31 -48 -53 -114.5t-22 -149.5v-5q0 -83 22 -148.5t53 -113.5h-112z" />
    <glyph glyph-name="parenright.superior" unicode="&#x207e;" horiz-adv-x="287" 
d="M234 521q0 -44 -7.5 -82.5t-19 -72t-26 -60.5t-29.5 -47h-111q31 48 53 113.5t22 148.5v5q0 83 -22 149.5t-53 114.5h111q15 -20 29.5 -47.5t26 -61t19 -73t7.5 -82.5v-5v0z" />
    <glyph glyph-name="n.superior" unicode="&#x207f;" horiz-adv-x="460" 
d="M285 307v215q0 29 -7.5 41.5t-32.5 12.5q-15 0 -33.5 -5.5t-36.5 -12.5v-251h-122v347h114v-27q27 17 57.5 26.5t60.5 9.5q42 0 66.5 -11.5t37 -31t15.5 -44.5t3 -52v-217h-122z" />
    <glyph glyph-name="zero.inferior" unicode="&#x2080;" horiz-adv-x="491" 
d="M444 0q0 -105 -47.5 -160.5t-149.5 -55.5t-149.5 55.5t-47.5 160.5v35q0 105 47.5 160.5t149.5 55.5t149.5 -55.5t47.5 -160.5v-35zM314 35q0 37 -5 60.5t-13.5 37t-21 18t-27.5 4.5t-27.5 -4.5t-21.5 -18t-13.5 -37t-4.5 -60.5v-36q0 -37 4.5 -60.5t13.5 -36.5t21.5 -18
t27.5 -5t27.5 5t21 18t13.5 36.5t5 60.5v36z" />
    <glyph glyph-name="one.inferior" unicode="&#x2081;" horiz-adv-x="407" 
d="M62 -206v85l80 4v246l-81 -26v96l118 44h93v-360l81 -4v-85h-291z" />
    <glyph glyph-name="two.inferior" unicode="&#x2082;" horiz-adv-x="454" 
d="M57 233q13 4 33 7t42.5 5.5t45.5 4t44 1.5q96 0 139.5 -28t43.5 -91q0 -24 -7 -43t-22.5 -35.5t-40.5 -32.5t-61 -32q-32 -15 -51.5 -25.5t-30 -21.5t-13.5 -23t-3 -30v-4h220v-91h-346v55q0 42 7.5 72t24.5 53t43.5 41.5t64.5 37.5q29 14 46 23.5t25.5 17.5t11 15.5
t2.5 18.5q0 20 -16 28.5t-59 8.5q-19 0 -40.5 -1t-41.5 -2t-36.5 -2t-24.5 -2v75z" />
    <glyph glyph-name="three.inferior" unicode="&#x2083;" horiz-adv-x="450" 
d="M212 -216q-24 0 -48.5 2t-46.5 5t-39 6.5t-26 6.5v74q8 -1 25 -2t37.5 -2t42.5 -1.5t40 -0.5q40 0 58 9.5t18 43.5v9q0 11 -2.5 20t-9.5 15t-20 9t-35 3h-126v81h127q21 0 34 3.5t20 10t9.5 15.5t2.5 20v6q0 27 -15.5 37t-60.5 10q-39 0 -77.5 -2.5t-67.5 -4.5v74
q9 3 26.5 6.5t39 6.5t46 5t48.5 2q45 0 80 -6t59 -20.5t37 -38.5t13 -59v-6q0 -29 -12.5 -56t-42.5 -42q31 -14 43 -40.5t12 -54.5v-9q0 -73 -46 -104t-143 -31z" />
    <glyph glyph-name="four.inferior" unicode="&#x2084;" horiz-adv-x="474" 
d="M246 -206v98h-213v82l236 267h105v-265h60v-84h-60v-98h-128zM253 112l-119 -136h119v136z" />
    <glyph glyph-name="five.inferior" unicode="&#x2085;" horiz-adv-x="451" 
d="M180 153l-8 -81h43q53 0 89 -7.5t57.5 -23.5t31 -41.5t9.5 -61.5v-8q0 -80 -51.5 -113t-138.5 -33q-54 0 -97 6.5t-63 11.5v77q20 -2 36.5 -4t31.5 -3t30.5 -1.5t33.5 -0.5q50 0 69 12.5t19 45.5v10q0 30 -17 40.5t-69 10.5h-131l23 252h310v-88h-208z" />
    <glyph glyph-name="six.inferior" unicode="&#x2086;" horiz-adv-x="477" 
d="M402 156q-29 2 -69 4t-76 2q-29 0 -45.5 -4.5t-25 -14t-11 -24.5t-2.5 -35v-13q16 5 38.5 7t39.5 2q37 0 69.5 -5t55.5 -19.5t36.5 -40t13.5 -66.5v-15q0 -42 -15 -71t-40.5 -46.5t-59.5 -25t-73 -7.5q-104 0 -148 46t-44 144v87q0 44 8 79t30 60t59.5 38t97.5 13
q51 0 96 -6.5t65 -11.5v-77zM299 -52q0 36 -15.5 47t-46.5 11q-12 0 -29.5 -1.5t-34.5 -5.5v-46q0 -26 4.5 -43t13 -27t20.5 -13.5t28 -3.5q26 0 43 15.5t17 52.5v14z" />
    <glyph glyph-name="seven.inferior" unicode="&#x2087;" horiz-adv-x="448" 
d="M55 241h350v-96l-205 -351h-135l213 359h-223v88z" />
    <glyph glyph-name="eight.inferior" unicode="&#x2088;" horiz-adv-x="492" 
d="M439 -79q0 -46 -15.5 -73t-42.5 -41.5t-63 -18.5t-77 -4q-40 0 -75.5 4t-62 18.5t-42 41.5t-15.5 73v6q0 34 12.5 57t38.5 40q-23 15 -36.5 37.5t-13.5 57.5v6q0 39 15 64t41.5 38.5t62.5 18.5t78 5q41 0 76.5 -5t61.5 -18.5t41 -38.5t15 -64v-6q0 -35 -13 -57.5
t-36 -37.5q50 -32 50 -97v-6zM314 -72q0 32 -9.5 45.5t-36.5 13.5h-50q-27 0 -36.5 -13.5t-9.5 -45.5v-4q0 -38 18.5 -49.5t53.5 -11.5q32 0 51 11.5t19 49.5v4zM312 120q0 30 -18.5 40.5t-52.5 10.5q-32 0 -50 -10.5t-18 -40.5v-5q0 -25 9 -39t36 -14h50q27 0 35.5 14
t8.5 39v5z" />
    <glyph glyph-name="nine.inferior" unicode="&#x2089;" horiz-adv-x="477" 
d="M70 -122q28 -2 68.5 -4.5t79.5 -2.5q27 0 43.5 5t25 14.5t11 24.5t2.5 35v13q-16 -4 -39 -6t-39 -2q-38 0 -70 5t-55.5 19t-37 39.5t-13.5 66.5v16q0 42 15 70.5t40.5 46t60 25.5t73.5 8q104 0 147.5 -46.5t43.5 -144.5v-88q0 -43 -8 -78t-29.5 -59.5t-59 -37.5
t-97.5 -13q-25 0 -49.5 1.5t-46.5 4t-39 5.5t-27 6v77zM300 82q0 52 -17 69t-50 17q-26 0 -43 -15.5t-17 -51.5v-15q0 -35 15.5 -46t45.5 -11q13 0 31 1.5t35 4.5v47z" />
    <glyph glyph-name="parenleft.inferior" unicode="&#x208d;" horiz-adv-x="287" 
d="M134 -232q-15 20 -29.5 47t-26 60.5t-18.5 72t-7 82.5v5q0 43 7 82.5t18.5 73t26 61t29.5 47.5h112q-31 -48 -53 -114.5t-22 -149.5v-5q0 -83 22 -148.5t53 -113.5h-112z" />
    <glyph glyph-name="parenright.inferior" unicode="&#x208e;" horiz-adv-x="287" 
d="M234 30q0 -44 -7.5 -82.5t-19 -72t-26 -60.5t-29.5 -47h-111q31 48 53 113.5t22 148.5v5q0 83 -22 149.5t-53 114.5h111q15 -20 29.5 -47.5t26 -61t19 -73t7.5 -82.5v-5v0z" />
    <glyph glyph-name="colonmonetary" unicode="&#x20a1;" horiz-adv-x="534" 
d="M496 444q-30 2 -73 5t-85 3q-29 0 -50 -5t-35.5 -20t-21.5 -41t-7 -68v-65q0 -42 7 -68.5t21.5 -41.5t35.5 -20.5t50 -5.5q30 0 71 2t87 6v-118q-19 -6 -67 -12v-113h-94v104q-8 -1 -15 -1h-14q-23 0 -41 3v-106h-94v130q-120 58 -120 241v65q0 180 120 240v131h94v-107
q18 3 43 3h12.5t14.5 -1v105h94v-114q24 -3 41 -6.5t26 -5.5v-119z" />
    <glyph glyph-name="franc" unicode="&#x20a3;" horiz-adv-x="638" 
d="M85 0v131h-47v99h47v513h506v-137h-319v-162h307v-132h-307v-82h160v-99h-160v-131h-187z" />
    <glyph glyph-name="lira" unicode="&#x20a4;" horiz-adv-x="673" 
d="M612 611q-48 5 -99 8t-89 3t-60 -5.5t-33 -20t-14.5 -38.5t-3.5 -60v-29h209v-78h-209v-68h209v-77h-209v-28q0 -26 -5.5 -45.5t-19.5 -39.5h324v-133h-526v109q25 24 35.5 51.5t10.5 57.5v28h-75v77h75v68h-75v78h75v29q0 69 14 118.5t45 81.5t81 47t122 15q62 0 119 -6
t99 -15v-128z" />
    <glyph glyph-name="peseta" unicode="&#x20a7;" horiz-adv-x="773" 
d="M96 743q60 4 122 6.5t122 2.5q66 0 124 -7.5t104 -28t76 -57.5t40 -97h58v-113h-57q-9 -62 -38.5 -100t-74 -59t-99.5 -28.5t-115 -7.5h-40t-42 1v-255h-180v449h-59v113h59v181zM508 510q0 32 -10 52t-29.5 31t-48.5 15t-68 4q-20 0 -39.5 -0.5t-36.5 -0.5v-216h77
q39 0 68 4.5t48.5 16t29 32t9.5 52.5v10z" />
    <glyph glyph-name="Euro" unicode="&#x20ac;" horiz-adv-x="686" 
d="M113 490q8 78 34 129.5t68 82.5t99.5 44t129.5 13q23 0 50 -2t52.5 -5t48 -6.5t36.5 -7.5v-133q-2 0 -5 0.5t-5 0.5q-36 3 -76 5.5t-83 2.5q-34 0 -61 -5.5t-46.5 -19.5t-32 -38t-18.5 -61h300l-20 -78h-285v-76h262l-20 -78h-238q6 -39 18.5 -64t32.5 -40t47 -20.5
t62 -5.5q46 0 88 2.5t80 5.5v-133q-14 -3 -36.5 -6.5t-48 -6.5t-52.5 -5t-50 -2q-72 0 -130 13.5t-100 45t-68 84.5t-33 132h-63v78h60v76h-60v78h63z" />
    <glyph glyph-name="litre" unicode="&#x2113;" horiz-adv-x="539" 
d="M497 43q-37 -26 -82.5 -43.5t-102.5 -17.5q-89 0 -135.5 45.5t-46.5 153.5l-68 -61l-37 61q28 28 54 53t51 51v317q0 99 45 144t145 45q47 0 79 -9.5t52 -27t29 -43t9 -56.5q0 -82 -49.5 -157t-134.5 -150v-177q0 -50 15 -66.5t48 -16.5q19 0 40.5 8t41.5 22zM412 654
q0 26 -10 43.5t-41 17.5q-39 0 -47.5 -29.5t-8.5 -83.5v-161q54 54 80.5 105t26.5 108z" />
    <glyph glyph-name="trademark" unicode="&#x2122;" horiz-adv-x="974" 
d="M783 335v189q0 35 3 70h-1q-8 -14 -15 -28t-15 -25l-50 -72h-60l-49 72q-8 11 -15.5 25t-14.5 28h-1q3 -35 3 -70v-189h-116v414h115l82 -125q14 -19 26 -47h1l12.5 25t13.5 22l82 125h116v-414h-117zM276 664v-329h-120v329h-117v85h354v-85h-117z" />
    <glyph glyph-name="Omega" unicode="&#x2126;" horiz-adv-x="747" 
d="M701 408q0 -94 -37.5 -161t-123.5 -99v-35h149v-113h-281v213q60 14 85.5 60.5t25.5 121.5v58q0 47 -10.5 78t-30 49.5t-46.5 26t-59 7.5t-59 -7.5t-46.5 -26t-30 -49.5t-10.5 -78v-58q0 -75 25.5 -121.5t85.5 -60.5v-213h-280v113h148v35q-86 32 -123.5 99t-37.5 161
l1 57q0 151 86 222.5t241 71.5t241.5 -71.5t86.5 -222.5v-57v0z" />
    <glyph glyph-name="estimated" unicode="&#x212e;" horiz-adv-x="657" 
d="M161 282v-193q35 -30 75 -46.5t89 -16.5q45 0 79.5 10.5t61.5 27.5t47.5 40t38.5 49l33 -19q-21 -30 -45.5 -56t-55 -45t-69.5 -29.5t-90 -10.5q-66 0 -120 23t-92.5 63t-59.5 92.5t-21 111.5q0 60 20.5 112.5t59 92t93.5 62.5t124 23t124 -23.5t93 -63t58.5 -92.5
t20.5 -112h-464zM495 478q-29 25 -73.5 43.5t-92.5 18.5q-49 0 -92.5 -15.5t-75.5 -46.5v-163h334v163z" />
    <glyph glyph-name="onethird" unicode="&#x2153;" horiz-adv-x="1092" 
d="M338 0h-148l497 745h147zM62 302v85l80 4v246l-81 -26v96l118 44h93v-360l81 -4v-85h-291zM863 -10q-24 0 -48.5 2t-46.5 5t-39 6.5t-26 6.5v74q8 -1 25 -2t37.5 -2t42.5 -1.5t40 -0.5q40 0 58 9.5t18 43.5q0 29 -12 42.5t-55 13.5h-126v81h127q43 0 54.5 14.5t11.5 40.5
q0 27 -15.5 37t-60.5 10q-39 0 -77.5 -2.5t-67.5 -4.5v74q9 3 26.5 6.5t39 6.5t46 5t48.5 2q45 0 80 -6.5t59 -21.5t37 -40t13 -62q0 -29 -12.5 -56t-42.5 -42q31 -14 43 -40.5t12 -54.5q0 -80 -46 -112t-143 -32z" />
    <glyph glyph-name="twothirds" unicode="&#x2154;" horiz-adv-x="1169" 
d="M404 0h-147l497 745h147zM925 -10q-24 0 -48.5 2t-46.5 5t-39 6.5t-26 6.5v74q8 -1 25 -2t37.5 -2t42.5 -1.5t40 -0.5q40 0 58 9.5t18 43.5q0 29 -12 42.5t-55 13.5h-126v81h127q43 0 54.5 14.5t11.5 40.5q0 27 -15.5 37t-60.5 10q-39 0 -77.5 -2.5t-67.5 -4.5v74
q9 3 26.5 6.5t39 6.5t46 5t48.5 2q45 0 80 -6.5t59 -21.5t37 -40t13 -62q0 -29 -12.5 -56t-42.5 -42q31 -14 43 -40.5t12 -54.5q0 -80 -46 -112t-143 -32zM57 741q13 4 33 7t42.5 5.5t45.5 4t44 1.5q96 0 139.5 -28t43.5 -91q0 -24 -7 -43t-22.5 -35.5t-40.5 -32.5t-61 -32
q-32 -15 -51.5 -25.5t-30 -21.5t-13.5 -23t-3 -30v-4h220v-91h-346v55q0 42 7.5 72t24.5 53t43.5 41.5t64.5 37.5q29 14 46 23.5t25.5 17.5t11 15.5t2.5 18.5q0 20 -16 28.5t-59 8.5q-19 0 -40.5 -1t-41.5 -2t-36.5 -2t-24.5 -2v75z" />
    <glyph glyph-name="oneeighth" unicode="&#x215b;" horiz-adv-x="1105" 
d="M338 0h-148l497 745h147zM62 302v85l80 4v246l-81 -26v96l118 44h93v-360l81 -4v-85h-291zM1054 127q0 -46 -15.5 -73t-42.5 -41.5t-63 -18.5t-77 -4q-40 0 -75.5 4t-62 18.5t-42 41.5t-15.5 73q0 38 12.5 62t38.5 41q-23 15 -36.5 37.5t-13.5 57.5q0 42 15 67.5t41.5 40
t62.5 19.5t78 5q41 0 76.5 -5t61.5 -19.5t41 -40t15 -67.5q0 -35 -13 -57.5t-36 -37.5q26 -17 38 -41t12 -62zM929 130q0 35 -9.5 49t-36.5 14h-50q-27 0 -36.5 -14t-9.5 -49q0 -38 18.5 -49.5t53.5 -11.5q32 0 51 11.5t19 49.5zM927 326q0 30 -18.5 40.5t-52.5 10.5
q-32 0 -50 -10.5t-18 -40.5v-5q0 -25 9 -39t36 -14h50q27 0 35.5 14t8.5 39v5z" />
    <glyph glyph-name="threeeighths" unicode="&#x215c;" horiz-adv-x="1149" 
d="M376 0h-148l497 745h147zM1095 127q0 -46 -15.5 -73t-42.5 -41.5t-63 -18.5t-77 -4q-40 0 -75.5 4t-62 18.5t-42 41.5t-15.5 73q0 38 12.5 62t38.5 41q-23 15 -36.5 37.5t-13.5 57.5q0 42 15 67.5t41.5 40t62.5 19.5t78 5q41 0 76.5 -5t61.5 -19.5t41 -40t15 -67.5
q0 -35 -13 -57.5t-36 -37.5q26 -17 38 -41t12 -62zM970 130q0 35 -9.5 49t-36.5 14h-50q-27 0 -36.5 -14t-9.5 -49q0 -38 18.5 -49.5t53.5 -11.5q32 0 51 11.5t19 49.5zM968 326q0 30 -18.5 40.5t-52.5 10.5q-32 0 -50 -10.5t-18 -40.5v-5q0 -25 9 -39t36 -14h50
q27 0 35.5 14t8.5 39v5zM212 292q-24 0 -48.5 2t-46.5 5t-39 6.5t-26 6.5v74q8 -1 25 -2t37.5 -2t42.5 -1.5t40 -0.5q40 0 58 9.5t18 43.5v9q0 11 -2.5 20t-9.5 15t-20 9t-35 3h-126v81h127q21 0 34 3.5t20 10t9.5 15.5t2.5 20v6q0 27 -15.5 37t-60.5 10q-39 0 -77.5 -2.5
t-67.5 -4.5v74q9 3 26.5 6.5t39 6.5t46 5t48.5 2q45 0 80 -6t59 -20.5t37 -38.5t13 -59v-6q0 -29 -12.5 -56t-42.5 -42q31 -14 43 -40.5t12 -54.5v-9q0 -73 -46 -104t-143 -31z" />
    <glyph glyph-name="fiveeighths" unicode="&#x215d;" horiz-adv-x="1149" 
d="M1098 132q0 -48 -15.5 -76.5t-42.5 -43t-63 -19t-77 -4.5q-40 0 -75.5 4.5t-62 19t-42 43t-15.5 76.5q0 65 50 97q-23 16 -36 39.5t-13 62.5t15 63.5t41.5 38t62.5 18.5t78 5q41 0 76 -5t61 -19.5t41 -40t15 -66.5q0 -35 -13 -57.5t-36 -38.5q51 -32 51 -97zM973 134
q0 31 -10 45t-37 14h-50q-26 0 -36 -14t-10 -45q0 -41 19 -53t54 -12q32 0 51 12t19 53zM926 268q27 0 36 14t9 38q0 35 -18.5 45.5t-52.5 10.5q-32 0 -50.5 -10.5t-18.5 -45.5q0 -24 9 -38t36 -14h50zM375 0h-147l497 745h147zM180 661l-8 -81h43q53 0 89 -7.5t57.5 -23.5
t31 -41.5t9.5 -61.5q0 -43 -13.5 -72.5t-38 -47.5t-60 -26t-78.5 -8q-54 0 -97 6.5t-63 11.5v77q20 -2 36.5 -4t31.5 -3t30.5 -1.5t33.5 -0.5q50 0 69 13.5t19 54.5q0 30 -17 40.5t-69 10.5h-131l23 252h310v-88h-208z" />
    <glyph glyph-name="seveneighths" unicode="&#x215e;" horiz-adv-x="1059" 
d="M285 0h-147l497 745h147zM55 749h350v-96l-205 -351h-135l213 359h-223v88zM1006 132q0 -48 -15.5 -76.5t-42.5 -43t-63 -19t-77 -4.5q-40 0 -75.5 4.5t-62 19t-42 43t-15.5 76.5q0 65 50 97q-23 16 -36 39.5t-13 62.5t15 63.5t41.5 38t62.5 18.5t78 5q41 0 76 -5
t61 -19.5t41 -40t15 -66.5q0 -35 -13 -57.5t-36 -38.5q51 -32 51 -97zM881 134q0 31 -10 45t-37 14h-50q-26 0 -36 -14t-10 -45q0 -41 19 -53t54 -12q32 0 51 12t19 53zM834 268q27 0 36 14t9 38q0 35 -18.5 45.5t-52.5 10.5q-32 0 -50.5 -10.5t-18.5 -45.5q0 -24 9 -38
t36 -14h50z" />
    <glyph glyph-name="partialdiff" unicode="&#x2202;" horiz-adv-x="671" 
d="M619 448q0 -51 -5.5 -104t-15.5 -100q-29 -137 -103 -197.5t-200 -60.5q-121 0 -182 55t-61 158q0 23 1.5 46t5.5 45q10 62 34.5 106t62.5 72t87.5 41t108.5 13q35 0 61 -9.5t42 -18.5q0 11 -1.5 24t-3.5 24q-5 29 -16.5 55t-33 45.5t-55.5 31t-84 11.5q-29 0 -61.5 -3
t-65.5 -10l7 104q36 8 73.5 12t73.5 4q84 0 146 -24.5t103.5 -69.5t61.5 -108.5t20 -141.5zM435 313q0 39 -20.5 58t-65.5 19q-54 0 -83 -31t-37 -95q-2 -18 -3.5 -35.5t-1.5 -32.5q0 -42 20.5 -60.5t65.5 -18.5q54 0 81.5 32.5t38.5 104.5q3 18 4 33t1 26z" />
    <glyph glyph-name="Delta" unicode="&#x2206;" horiz-adv-x="781" 
d="M36 0l208 743h290l211 -743h-709zM417 518q-8 29 -14 60.5t-12 58.5h-2q-5 -27 -11.5 -58.5t-14.5 -60.5l-106 -387h266z" />
    <glyph glyph-name="product" unicode="&#x220f;" horiz-adv-x="789" 
d="M670 594v-665h-177v665h-198v-665h-177v665h-81v149h714v-149h-81z" />
    <glyph glyph-name="summation" unicode="&#x2211;" horiz-adv-x="630" 
d="M62 -71v138l208 267l-208 271v138h507v-138h-307l178 -236v-72l-178 -230h307v-138h-507z" />
    <glyph glyph-name="minus" unicode="&#x2212;" horiz-adv-x="677" 
d="M85 320v132h506v-132h-506z" />
    <glyph glyph-name="uni2215" unicode="&#x2215;" horiz-adv-x="556" 
d="M104 0h-147l496 745h147z" />
    <glyph glyph-name="uni2219" unicode="&#x2219;" horiz-adv-x="302" 
d="M67 422q0 11 5.5 17t12.5 9t13 3.5l6 0.5h127v-165h-164v135z" />
    <glyph glyph-name="radical" unicode="&#x221a;" horiz-adv-x="833" 
d="M492 -70h-186l-137 440h-123v132h225l127 -423l243 793h146z" />
    <glyph glyph-name="infinity" unicode="&#x221e;" horiz-adv-x="733" 
d="M640 365q0 -19 -1.5 -44t-6.5 -52t-15 -53t-28 -47t-45 -33.5t-65 -12.5h-6q-35 0 -62 12.5t-50 37.5q-17 -24 -43.5 -38t-60.5 -14h-7q-57 0 -89.5 26.5t-48.5 65t-20 80t-4 71.5v25q0 27 3.5 68.5t19.5 80t49 66t91 27.5h7q35 0 62 -13.5t47 -38.5q19 28 45 40.5
t61 12.5h7q57 0 89 -26.5t48 -64.5t19.5 -80t3.5 -72v-24zM532 389q0 28 -1 53.5t-6.5 44.5t-16.5 30t-30 11h-5q-14 0 -23 -9.5t-15 -28t-10 -47.5t-8 -69q-3 -30 -6.5 -53t-8.5 -55q15 -22 32 -31.5t37 -9.5h5q20 0 31 11.5t16.5 31t7 45t1.5 52.5v24zM328 484
q-14 21 -31.5 33t-36.5 12h-6q-20 0 -31.5 -12.5t-17 -32.5t-7 -45t-1.5 -50v-25q0 -26 1 -51t6.5 -44.5t17 -31.5t31.5 -12h5q13 0 21.5 8.5t14.5 26.5t10.5 47t9.5 70q2 27 5.5 51t8.5 56z" />
    <glyph glyph-name="integral" unicode="&#x222b;" horiz-adv-x="544" 
d="M493 667q-19 1 -41 2t-41 1q-18 0 -28.5 -3t-15.5 -10t-6.5 -19t-1.5 -30v-640q0 -41 -8.5 -73t-28 -54t-52 -33.5t-80.5 -11.5q-44 0 -80.5 5.5t-58.5 10.5v98q19 -1 41 -2t41 -1q18 0 28 3t15.5 10t7 19t1.5 31v640q0 41 8 73t27.5 53.5t52 33t80.5 11.5q44 0 81 -5
t59 -10v-99v0z" />
    <glyph glyph-name="approxequal" unicode="&#x2248;" horiz-adv-x="677" 
d="M590 583q0 -83 -37 -119t-96 -36q-29 0 -56 7t-59 24l-56 32q-19 11 -31.5 17t-25.5 6q-20 0 -26 -12.5t-6 -38.5v-28h-111v28q0 42 10 71t28 47.5t43 27t55 8.5q27 0 50.5 -8.5t54.5 -25.5l60 -32q17 -11 30.5 -15t30.5 -4q20 0 25.5 12.5t5.5 38.5v28h111v-28zM590 321
q0 -83 -37 -118.5t-96 -35.5q-29 0 -56 7t-59 24l-56 31q-19 11 -31 17t-26 6q-20 0 -26 -12.5t-6 -37.5v-29h-111v29q0 41 10 70t28 47.5t43 27t55 8.5q27 0 50.5 -8t54.5 -25l60 -33q17 -11 30.5 -15t30.5 -4q20 0 25.5 13t5.5 38v28h111v-28z" />
    <glyph glyph-name="notequal" unicode="&#x2260;" horiz-adv-x="677" 
d="M354 183l-67 -188h-161l67 188h-102v131h143l47 140h-190v132h231l58 162h161l-58 -162h104v-132h-146l-46 -140h192v-131h-233z" />
    <glyph glyph-name="lessequal" unicode="&#x2264;" horiz-adv-x="677" 
d="M80 0v107h519v-107h-519zM367 169l-280 241l280 241h190l-277 -241l277 -241h-190z" />
    <glyph glyph-name="greaterequal" unicode="&#x2265;" horiz-adv-x="677" 
d="M76 0v107h519v-107h-519zM309 169h-191l277 241l-277 241h191l279 -241z" />
    <glyph glyph-name="lozenge" unicode="&#x25ca;" horiz-adv-x="696" 
d="M346 42l-271 321l273 326l273 -325zM348 521l-134 -158l132 -154l136 155z" />
    <glyph glyph-name="percent.oldstyle" unicode="&#xfe6a;" horiz-adv-x="968" 
d="M917 170q0 -86 -38.5 -133.5t-124.5 -47.5q-87 0 -125.5 47.5t-38.5 133.5v8q0 86 38.5 133.5t125.5 47.5q86 0 124.5 -47t38.5 -134v-8zM800 179q0 57 -11.5 75.5t-34.5 18.5t-35 -18.5t-12 -75.5v-9q0 -57 12 -75.5t35 -18.5t34.5 18.5t11.5 75.5v9zM346 0h-130
l409 604h130zM378 426q0 -86 -38.5 -133.5t-125.5 -47.5t-125.5 47.5t-38.5 133.5v7q0 87 38.5 134.5t125.5 47.5t125.5 -47.5t38.5 -134.5v-7zM261 434q0 57 -12 75.5t-35 18.5t-34.5 -18.5t-11.5 -75.5v-8q0 -57 11.5 -75.5t34.5 -18.5t35 18.5t12 75.5v8z" />
    <glyph glyph-name="dollar.oldstyle" horiz-adv-x="599" 
d="M65 126l85 -5t123 -3q49 0 70 14t21 42q0 12 -3 21t-12 17t-24.5 16t-39.5 19l-81 34q-36 16 -65 33t-49.5 39.5t-31 52t-10.5 71.5q0 78 45.5 121.5t136.5 56.5v101h143v-97q49 -4 91.5 -10.5t66.5 -11.5v-117q-44 3 -98.5 6.5t-111.5 3.5q-44 0 -67.5 -9.5t-23.5 -36.5
q0 -20 13 -35t57 -33l79 -33q43 -18 75 -36t52.5 -41t30.5 -52.5t10 -69.5q0 -82 -45 -130t-129 -62v-109h-143v104q-50 2 -94.5 7.5t-70.5 12.5v119z" />
    <glyph glyph-name="dollar.superior" horiz-adv-x="438" 
d="M52 430q23 -2 62 -4t85 -2q39 0 53.5 10.5t14.5 30.5q0 17 -11.5 26t-42.5 21l-61 24q-50 19 -81 49t-31 86q0 54 31 83.5t92 39.5v81h112v-78q34 -2 63.5 -6.5t43.5 -7.5v-84q-44 4 -84.5 6t-63.5 2q-32 0 -50.5 -7.5t-18.5 -27.5q0 -15 10.5 -24t41.5 -20l59 -21
q59 -21 88.5 -50.5t29.5 -84.5q0 -57 -31 -91t-88 -44v-83h-112v79q-33 2 -62 5.5t-49 7.5v84z" />
    <glyph glyph-name="zero.oldstyle" horiz-adv-x="706" 
d="M657 282q0 -147 -75 -223t-229 -76q-152 0 -228 76t-76 223v35q0 147 76 222.5t228 75.5q154 0 229 -75.5t75 -222.5v-35zM470 317q0 45 -8 75.5t-23.5 48.5t-37 26t-48.5 8t-48.5 -8t-36.5 -26t-23 -48.5t-8 -75.5v-35q0 -45 8 -75.5t23 -49t36.5 -26.5t48.5 -8t48.5 8
t37 26.5t23.5 49t8 75.5v35z" />
    <glyph glyph-name="one.oldstyle" horiz-adv-x="588" 
d="M44 0v129l159 7v302l-160 -50v145l212 72h134v-469l155 -7v-129h-500z" />
    <glyph glyph-name="two.oldstyle" horiz-adv-x="650" 
d="M59 584q22 6 52 12t64 10t68.5 6.5t66.5 2.5q82 0 138 -11.5t90 -34t49 -55.5t15 -77q0 -41 -11 -72.5t-37 -60.5t-68 -57.5t-103 -62.5l-83 -46h292v-138h-541v138l176 101q58 34 94.5 59t57 45t27.5 38t7 38q0 35 -30 49.5t-104 14.5q-23 0 -52 -1t-59 -3t-58.5 -4
t-50.5 -4v113z" />
    <glyph glyph-name="three.oldstyle" horiz-adv-x="651" 
d="M589 61q0 -61 -18.5 -103.5t-55 -69t-92 -38.5t-130.5 -12q-36 0 -73.5 3.5t-70.5 8.5t-60 11t-43 11v114q19 -2 45.5 -4.5t56.5 -4.5t62.5 -3.5t63.5 -1.5q33 0 57.5 3.5t40 14t23.5 29.5t8 50v17q0 20 -3.5 36t-15.5 27.5t-33.5 17.5t-57.5 6h-202v123h203
q35 0 56.5 6.5t33 18.5t15.5 28.5t4 36.5v10q0 26 -6 42.5t-21 26.5t-40 13.5t-63 3.5q-63 0 -121 -3.5t-104 -8.5v113q13 4 39 10t59.5 10.5t71.5 8t75 3.5q70 0 125.5 -10.5t93 -34.5t57.5 -63.5t20 -97.5v-11q0 -49 -20 -93t-68 -69q49 -24 68.5 -67.5t19.5 -90.5v-17v0z
" />
    <glyph glyph-name="four.oldstyle" horiz-adv-x="712" 
d="M567 27v-169h-187v169h-341v129l369 446h159v-447h99v-128h-99zM389 405l-201 -250h201v250z" />
    <glyph glyph-name="five.oldstyle" horiz-adv-x="641" 
d="M593 78q0 -65 -21 -110.5t-60 -73.5t-94.5 -40.5t-124.5 -12.5q-42 0 -80 3t-70.5 7.5t-57 10t-38.5 9.5v116q49 -6 98 -10t110 -4q42 0 70.5 5t46 17t25 32t7.5 50v20q0 27 -6.5 45t-23 29.5t-44.5 16t-72 4.5h-204l35 410h480v-134h-330l-13 -149h70q85 0 142 -13
t91.5 -40t49 -68.5t14.5 -99.5v-20v0z" />
    <glyph glyph-name="six.oldstyle" horiz-adv-x="688" 
d="M639 230q0 -71 -24 -118.5t-64.5 -76t-93 -40.5t-109.5 -12q-77 0 -133.5 17t-93 54.5t-54.5 95.5t-18 141v166q0 71 12.5 127t46.5 95t93.5 59.5t152.5 20.5q39 0 77 -3t71 -7.5t59 -9t41 -8.5v-117q-53 5 -107.5 8.5t-118.5 3.5q-49 0 -77.5 -9t-43 -26.5t-18.5 -44.5
t-4 -63v-25q13 3 30.5 6t35.5 5t35 3t31 1q58 0 108.5 -8.5t87 -31.5t57.5 -64.5t21 -107.5v-31zM455 258q0 31 -7 51t-20.5 31t-34 15t-47.5 4q-21 0 -52 -2.5t-61 -9.5v-86q0 -45 7.5 -74t22.5 -46.5t36.5 -24t49.5 -6.5q47 0 76.5 28t29.5 91v29z" />
    <glyph glyph-name="seven.oldstyle" horiz-adv-x="636" 
d="M272 -141h-198l341 609h-372v134h556v-148z" />
    <glyph glyph-name="eight.oldstyle" horiz-adv-x="715" 
d="M663 213q0 -78 -24.5 -123.5t-65.5 -69t-96.5 -30.5t-116.5 -7h-5q-62 0 -117 7t-96 30.5t-65.5 69t-24.5 123.5q0 64 19.5 103.5t61.5 66.5q-37 24 -58 61t-21 97q0 69 23.5 111.5t64 66.5t95.5 32t118 8h5q63 0 117.5 -8t95 -32t64 -66.5t23.5 -111.5q0 -60 -21 -97
t-58 -61q42 -27 62 -66.5t20 -103.5zM479 222q-1 56 -17.5 80t-62.5 24h-84q-47 0 -63.5 -24t-16.5 -80q0 -38 8.5 -60.5t24 -35.5t37.5 -17t50 -4h5q27 0 49 4t37.5 17t24 35.5t8.5 60.5zM477 535q0 31 -8 50.5t-23.5 31t-37 15.5t-48.5 4h-5q-27 0 -49 -4t-37.5 -15.5
t-23.5 -31t-8 -50.5q0 -44 15.5 -68.5t62.5 -24.5h84q47 0 62.5 24.5t15.5 68.5z" />
    <glyph glyph-name="nine.oldstyle" horiz-adv-x="688" 
d="M633 144q0 -71 -13 -127.5t-47 -96t-93.5 -61t-152.5 -21.5q-39 0 -77 3t-71 7.5t-59 9.5t-41 8v117q44 -4 104 -8t126 -4q48 0 75.5 9t41.5 27t18 45t4 62v26q-13 -3 -30 -6t-35 -5t-35.5 -3t-31.5 -1q-58 0 -108 8.5t-86.5 31.5t-57.5 64.5t-21 107.5v31q0 70 24 117.5
t64.5 76.5t93 41t109.5 12q76 0 132.5 -17t93.5 -53.5t55 -94t18 -138.5v-168zM448 337q0 45 -7.5 74t-22 46t-36 24t-49.5 7q-48 0 -77.5 -28.5t-29.5 -91.5v-29q0 -32 7 -51.5t20.5 -30.5t34 -15t47.5 -4q21 0 52.5 2.5t60.5 9.5v87z" />
    <glyph glyph-name="comma.superior" horiz-adv-x="257" 
d="M136 275h-94l52 163h114z" />
    <glyph glyph-name="period.superior" horiz-adv-x="218" 
d="M49 409q0 11 5.5 17t12.5 9t13 3.5l6 0.5h82v-101h-119v71z" />
    <glyph glyph-name="a.superior" horiz-adv-x="425" 
d="M262 307v25q-18 -12 -47 -23t-68 -11q-51 0 -78.5 25t-27.5 76v12q0 36 13.5 56.5t37.5 30.5t57 12.5t71 2.5h31v20q0 29 -11.5 38t-51.5 9q-23 0 -58 -1.5t-61 -3.5v66q16 6 57 14t89 8q84 0 120.5 -29.5t36.5 -103.5v-223h-110zM256 458h-34q-35 0 -50.5 -7t-15.5 -36
v-11q0 -20 10.5 -27.5t27.5 -7.5q20 0 37 6t25 10v73z" />
    <glyph glyph-name="b.superior" horiz-adv-x="443" 
d="M174 779v-127q14 6 32 8.5t36 2.5q85 0 124.5 -39.5t39.5 -124.5v-31q0 -47 -12 -79.5t-36 -52.5t-59 -29t-80 -9q-39 0 -75.5 2t-90.5 8v471h121zM285 499q0 44 -12 59.5t-46 15.5q-9 0 -25.5 -2t-28.5 -7v-176q8 -1 17 -2t30 -1q36 0 50.5 16.5t14.5 65.5v31z" />
    <glyph glyph-name="cent.superior" horiz-adv-x="405" 
d="M362 340q-13 -4 -35.5 -7t-47.5 -5v-79h-109v86q-60 15 -94.5 64t-34.5 142v39q0 176 129 206v81h109v-75q26 -1 48.5 -4.5t34.5 -6.5v-95q-23 2 -49.5 3t-49.5 1q-50 0 -69 -23.5t-19 -86.5v-39q0 -31 4 -52t14 -34t27 -18.5t43 -5.5q23 0 52.5 1.5t46.5 3.5v-96v0z" />
    <glyph glyph-name="d.superior" horiz-adv-x="444" 
d="M280 307v21q-19 -12 -45 -21t-58 -9q-66 0 -103 40.5t-37 125.5v33q0 92 44.5 129t123.5 37q20 0 35.5 -1.5t29.5 -3.5v121h121v-472h-111zM272 571q-14 2 -27.5 3t-23.5 1q-16 0 -28 -3t-19.5 -11t-11.5 -23.5t-4 -40.5v-33q0 -44 13 -61t45 -17q15 0 29.5 3.5t26.5 8.5
v173z" />
    <glyph glyph-name="e.superior" horiz-adv-x="431" 
d="M157 450v-4q0 -14 2 -26t9.5 -21t23.5 -14t45 -5q30 0 67.5 2t71.5 6v-75q-22 -5 -63.5 -10t-88.5 -5q-52 0 -88 11.5t-58 33t-31.5 52.5t-9.5 69v31q0 88 48 128t132 40q52 0 86.5 -15t54.5 -39.5t28 -56t8 -63.5v-39h-237zM277 515q0 28 -11 49t-49 21q-19 0 -31 -6
t-18.5 -15.5t-8.5 -22.5t-2 -26v-5h120v5z" />
    <glyph glyph-name="l.superior" horiz-adv-x="227" 
d="M53 307v472h121v-472h-121z" />
    <glyph glyph-name="m.superior" horiz-adv-x="649" 
d="M166 625q23 19 51.5 28.5t59.5 9.5q34 0 54.5 -10t32.5 -29q31 22 60.5 30.5t55.5 8.5q37 0 60 -10t35.5 -28t16.5 -42t4 -51v-225h-122v222q0 23 -4.5 35.5t-30.5 12.5q-12 0 -27 -4t-29 -11q2 -9 2 -17v-16v-222h-121v222q0 23 -4.5 35.5t-28.5 12.5q-15 0 -30.5 -5.5
t-26.5 -10.5v-254h-121v347h113v-29v0z" />
    <glyph glyph-name="o.superior" horiz-adv-x="432" 
d="M395 465q0 -89 -47 -128t-132 -39t-132 39t-47 128v32q0 88 47.5 127t131.5 39t131.5 -39t47.5 -127v-32zM275 497q0 44 -14 61t-45 17q-32 0 -45.5 -17t-13.5 -61v-32q0 -45 13.5 -62t45.5 -17q31 0 45 17.5t14 61.5v32z" />
    <glyph glyph-name="r.superior" horiz-adv-x="313" 
d="M53 307v347h111v-29q27 24 58 31t60 7v-98q-29 0 -57.5 -4t-50.5 -10v-244h-121z" />
    <glyph glyph-name="s.superior" horiz-adv-x="387" 
d="M346 408q0 -57 -40 -83.5t-125 -26.5q-19 0 -39 1.5t-38 3.5t-33 4.5t-23 4.5v69q21 -2 55.5 -5t70.5 -3q31 0 42 8t11 22q0 15 -10.5 21.5t-41.5 17.5l-28 9q-51 17 -78.5 41.5t-27.5 69.5q0 30 11 50t31 31t48 15.5t63 4.5q20 0 41 -1t39.5 -3t33.5 -4.5t24 -5.5v-64
q-43 3 -69.5 3.5t-53.5 0.5q-26 0 -37.5 -4.5t-11.5 -19.5q0 -13 8.5 -19t34.5 -15l34 -12q59 -21 84 -44t25 -67z" />
    <glyph glyph-name="t.superior" horiz-adv-x="331" 
d="M296 308q-7 -2 -31 -6t-53 -4q-61 0 -87.5 26t-26.5 87v164l-63 6v73h63v85h120v-85h78v-79h-77v-164q0 -22 4 -28.5t24 -6.5q12 0 27 0.5t22 1.5v-70v0z" />
    <glyph glyph-name="hyphen.superior" horiz-adv-x="247" 
d="M47 495v88h152v-88h-152z" />
    <glyph glyph-name="cent.oldstyle" horiz-adv-x="573" 
d="M517 475q-44 3 -78 4.5t-72 1.5q-34 0 -58.5 -6.5t-40 -23t-23 -45t-7.5 -71.5v-69q0 -43 7.5 -71t23 -44.5t40 -23t58.5 -6.5q40 0 78.5 1.5t70.5 3.5v-122q-20 -6 -55 -10.5t-70 -6.5v-100h-140v106q-102 21 -148 88t-46 185v69q0 117 47 184.5t147 87.5v102h141v-95
q33 -2 69 -6.5t56 -9.5v-123z" />
    <glyph glyph-name="hyphen.inferior" horiz-adv-x="247" 
d="M47 4v88h152v-88h-152z" />
    <glyph glyph-name="cent.inferior" horiz-adv-x="405" 
d="M362 -199q-13 -4 -35.5 -7t-47.5 -5v-79h-109v86q-60 15 -94.5 64t-34.5 142v39q0 176 129 206v81h109v-75q26 -1 48.5 -4.5t34.5 -6.5v-95q-23 2 -49.5 3t-49.5 1q-50 0 -69 -23.5t-19 -86.5v-39q0 -31 4 -52t14 -34t27 -18.5t43 -5.5q23 0 52.5 1.5t46.5 3.5v-96v0z
" />
    <glyph glyph-name="dollar.inferior" horiz-adv-x="438" 
d="M52 -114q23 -2 62 -4t85 -2q39 0 53.5 10.5t14.5 30.5q0 17 -11.5 26t-42.5 21l-61 24q-50 19 -81 49t-31 86q0 54 31 83.5t92 39.5v81h112v-78q34 -2 63.5 -6.5t43.5 -7.5v-84q-44 4 -84.5 6t-63.5 2q-32 0 -50.5 -7.5t-18.5 -27.5q0 -15 10.5 -24t41.5 -20l59 -21
q59 -21 88.5 -50.5t29.5 -84.5q0 -57 -31 -91t-88 -44v-83h-112v79q-33 2 -62 5.5t-49 7.5v84z" />
    <glyph glyph-name="period.inferior" horiz-adv-x="218" 
d="M49 -83q0 11 5.5 17t12.5 9t13 3.5l6 0.5h82v-101h-119v71z" />
    <glyph glyph-name="comma.inferior" horiz-adv-x="257" 
d="M136 -216h-94l52 163h114z" />
    <glyph glyph-name="Dotaccent" horiz-adv-x="426" 
d="M123 907q0 11 5.5 17t12.5 9t13 3.5l6 0.5h142v-127h-179v97z" />
    <glyph glyph-name="Breve" horiz-adv-x="513" 
d="M464 949q-5 -43 -24 -73t-47 -49t-63.5 -28t-73.5 -9t-73 9t-63 28t-47 49t-24 73h101q6 -45 35 -61t71 -16q43 0 72 16t36 61h100v0z" />
    <glyph glyph-name="Ogonek" horiz-adv-x="458" 
d="M380 -200q-17 -5 -53.5 -11t-81.5 -6q-73 0 -112 24.5t-39 74.5q0 39 36 70t118 63h134q-48 -23 -75.5 -38.5t-42 -27.5t-18 -20.5t-3.5 -16.5q0 -18 12 -27t41 -9q22 0 43 1.5t41 3.5v-81v0z" />
    <glyph glyph-name="Cedilla" horiz-adv-x="454" 
d="M216 -203h-159l105 140h185z" />
    <glyph glyph-name="Ring" horiz-adv-x="445" 
d="M365 893q0 -60 -40 -90.5t-101 -30.5q-31 0 -57 8t-45.5 23t-30.5 37.5t-11 52.5t11 53t30.5 38.5t45.5 23.5t57 8q61 0 101 -31.5t40 -91.5zM279 894q0 26 -16 37t-39 11q-25 0 -40.5 -11t-15.5 -37q0 -25 15.5 -36.5t40.5 -11.5q23 0 39 11.5t16 36.5z" />
    <glyph glyph-name="Tilde" horiz-adv-x="516" 
d="M487 926q0 -75 -33.5 -107t-85.5 -32q-23 0 -48 7t-57 24l-47 26q-17 10 -29 15t-25 5q-18 0 -24.5 -12t-6.5 -35v-25h-98v25q0 75 34.5 107t87.5 32q26 0 47 -6.5t52 -22.5l48 -26q16 -9 29 -15.5t28 -6.5q18 0 24 11.5t6 35.5v24h98v-24v0z" />
    <glyph glyph-name="Circumflex" horiz-adv-x="545" 
d="M359 792l-87 82l-86 -82h-153l135 146h208l135 -146h-152z" />
    <glyph glyph-name="Acute" horiz-adv-x="485" 
d="M266 792h-163l132 146h198z" />
    <glyph glyph-name="Caron" horiz-adv-x="545" 
d="M186 938l86 -83l87 83h152l-135 -146h-208l-135 146h153z" />
    <glyph glyph-name="Dieresis" horiz-adv-x="508" 
d="M312 806v127h139v-127h-139zM57 903q0 11 5.5 17t12.5 9t13 3.5l6 0.5h104v-126h-141v96z" />
    <glyph glyph-name="Grave" horiz-adv-x="485" 
d="M212 792l-167 146h198l131 -146h-162z" />
    <glyph glyph-name="Hungarumlaut" horiz-adv-x="621" 
d="M513 789h-150l131 146h185zM397 935l-166 -146h-151l133 146h184z" />
    <glyph glyph-name="Macron" horiz-adv-x="503" 
d="M47 813v100h409v-100h-409z" />
    <glyph glyph-name="h.superior" horiz-adv-x="460" 
d="M174 784v-140q22 11 50.5 17.5t57.5 6.5q39 0 63.5 -10t38 -28.5t18.5 -44.5t5 -57v-216h-122v216q0 31 -9.5 42t-33.5 11q-20 0 -38.5 -5t-29.5 -10v-254h-121v472h121z" />
    <glyph glyph-name="zero.slash" horiz-adv-x="706" 
d="M657 326q0 -166 -74 -254.5t-230 -88.5q-54 0 -97.5 11t-78.5 32l-19 -26h-158l90 121q-41 79 -41 205v90q0 166 74 254.5t230 88.5q54 0 97.5 -11t78.5 -32l20 27h157l-90 -123q41 -80 41 -204v-90zM469 421l-196 -265q15 -19 35 -26t45 -7q27 0 48.5 9t36.5 32t23 62
t8 100v95zM432 585q-14 19 -34 26.5t-45 7.5q-27 0 -48.5 -9t-36.5 -32t-23 -62t-8 -100v-96z" />
    <glyph glyph-name="perthousand.oldstyle" horiz-adv-x="1345" 
d="M1295 170q0 -86 -39 -133.5t-125 -47.5q-87 0 -125.5 47.5t-38.5 133.5v8q0 87 38.5 134t125.5 47q86 0 125 -47t39 -134v-8zM1178 179q0 57 -12 75.5t-35 18.5t-35 -18.5t-12 -75.5v-9q0 -57 12 -75.5t35 -18.5t35 18.5t12 75.5v9zM917 170q0 -86 -38.5 -133.5
t-124.5 -47.5q-87 0 -125.5 47.5t-38.5 133.5v8q0 86 38.5 133.5t125.5 47.5q86 0 124.5 -47t38.5 -134v-8zM800 179q0 57 -11.5 75.5t-34.5 18.5t-35 -18.5t-12 -75.5v-9q0 -57 12 -75.5t35 -18.5t34.5 18.5t11.5 75.5v9zM346 0h-130l409 604h130zM378 426
q0 -86 -38.5 -133.5t-125.5 -47.5t-125.5 47.5t-38.5 133.5v7q0 87 38.5 134.5t125.5 47.5t125.5 -47.5t38.5 -134.5v-7zM261 434q0 57 -12 75.5t-35 18.5t-34.5 -18.5t-11.5 -75.5v-8q0 -57 11.5 -75.5t34.5 -18.5t35 18.5t12 75.5v8z" />
    <glyph glyph-name="zero.taboldstyle" 
d="M663 282q0 -147 -75.5 -223t-228.5 -76t-228.5 76t-75.5 223v35q0 147 75.5 222.5t228.5 75.5t228.5 -75.5t75.5 -222.5v-35zM475 317q0 45 -8 75.5t-23 48.5t-36.5 26t-48.5 8t-48.5 -8t-36.5 -26t-23 -48.5t-8 -75.5v-35q0 -90 31 -124.5t85 -34.5t85 34.5t31 124.5v35
z" />
    <glyph glyph-name="one.taboldstyle" 
d="M102 0v131l166 7v302l-167 -49v142l218 72h136v-467l162 -7v-131h-515z" />
    <glyph glyph-name="two.taboldstyle" 
d="M92 584q22 6 52 12t63.5 10t68.5 6.5t67 2.5q82 0 137.5 -11.5t90 -34t49.5 -55.5t15 -77q0 -40 -11.5 -72t-37 -61t-67.5 -58t-103 -62l-84 -46h293v-138h-542v138l177 101q58 33 94.5 58t56.5 45.5t27 38.5t7 38q0 35 -29.5 49.5t-104.5 14.5q-23 0 -52 -1t-58.5 -3
t-58 -4t-50.5 -4v113z" />
    <glyph glyph-name="three.taboldstyle" 
d="M631 61q0 -61 -18.5 -103.5t-55 -69t-92.5 -38.5t-131 -12q-36 0 -73.5 3.5t-70.5 8.5t-59.5 11t-42.5 11v114q19 -2 45 -4.5t56 -4.5t62.5 -3.5t64.5 -1.5q33 0 57.5 3.5t40 14t23.5 29.5t8 50v17q0 20 -4 36t-15.5 27.5t-33 17.5t-57.5 6h-202v123h203q35 0 56.5 6.5
t33 18.5t15.5 28.5t4 36.5v10q0 26 -6 42.5t-21 26.5t-40 13.5t-63 3.5q-64 0 -121.5 -3.5t-104.5 -8.5v113q13 4 39.5 10t60 10.5t71.5 8t74 3.5q71 0 126 -10.5t93 -34.5t58 -63.5t20 -97.5v-11q0 -49 -20 -93t-68 -69q49 -24 68.5 -67t19.5 -91v-17v0z" />
    <glyph glyph-name="four.taboldstyle" 
d="M573 27v-169h-187v169h-341v129l369 445h159v-446h99v-128h-99zM395 404l-201 -249h201v249z" />
    <glyph glyph-name="five.taboldstyle" 
d="M633 78q0 -65 -21 -110.5t-60 -73.5t-94.5 -40.5t-124.5 -12.5q-42 0 -80 3t-70.5 7.5t-57 10t-38.5 9.5v116q49 -6 98 -10t110 -4q42 0 70.5 5t46 17t25 32t7.5 50v20q0 27 -6.5 45t-23 29.5t-44.5 16t-72 4.5h-204l35 410h480v-134h-330l-13 -149h70q85 0 142 -13
t91.5 -40t49 -68.5t14.5 -99.5v-20v0z" />
    <glyph glyph-name="six.taboldstyle" 
d="M654 230q0 -71 -24 -118.5t-64.5 -76t-93 -40.5t-109.5 -12q-77 0 -133.5 17t-93 54.5t-54.5 95.5t-18 141v166q0 71 12.5 127t46.5 95t93.5 59.5t152.5 20.5q39 0 77 -3t71 -7.5t59 -9t41 -8.5v-117q-54 5 -108 8.5t-118 3.5q-49 0 -77.5 -9t-43 -26.5t-18.5 -44.5
t-4 -63v-25q13 3 30.5 6t35.5 5t35 3t31 1q58 0 108.5 -8.5t87 -31.5t57.5 -64.5t21 -107.5v-31zM470 258q0 31 -7 51t-20.5 31t-34 15t-47.5 4q-21 0 -52.5 -2.5t-60.5 -9.5v-86q0 -45 7.5 -74t22 -46.5t36 -24t49.5 -6.5q47 0 77 28t30 91v29z" />
    <glyph glyph-name="seven.taboldstyle" 
d="M314 -141h-198l342 609h-372v134h556v-148z" />
    <glyph glyph-name="eight.taboldstyle" 
d="M664 213q0 -78 -24.5 -123.5t-65.5 -69t-96.5 -30.5t-116.5 -7h-5q-62 0 -117 7t-96 30.5t-65.5 69t-24.5 123.5v7q0 59 20 97.5t62 65.5q-38 24 -59 61t-21 97v9q0 66 23.5 106.5t64 63.5t95.5 31t118 8h5q63 0 118 -8t95.5 -31t64 -63.5t23.5 -106.5v-9q0 -60 -21 -97
t-59 -61q42 -27 62 -65.5t20 -97.5v-7zM481 222q-1 56 -17.5 80t-63.5 24h-84q-46 0 -63 -24t-17 -80v-7q0 -35 8.5 -56.5t24 -33.5t37.5 -16t50 -4h5q27 0 49.5 4t38 16t24 33.5t8.5 56.5v7zM479 544q0 28 -8.5 45.5t-23.5 28t-37 14.5t-49 4h-5q-27 0 -49 -4t-37 -14.5
t-23.5 -28t-8.5 -45.5v-9q0 -44 15.5 -68.5t62.5 -24.5h84q47 0 63 24.5t16 68.5v9z" />
    <glyph glyph-name="nine.taboldstyle" 
d="M654 144q0 -71 -13 -127.5t-47 -96t-93.5 -61t-152.5 -21.5q-39 0 -77 3t-71 7.5t-59 9.5t-41 8v117q44 -4 104 -8t126 -4q47 0 74.5 9t42 27t18.5 45t4 62v26q-14 -3 -31 -6t-35 -5t-35 -3t-31 -1q-59 0 -108.5 8.5t-86.5 31.5t-57.5 64.5t-20.5 107.5v31q0 70 24 117.5
t64.5 76.5t93 41t109.5 12q76 0 132.5 -17t93.5 -53.5t55 -94t18 -138.5v-168zM469 337q0 45 -7.5 74t-22 46t-36.5 24t-50 7q-47 0 -76.5 -28.5t-29.5 -91.5v-29q0 -32 7 -51.5t20.5 -30.5t34 -15t47.5 -4q21 0 52.5 2.5t60.5 9.5v87z" />
    <glyph glyph-name="colonmonetary.taboldstyle" horiz-adv-x="621" 
d="M540 473q-44 3 -78.5 5t-70.5 2q-33 0 -57.5 -6.5t-40 -23t-23 -44.5t-7.5 -71v-68q0 -44 7.5 -72t23 -44t40 -22.5t57.5 -6.5q39 0 78 1.5t71 3.5v-123q-12 -4 -31.5 -7t-40.5 -5v-98h-86v91h-14q-32 0 -59 3v-94h-85v117q-75 28 -109 91t-34 165v68q0 101 34.5 164
t108.5 92v110h85v-88q13 2 28.5 3t30.5 1h14v84h86v-91q21 -2 39.5 -5.5t32.5 -6.5v-125z" />
    <glyph glyph-name="Euro.taboldstyle" horiz-adv-x="649" 
d="M434 486q-30 0 -52.5 -3.5t-38 -14t-24.5 -28.5t-12 -47h238l-15 -66h-228v-59h214l-15 -66h-194q5 -52 34 -70.5t88 -18.5q36 0 74.5 2t74.5 4v-118q-14 -3 -35.5 -6.5t-45.5 -6t-48 -4t-43 -1.5q-65 0 -115 11t-85 37t-55.5 67.5t-26.5 103.5h-52v66h49v59h-49v66h51
q6 64 26 107t55.5 69t85.5 37t116 11q21 0 44 -1.5t46 -3.5t44 -5.5t38 -6.5v-121q-35 3 -72 5t-72 2z" />
    <glyph glyph-name="florin.taboldstyle" horiz-adv-x="624" 
d="M538 509q-17 1 -31.5 1.5t-31.5 0.5q-23 0 -35 -8t-17 -38l-13 -93h115l-14 -110h-116l-29 -229q-5 -44 -19.5 -72.5t-36 -45.5t-50.5 -24t-63 -7q-40 0 -68.5 4t-53.5 9l13 95q20 -1 32.5 -1.5t31.5 -0.5q26 0 35.5 11.5t14.5 37.5l28 223h-102l14 110h103l14 98
q6 44 21 72t37.5 44.5t51 23t61.5 6.5q39 0 66.5 -4t51.5 -9z" />
    <glyph glyph-name="numbersign.taboldstyle" horiz-adv-x="699" 
d="M517 138l-16 -138h-135l16 138h-106l-16 -138h-135l16 138h-66v98h77l14 119h-91v99h103l18 148h135l-18 -148h105l18 148h135l-18 -148h70v-99h-81l-14 -119h95v-98h-106zM301 355l-14 -119h106l14 119h-106z" />
    <glyph glyph-name="sterling.taboldstyle" horiz-adv-x="628" 
d="M550 481q-44 5 -79.5 6.5t-65.5 1.5t-49 -3.5t-29.5 -13t-14 -26t-3.5 -42.5v-40h162v-112h-162v-66q0 -20 -4 -34t-12 -27h257v-125h-450v101q40 36 40 85v66h-62v112h62v40q0 57 13 97.5t40.5 66t70.5 37t102 11.5q49 0 94 -4.5t90 -12.5v-118z" />
    <glyph glyph-name="yen.taboldstyle" horiz-adv-x="711" 
d="M270 0v146h-209v90h197l-41 77h-156v90h109l-106 199h185l71 -152q9 -20 17.5 -40.5t17.5 -42.5h1q8 22 17 42.5t18 40.5l71 152h187l-108 -199h111v-90h-158l-42 -77h200v-90h-211v-146h-171z" />
    <glyph glyph-name="dollar.taboldstyle" horiz-adv-x="642" 
d="M96 120q42 -2 89 -5t111 -3q46 0 68 12t22 40q0 11 -3 19.5t-12 16t-25 15t-41 17.5l-71 27q-37 14 -65.5 29.5t-48.5 36.5t-30.5 49.5t-10.5 67.5q0 76 44.5 117t130.5 52v90h139v-87q47 -3 87 -9t63 -11v-110q-47 2 -93 5t-107 3q-42 0 -65.5 -8t-23.5 -35q0 -10 3 -18
t11 -15.5t22 -14.5t37 -16l74 -29q43 -16 73.5 -32.5t50 -38t29 -50t9.5 -68.5q0 -75 -44 -119t-126 -57v-97h-139v93q-48 2 -90 7t-68 11v115z" />
    <glyph glyph-name="cent.taboldstyle" horiz-adv-x="621" 
d="M540 476q-45 2 -78 3.5t-71 1.5q-34 0 -58.5 -6.5t-40 -23t-23 -45t-7.5 -71.5v-69q0 -43 7.5 -71t23 -44.5t40 -23t58.5 -6.5q40 0 78 1.5t71 3.5v-122q-20 -6 -55 -10.5t-70 -6.5v-100h-140v106q-101 21 -147.5 88t-46.5 185v69q0 117 46.5 184.5t147.5 87.5v102h141
v-95q16 -1 34 -2.5t34.5 -4t31 -4.5t24.5 -5v-122z" />
    <glyph glyph-name="zero.denominator" horiz-adv-x="491" 
d="M444 206q0 -105 -47.5 -160.5t-149.5 -55.5t-149.5 55.5t-47.5 160.5v35q0 105 47.5 160.5t149.5 55.5t149.5 -55.5t47.5 -160.5v-35zM314 241q0 37 -5 60.5t-13.5 37t-21 18t-27.5 4.5t-27.5 -4.5t-21.5 -18t-13.5 -37t-4.5 -60.5v-36q0 -37 4.5 -60.5t13.5 -36.5
t21.5 -18t27.5 -5t27.5 5t21 18t13.5 36.5t5 60.5v36z" />
    <glyph glyph-name="one.denominator" horiz-adv-x="407" 
d="M62 0v85l80 4v246l-81 -26v96l118 44h93v-360l81 -4v-85h-291z" />
    <glyph glyph-name="two.denominator" horiz-adv-x="454" 
d="M57 439q13 4 33 7t42.5 5.5t45.5 4t44 1.5q96 0 139.5 -28t43.5 -91q0 -24 -7 -43t-22.5 -35.5t-40.5 -32.5t-61 -32q-32 -15 -51.5 -25.5t-30 -21.5t-13.5 -23t-3 -30v-4h220v-91h-346v55q0 42 7.5 72t24.5 53t43.5 41.5t64.5 37.5q29 14 46 23.5t25.5 17.5t11 15.5
t2.5 18.5q0 20 -16 28.5t-59 8.5q-19 0 -40.5 -1t-41.5 -2t-36.5 -2t-24.5 -2v75z" />
    <glyph glyph-name="three.denominator" horiz-adv-x="450" 
d="M212 -10q-24 0 -48.5 2t-46.5 5t-39 6.5t-26 6.5v74q8 -1 25 -2t37.5 -2t42.5 -1.5t40 -0.5q40 0 58 9.5t18 43.5v9q0 11 -2.5 20t-9.5 15t-20 9t-35 3h-126v81h127q21 0 34 3.5t20 10t9.5 15.5t2.5 20v6q0 27 -15.5 37t-60.5 10q-39 0 -77.5 -2.5t-67.5 -4.5v74
q9 3 26.5 6.5t39 6.5t46 5t48.5 2q45 0 80 -6t59 -20.5t37 -38.5t13 -59v-6q0 -29 -12.5 -56t-42.5 -42q31 -14 43 -40.5t12 -54.5v-9q0 -73 -46 -104t-143 -31z" />
    <glyph glyph-name="four.denominator" horiz-adv-x="474" 
d="M246 0v98h-213v82l236 267h105v-265h60v-84h-60v-98h-128zM253 318l-119 -136h119v136z" />
    <glyph glyph-name="five.denominator" horiz-adv-x="451" 
d="M180 359l-8 -81h43q53 0 89 -7.5t57.5 -23.5t31 -41.5t9.5 -61.5v-8q0 -80 -51.5 -113t-138.5 -33q-54 0 -97 6.5t-63 11.5v77q20 -2 36.5 -4t31.5 -3t30.5 -1.5t33.5 -0.5q50 0 69 12.5t19 45.5v10q0 30 -17 40.5t-69 10.5h-131l23 252h310v-88h-208z" />
    <glyph glyph-name="six.denominator" horiz-adv-x="477" 
d="M402 362q-29 2 -69 4t-76 2q-29 0 -45.5 -4.5t-25 -14t-11 -24.5t-2.5 -35v-13q16 5 38.5 7t39.5 2q37 0 69.5 -5t55.5 -19.5t36.5 -40t13.5 -66.5v-15q0 -42 -15 -71t-40.5 -46.5t-59.5 -25t-73 -7.5q-104 0 -148 46t-44 144v87q0 44 8 79t30 60t59.5 38t97.5 13
q51 0 96 -6.5t65 -11.5v-77zM299 154q0 36 -15.5 47t-46.5 11q-12 0 -29.5 -1.5t-34.5 -5.5v-46q0 -26 4.5 -43t13 -27t20.5 -13.5t28 -3.5q26 0 43 15.5t17 52.5v14z" />
    <glyph glyph-name="seven.denominator" horiz-adv-x="448" 
d="M55 447h350v-96l-205 -351h-135l213 359h-223v88z" />
    <glyph glyph-name="eight.denominator" horiz-adv-x="492" 
d="M439 127q0 -46 -15.5 -73t-42.5 -41.5t-63 -18.5t-77 -4q-40 0 -75.5 4t-62 18.5t-42 41.5t-15.5 73v6q0 34 12.5 57t38.5 40q-23 15 -36.5 37.5t-13.5 57.5v6q0 39 15 64t41.5 38.5t62.5 18.5t78 5q41 0 76.5 -5t61.5 -18.5t41 -38.5t15 -64v-6q0 -35 -13 -57.5
t-36 -37.5q50 -32 50 -97v-6zM314 134q0 32 -9.5 45.5t-36.5 13.5h-50q-27 0 -36.5 -13.5t-9.5 -45.5v-4q0 -38 18.5 -49.5t53.5 -11.5q32 0 51 11.5t19 49.5v4zM312 326q0 30 -18.5 40.5t-52.5 10.5q-32 0 -50 -10.5t-18 -40.5v-5q0 -25 9 -39t36 -14h50q27 0 35.5 14
t8.5 39v5z" />
    <glyph glyph-name="nine.denominator" horiz-adv-x="477" 
d="M70 84q28 -2 68.5 -4.5t79.5 -2.5q27 0 43.5 5t25 14.5t11 24.5t2.5 35v13q-16 -4 -39 -6t-39 -2q-38 0 -70 5t-55.5 19t-37 39.5t-13.5 66.5v16q0 42 15 70.5t40.5 46t60 25.5t73.5 8q104 0 147.5 -46.5t43.5 -144.5v-88q0 -43 -8 -78t-29.5 -59.5t-59 -37.5t-97.5 -13
q-25 0 -49.5 1.5t-46.5 4t-39 5.5t-27 6v77zM300 288q0 52 -17 69t-50 17q-26 0 -43 -15.5t-17 -51.5v-15q0 -35 15.5 -46t45.5 -11q13 0 31 1.5t35 4.5v47z" />
    <glyph glyph-name="comma.denominator" horiz-adv-x="257" 
d="M136 -58h-94l52 163h114z" />
    <glyph glyph-name="period.denominator" horiz-adv-x="218" 
d="M50 75q0 11 5.5 17t12.5 9t13 3.5l6 0.5h81v-100h-118v70z" />
    <glyph glyph-name="cent.denominator" horiz-adv-x="405" 
d="M362 7q-13 -4 -35.5 -7t-47.5 -5v-79h-109v86q-60 15 -94.5 64t-34.5 142v39q0 176 129 206v81h109v-75q26 -1 48.5 -4.5t34.5 -6.5v-95q-23 2 -49.5 3t-49.5 1q-50 0 -69 -23.5t-19 -86.5v-39q0 -31 4 -52t14 -34t27 -18.5t43 -5.5q23 0 52.5 1.5t46.5 3.5v-96v0z" />
    <glyph glyph-name="dollar.denominator" horiz-adv-x="438" 
d="M52 92q23 -2 62 -4t85 -2q39 0 53.5 10.5t14.5 30.5q0 17 -11.5 26t-42.5 21l-61 24q-50 19 -81 49t-31 86q0 54 31 83.5t92 39.5v81h112v-78q34 -2 63.5 -6.5t43.5 -7.5v-84q-44 4 -84.5 6t-63.5 2q-32 0 -50.5 -7.5t-18.5 -27.5q0 -15 10.5 -24t41.5 -20l59 -21
q59 -21 88.5 -50.5t29.5 -84.5q0 -57 -31 -91t-88 -44v-83h-112v79q-33 2 -62 5.5t-49 7.5v84z" />
    <glyph glyph-name="hyphen.denominator" horiz-adv-x="247" 
d="M47 220q0 11 5.5 17t12.5 9t13 3.5l6 0.5h115v-88h-152v58z" />
    <glyph glyph-name="parenleft.denominator" horiz-adv-x="287" 
d="M134 -74q-15 20 -29.5 47t-26 60.5t-18.5 72t-7 82.5v5q0 43 7 82.5t18.5 73t26 61t29.5 47.5h112q-31 -48 -53 -114.5t-22 -149.5v-5q0 -83 22 -148.5t53 -113.5h-112z" />
    <glyph glyph-name="parenright.denominator" horiz-adv-x="287" 
d="M234 188q0 -44 -7.5 -82.5t-19 -72t-26 -60.5t-29.5 -47h-111q31 48 53 113.5t22 148.5v5q0 83 -22 149.5t-53 114.5h111q15 -20 29.5 -47.5t26 -61t19 -73t7.5 -82.5v-5v0z" />
    <glyph glyph-name="zero.numerator" horiz-adv-x="491" 
d="M444 508q0 -105 -47.5 -160.5t-149.5 -55.5t-149.5 55.5t-47.5 160.5v35q0 105 47.5 160.5t149.5 55.5t149.5 -55.5t47.5 -160.5v-35zM314 543q0 37 -5 60.5t-13.5 37t-21 18t-27.5 4.5t-27.5 -4.5t-21.5 -18t-13.5 -37t-4.5 -60.5v-36q0 -37 4.5 -60.5t13.5 -36.5
t21.5 -18t27.5 -5t27.5 5t21 18t13.5 36.5t5 60.5v36z" />
    <glyph glyph-name="one.numerator" horiz-adv-x="407" 
d="M62 302v85l80 4v246l-81 -26v96l118 44h93v-360l81 -4v-85h-291z" />
    <glyph glyph-name="two.numerator" horiz-adv-x="454" 
d="M57 741q13 4 33 7t42.5 5.5t45.5 4t44 1.5q96 0 139.5 -28t43.5 -91q0 -24 -7 -43t-22.5 -35.5t-40.5 -32.5t-61 -32q-32 -15 -51.5 -25.5t-30 -21.5t-13.5 -23t-3 -30v-4h220v-91h-346v55q0 42 7.5 72t24.5 53t43.5 41.5t64.5 37.5q29 14 46 23.5t25.5 17.5t11 15.5
t2.5 18.5q0 20 -16 28.5t-59 8.5q-19 0 -40.5 -1t-41.5 -2t-36.5 -2t-24.5 -2v75z" />
    <glyph glyph-name="three.numerator" horiz-adv-x="450" 
d="M212 292q-24 0 -48.5 2t-46.5 5t-39 6.5t-26 6.5v74q8 -1 25 -2t37.5 -2t42.5 -1.5t40 -0.5q40 0 58 9.5t18 43.5q0 29 -12 42.5t-55 13.5h-126v81h127q43 0 54.5 14.5t11.5 40.5q0 27 -15.5 37t-60.5 10q-39 0 -77.5 -2.5t-67.5 -4.5v74q9 3 26.5 6.5t39 6.5t46 5
t48.5 2q45 0 80 -6.5t59 -21.5t37 -40t13 -62q0 -29 -12.5 -56t-42.5 -42q31 -14 43 -40.5t12 -54.5q0 -80 -46 -112t-143 -32z" />
    <glyph glyph-name="four.numerator" horiz-adv-x="474" 
d="M246 302v98h-213v82l236 267h105v-265h60v-84h-60v-98h-128zM253 620l-119 -136h119v136z" />
    <glyph glyph-name="five.numerator" horiz-adv-x="451" 
d="M180 661l-8 -81h43q53 0 89 -7.5t57.5 -23.5t31 -41.5t9.5 -61.5q0 -43 -13.5 -72.5t-38 -47.5t-60 -26t-78.5 -8q-54 0 -97 6.5t-63 11.5v77q20 -2 36.5 -4t31.5 -3t30.5 -1.5t33.5 -0.5q50 0 69 13.5t19 54.5q0 30 -17 40.5t-69 10.5h-131l23 252h310v-88h-208z" />
    <glyph glyph-name="six.numerator" horiz-adv-x="477" 
d="M402 664q-29 2 -69 4t-76 2q-29 0 -45.5 -4.5t-25 -14t-11 -24.5t-2.5 -35v-13q16 5 38.5 7t39.5 2q37 0 69.5 -5t55.5 -19.5t36.5 -40t13.5 -66.5v-15q0 -42 -15 -71t-40.5 -46.5t-59.5 -25t-73 -7.5q-104 0 -148 46t-44 144v87q0 44 8 79t30 60t59.5 38t97.5 13
q51 0 96 -6.5t65 -11.5v-77zM299 456q0 36 -15.5 47t-46.5 11q-12 0 -29.5 -1.5t-34.5 -5.5v-46q0 -26 4.5 -43t13 -27t20.5 -13.5t28 -3.5q26 0 43 15.5t17 52.5v14z" />
    <glyph glyph-name="seven.numerator" horiz-adv-x="448" 
d="M55 749h350v-96l-205 -351h-135l213 359h-223v88z" />
    <glyph glyph-name="eight.numerator" horiz-adv-x="492" 
d="M439 435q0 -48 -15.5 -76.5t-42.5 -43t-63 -19t-77 -4.5q-40 0 -75.5 4.5t-62 19t-42 43t-15.5 76.5q0 65 50 97q-23 16 -36 39.5t-13 62.5t15 63.5t41.5 38t62.5 18.5t78 5q41 0 76 -5t61 -19.5t41 -40t15 -66.5q0 -35 -13 -57.5t-36 -38.5q51 -32 51 -97zM314 437
q0 31 -10 45t-37 14h-50q-26 0 -36 -14t-10 -45q0 -41 19 -53t54 -12q32 0 51 12t19 53zM267 571q27 0 36 14t9 38q0 35 -18.5 45.5t-52.5 10.5q-32 0 -50.5 -10.5t-18.5 -45.5q0 -24 9 -38t36 -14h50z" />
    <glyph glyph-name="nine.numerator" horiz-adv-x="477" 
d="M70 386q28 -2 68.5 -4.5t79.5 -2.5q27 0 43.5 5t25 14.5t11 24.5t2.5 35v13q-16 -4 -39 -6t-39 -2q-38 0 -70 5t-55.5 19t-37 39.5t-13.5 66.5v16q0 42 15 70.5t40.5 46t60 25.5t73.5 8q104 0 147.5 -46.5t43.5 -144.5v-88q0 -43 -8 -78t-29.5 -59.5t-59 -37.5t-97.5 -13
q-25 0 -49.5 1.5t-46.5 4t-39 5.5t-27 6v77zM300 590q0 52 -17 69t-50 17q-26 0 -43 -15.5t-17 -51.5v-15q0 -35 15.5 -46t45.5 -11q13 0 31 1.5t35 4.5v47z" />
    <glyph glyph-name="comma.numerator" horiz-adv-x="257" 
d="M136 244h-94l52 163h114z" />
    <glyph glyph-name="period.numerator" horiz-adv-x="218" 
d="M50 376q0 11 5.5 17t12.5 9t13 3.5l6 0.5h81v-100h-118v70z" />
    <glyph glyph-name="cent.numerator" horiz-adv-x="405" 
d="M362 309q-13 -4 -35.5 -7t-47.5 -5v-79h-109v86q-60 15 -94.5 64t-34.5 142v39q0 176 129 206v81h109v-75q26 -1 48.5 -4.5t34.5 -6.5v-95q-23 2 -49.5 3t-49.5 1q-50 0 -69 -23.5t-19 -86.5v-39q0 -31 4 -52t14 -34t27 -18.5t43 -5.5q23 0 52.5 1.5t46.5 3.5v-96v0z" />
    <glyph glyph-name="dollar.numerator" horiz-adv-x="438" 
d="M52 394q23 -2 62 -4t85 -2q39 0 53.5 10.5t14.5 30.5q0 17 -11.5 26t-42.5 21l-61 24q-50 19 -81 49t-31 86q0 54 31 83.5t92 39.5v81h112v-78q34 -2 63.5 -6.5t43.5 -7.5v-84q-44 4 -84.5 6t-63.5 2q-32 0 -50.5 -7.5t-18.5 -27.5q0 -15 10.5 -24t41.5 -20l59 -21
q59 -21 88.5 -50.5t29.5 -84.5q0 -57 -31 -91t-88 -44v-83h-112v79q-33 2 -62 5.5t-49 7.5v84z" />
    <glyph glyph-name="hyphen.numerator" horiz-adv-x="247" 
d="M47 523q0 11 5.5 17t12.5 9t13 3.5l6 0.5h115v-88h-152v58z" />
    <glyph glyph-name="parenleft.numerator" horiz-adv-x="287" 
d="M134 228q-15 20 -29.5 47t-26 60.5t-18.5 72t-7 82.5v5q0 43 7 82.5t18.5 73t26 61t29.5 47.5h112q-31 -48 -53 -114.5t-22 -149.5v-5q0 -83 22 -148.5t53 -113.5h-112z" />
    <glyph glyph-name="parenright.numerator" horiz-adv-x="287" 
d="M234 490q0 -44 -7.5 -82.5t-19 -72t-26 -60.5t-29.5 -47h-111q31 48 53 113.5t22 148.5v5q0 83 -22 149.5t-53 114.5h111q15 -20 29.5 -47.5t26 -61t19 -73t7.5 -82.5v-5v0z" />
    <glyph glyph-name="parenleft.cap" horiz-adv-x="338" 
d="M166 0q-20 26 -40 64t-37 85.5t-27.5 103t-10.5 116.5v6q0 61 10.5 116t27.5 102t37 85t40 65h136q-45 -72 -73.5 -165.5t-28.5 -202.5v-6q0 -109 28 -201.5t74 -167.5h-136z" />
    <glyph glyph-name="parenright.cap" horiz-adv-x="338" 
d="M298 369q0 -61 -10.5 -116.5t-27 -103t-37 -85.5t-39.5 -64h-137q47 75 74.5 167.5t27.5 201.5v6q0 109 -28.5 202.5t-73.5 165.5h137q19 -27 39.5 -65t37 -85t27 -102t10.5 -116v-6v0z" />
    <glyph glyph-name="bracketleft.cap" horiz-adv-x="365" 
d="M67 0v743h254v-113h-103v-518h103v-112h-254z" />
    <glyph glyph-name="bracketright.cap" horiz-adv-x="365" 
d="M44 0v112h103v518h-103v113h254v-743h-254z" />
    <glyph glyph-name="braceleft.cap" horiz-adv-x="390" 
d="M296 0q-63 0 -103.5 8t-64 27t-32.5 50t-9 78v81q0 20 -3 33.5t-9 23t-15 17t-21 15.5v77q12 8 21 15t15 17t9 23.5t3 33.5v80q0 47 9 78.5t32.5 50.5t64 27t103.5 8h52v-114h-50q-20 0 -31.5 -1.5t-17.5 -6.5t-8 -15t-2 -27v-80q0 -26 -3.5 -45.5t-11 -34.5t-18.5 -26.5
t-27 -21.5q32 -21 46 -48t14 -79v-81q0 -17 2 -27t8 -15t17.5 -6.5t31.5 -1.5h50v-113h-52z" />
    <glyph glyph-name="braceright.cap" horiz-adv-x="390" 
d="M348 333q-13 -8 -22 -15.5t-15 -17t-8.5 -23t-2.5 -33.5v-81q0 -47 -9 -78t-33 -50t-64.5 -27t-103.5 -8h-51v113h50q19 0 30.5 1.5t17.5 6.5t8 15t2 27v81q0 52 14.5 79t46.5 48q-16 10 -27.5 21.5t-18.5 26.5t-10.5 34.5t-3.5 45.5v80q0 17 -2 27t-8 15t-18 6.5
t-31 1.5h-50v114h51q63 0 103.5 -8t64.5 -27t33 -50.5t9 -78.5v-80q0 -20 2.5 -33.5t8.5 -23.5t15 -17t22 -15v-77v0z" />
    <glyph glyph-name="exclamdown.cap" horiz-adv-x="330" 
d="M266 -36h-194l17 557h161zM258 744v-134v-31h-27h-152v135q1 8 5 15q4 5 11 10t21 5h142v-134v-31h-27h-152v135q1 8 5 15q4 5 11 10t21 5h142z" />
    <glyph glyph-name="questiondown.cap" horiz-adv-x="541" 
d="M292 -49q-118 0 -177.5 39.5t-59.5 127.5v8q0 25 5 47.5t17 45t32 46t50 51.5q35 34 55.5 58.5t31.5 43.5t14 36.5t3 38.5v26h151v-26q0 -32 -2 -57t-9.5 -49t-23 -48t-41.5 -52q-24 -26 -39 -44.5t-24 -34t-12.5 -28.5t-3.5 -26v-6q0 -35 23 -47t74 -12q35 0 76 2.5
t78 5.5v-114q-43 -15 -99.5 -23.5t-118.5 -8.5zM424 744v-134v-31h-21h-152v135q1 8 5 15q4 5 11 10t21 5h136v-134v-31h-21h-152v135q1 8 5 15q4 5 11 10t21 5h136z" />
    <glyph glyph-name="guillemotleft.cap" horiz-adv-x="773" 
d="M546 158l-154 222l154 221h180l-150 -221l150 -222h-180zM380 158h-180l-154 222l154 221h180l-150 -221z" />
    <glyph glyph-name="guillemotright.cap" horiz-adv-x="773" 
d="M573 158h-179l148 222l-148 221h179l154 -221zM381 380l-155 -222h-179l150 222l-150 221h179z" />
    <glyph glyph-name="guilsinglleft.cap" horiz-adv-x="425" 
d="M198 158l-152 222l152 221h180l-148 -221l148 -222h-180z" />
    <glyph glyph-name="guilsinglright.cap" horiz-adv-x="425" 
d="M46 158l148 222l-148 221h180l152 -221l-152 -222h-180z" />
    <glyph glyph-name="hyphen.cap" horiz-adv-x="357" 
d="M57 332v108h242v-108h-242z" />
    <glyph glyph-name="endash.cap" horiz-adv-x="454" 
d="M57 332v108h339v-108h-339z" />
    <glyph glyph-name="emdash.cap" horiz-adv-x="624" 
d="M57 332v108h509v-108h-509z" />
    <glyph glyph-name="periodcentered.cap" horiz-adv-x="302" 
d="M72 436q0 11 5.5 17t12.5 9t13 3.5l6 0.5h123v-165h-160v135z" />
    <glyph glyph-name="at.cap" horiz-adv-x="884" 
d="M837 461q0 -71 -19.5 -130.5t-64 -102.5t-117.5 -67t-180 -24q-119 0 -174.5 36.5t-55.5 123.5q0 17 1.5 40t3.5 41q12 113 68 160t155 47q51 0 97.5 -6.5t84.5 -15.5l-33 -316q72 19 105 74.5t33 140.5q0 113 -67.5 167.5t-195.5 54.5q-138 0 -217.5 -71.5
t-107.5 -214.5q-6 -30 -9.5 -63.5t-3.5 -68.5q0 -57 15 -98.5t47.5 -68.5t83.5 -40t122 -13q28 0 58 1t56 2.5t46 3t29 2.5v-60q-10 -2 -30 -4.5t-46 -5t-55 -4.5t-57 -2q-187 0 -275.5 72t-88.5 215q0 39 4 77t11 70q69 344 425 344q81 0 146 -19t111 -56t70.5 -92.5
t24.5 -128.5zM495 485q-10 2 -23 2.5t-24 0.5q-19 0 -34 -4.5t-26.5 -17t-19 -36t-10.5 -61.5q-2 -27 -3 -44t-1 -29q0 -39 18.5 -53.5t63.5 -14.5h17t17 1z" />
    <glyph glyph-name="T_h" horiz-adv-x="4572" 
 />
    <glyph glyph-name="A.alt" horiz-adv-x="748" 
d="M196 611l-52 6v126h374l209 -743h-196l-53 187h-211l-54 -187h-192zM399 518q-7 27 -12.5 56t-10.5 58h-7l-10 -58t-13 -56l-53 -197h160z" />
    <glyph glyph-name="B.alt" horiz-adv-x="711" 
d="M73 610l-47 6v127q81 5 154.5 7t133.5 2q82 0 146.5 -9t108.5 -32t67.5 -63.5t23.5 -104.5v-9q0 -48 -20.5 -89t-66.5 -64q50 -23 70.5 -65t20.5 -87v-11q0 -71 -26 -115.5t-72.5 -69t-111 -33.5t-142.5 -9q-32 0 -59.5 0.5t-55 1.5t-57.5 3t-67 4v610zM483 230
q0 22 -6 39.5t-20 29.5t-38.5 18t-61.5 6h-104v-197q20 -1 36.5 -1h37.5q40 0 69 3.5t48.5 14t29 28.5t9.5 48v11zM481 536q0 27 -9.5 43.5t-29 25t-48 11t-65.5 2.5h-37.5t-38.5 -1v-179h103q38 0 62.5 6t38.5 17.5t19 28t5 38.5v8z" />
    <glyph glyph-name="C.alt" horiz-adv-x="616" 
d="M584 3q-14 -3 -38.5 -6.5t-53 -6.5t-57.5 -5t-52 -2q-80 0 -142 16.5t-104.5 56t-65 106t-22.5 167.5v86q0 100 22.5 166.5t65 106t104.5 55.5t142 16q23 0 52 -2t57.5 -5t53 -6.5t38.5 -7.5v-185h-115l-9 59q-14 1 -29 1.5t-30 0.5q-41 0 -72 -8.5t-51 -30.5t-30 -60.5
t-10 -99.5v-86q0 -61 10 -100t30.5 -61.5t51 -31t72.5 -8.5q47 0 97 2.5t85 4.5v-132z" />
    <glyph glyph-name="D.alt" horiz-adv-x="738" 
d="M73 611l-50 8v124q72 5 150.5 7t155.5 2q187 0 273.5 -82.5t86.5 -257.5v-77q0 -89 -20.5 -154t-64 -107t-111.5 -62.5t-164 -20.5q-36 0 -67 0.5t-61 1.5t-61 2.5t-67 4.5v611zM505 412q0 59 -9.5 97.5t-30.5 61t-54 31.5t-80 9h-76v-480h76q47 0 80 9.5t54 33t30.5 63
t9.5 98.5v77z" />
    <glyph glyph-name="E.alt" horiz-adv-x="628" 
d="M260 607v-162h298v-129h-298v-181h319v-135h-506v612l-46 5v126h552v-136h-319z" />
    <glyph glyph-name="F.alt" horiz-adv-x="619" 
d="M73 612l-47 5v126h554v-137h-320v-162h298v-129h-298v-315h-187v612z" />
    <glyph glyph-name="G.alt" horiz-adv-x="705" 
d="M644 7q-20 -4 -48.5 -8t-63 -7.5t-74 -6t-81.5 -2.5q-66 0 -125.5 14t-104.5 52.5t-71.5 105.5t-26.5 173v88q0 74 13.5 128.5t36.5 92.5t55 62t69 37.5t77 18t81 4.5t82 -3t76 -7t62 -9t40 -8v-179h-113l-10 58q-21 1 -49 2t-53 1q-44 0 -77.5 -6.5t-57 -27.5t-35.5 -60
t-12 -104v-88q0 -60 9 -98.5t28 -61t47 -31.5t67 -9h45t40 2v157l-79 8v106h253v-394v0z" />
    <glyph glyph-name="H.alt" horiz-adv-x="800" 
d="M540 0v313h-279v-313h-188v612l-47 5v126h235v-288h279v288h187v-743h-187z" />
    <glyph glyph-name="I.alt" horiz-adv-x="345" 
d="M32 0v126l47 4v482l-47 5v126h281v-126l-47 -5v-482l47 -4v-126h-281z" />
    <glyph glyph-name="J.alt" horiz-adv-x="345" 
d="M266 612v-635q0 -103 -47.5 -147.5t-150.5 -44.5q-25 0 -53.5 2.5t-45.5 6.5v112h53q38 0 47.5 14.5t9.5 49.5v642l-47 5v126h281v-126z" />
    <glyph glyph-name="K.alt" horiz-adv-x="738" 
d="M505 0l-241 345v-345h-188v612l-46 5v126h234v-344l254 344h216l-277 -367l274 -376h-226z" />
    <glyph glyph-name="M.alt" horiz-adv-x="896" 
d="M643 0v369q0 33 1 61t3 60h-2q-11 -26 -23.5 -49.5t-24.5 -45.5l-95 -174h-109l-93 174q-12 22 -24.5 46.5t-23.5 48.5h-2q2 -32 2.5 -60t0.5 -61v-369h-180v612l-47 5v126h230l144 -264q12 -21 23.5 -44.5t22.5 -46.5h2q11 23 23 47t24 45l145 263h183v-743h-180z" />
    <glyph glyph-name="N.alt" horiz-adv-x="776" 
d="M509 0l-215 386q-14 24 -27.5 50.5t-24.5 51.5h-2q1 -29 2 -59.5t1 -60.5v-368h-170v612l-47 5v126h238l217 -379q14 -24 28 -52t25 -53h2q-2 26 -2.5 59.5t-0.5 67.5v357h170v-743h-194z" />
    <glyph glyph-name="P.alt" horiz-adv-x="691" 
d="M73 0v612l-47 5v126q67 5 140.5 7t144.5 2q72 0 136 -9t111 -35t74.5 -73.5t27.5 -124.5v-10q0 -78 -27 -126t-73 -75t-105.5 -36t-125.5 -9h-17.5h-15.5t-18 0.5t-25 0.5v-255h-180zM324 395q39 0 68 4.5t48.5 16t29 32t9.5 52.5v10q0 32 -10 52t-29.5 31t-48 15
t-67.5 4q-20 0 -40.5 -0.5t-30.5 -0.5v-216h71z" />
    <glyph glyph-name="Q.alt" horiz-adv-x="745" 
d="M696 331q0 -78 -17 -137t-48 -101t-75 -67t-99 -35v-178h-173v180q-54 10 -97.5 35t-74 66.5t-47 100.5t-16.5 136v79q0 95 24 161.5t67 108t102 60.5t130 19t130.5 -19t102.5 -60.5t67 -108t24 -161.5v-79zM512 411q0 58 -9.5 97t-27.5 62.5t-44 33.5t-59 10t-58.5 -10
t-43.5 -33.5t-27.5 -62.5t-9.5 -97v-80q0 -58 9.5 -97t27.5 -62.5t43.5 -33.5t58.5 -10t59 10t44 33.5t27.5 62.5t9.5 97v80z" />
    <glyph glyph-name="R.alt" 
d="M516 0l-147 265h-116v-265h-180v612l-47 5v126q53 3 128 6t159 3q70 0 132.5 -9t110 -34.5t75 -73t27.5 -123.5v-7q0 -83 -31 -130.5t-87 -74.5l164 -300h-188zM477 509q0 31 -9 51.5t-28.5 31.5t-49.5 15.5t-71 4.5h-17.5h-13.5t-15 -0.5t-20 -0.5v-216h68
q83 0 119.5 23t36.5 84v7z" />
    <glyph glyph-name="S.alt" horiz-adv-x="646" 
d="M65 128q54 -4 110.5 -7.5t124.5 -3.5q60 0 87 19.5t27 61.5q0 16 -4 27.5t-13.5 21.5t-26.5 19.5t-43 20.5l-108 46q-40 17 -72 36.5t-54.5 45t-34.5 59.5t-12 80q0 110 74.5 157.5t215.5 47.5q37 0 73 -2.5t68 -6.5t57.5 -8t42.5 -8v-168h-113l-12 57q-26 2 -54 2.5
t-52 0.5q-57 0 -86.5 -14t-29.5 -52q0 -14 3.5 -24.5t13 -19.5t25.5 -18t42 -19l105 -44q49 -21 83.5 -42.5t56.5 -48t31.5 -59.5t9.5 -77q0 -116 -73.5 -170.5t-204.5 -54.5q-39 0 -77.5 2t-72.5 5.5t-61.5 7.5t-45.5 9v121z" />
    <glyph glyph-name="U.alt" horiz-adv-x="763" 
d="M695 301q0 -161 -81.5 -239.5t-231.5 -78.5t-232 78.5t-82 239.5v312l-47 4v126h232v-437q0 -50 6 -84.5t20.5 -56t39.5 -31.5t63 -10t63 10t40 31.5t21 56t6 84.5v437h183v-442v0z" />
    <glyph glyph-name="Z.alt" horiz-adv-x="658" 
d="M607 0h-556v142l331 462h-204l-9 -53h-109v192h538v-144l-330 -460h339v-139z" />
    <glyph glyph-name="a.alt" horiz-adv-x="609" 
d="M388 0v37q-28 -19 -75 -35.5t-104 -16.5q-81 0 -124 41t-43 122v23q0 57 20.5 90.5t57.5 51.5t88 23t112 5h53v31q0 26 -4 42.5t-15 25.5t-31.5 12.5t-54.5 3.5h-31t-32 -1l-9 -45h-112v140q12 4 34.5 10.5t51.5 11.5t63.5 9t70.5 4q67 0 113 -11.5t75 -37t42 -66
t13 -98.5v-372h-159zM379 251h-58q-30 0 -51 -2.5t-35 -10t-20.5 -22.5t-6.5 -39v-23q0 -34 18 -46t47 -12q34 0 63.5 9.5t42.5 17.5v128z" />
    <glyph glyph-name="b.alt" horiz-adv-x="653" 
d="M606 256q0 -74 -18.5 -125.5t-54.5 -84t-89.5 -47t-124.5 -14.5q-30 0 -57.5 1t-57 2.5t-62.5 4.5t-74 8v650l-45 5v123h220v-214q25 11 55 16t61 5q128 0 187.5 -63t59.5 -197v-70zM433 327q0 36 -5 60t-16 39t-30 21t-47 6q-16 0 -44.5 -3.5t-49.5 -13.5v-315
q14 -1 34.5 -2t45.5 -1q30 0 51 6t34.5 22t20 43t6.5 68v70z" />
    <glyph glyph-name="c.alt" horiz-adv-x="533" 
d="M492 7q-25 -6 -73.5 -14t-117.5 -8q-132 0 -193 67.5t-61 200.5v64q0 136 61 202t193 66q69 0 120.5 -8t70.5 -14v-157h-108l-9 44q-11 1 -24 1.5t-21 0.5q-27 0 -47.5 -5.5t-34.5 -20t-21 -41t-7 -68.5v-64q0 -42 7.5 -68.5t21.5 -41.5t35.5 -20.5t49.5 -5.5q25 0 63 2
t95 6v-118v0z" />
    <glyph glyph-name="d.alt" horiz-adv-x="656" 
d="M426 0v29q-29 -18 -69.5 -31t-91.5 -13q-103 0 -159.5 63.5t-56.5 198.5v70q0 75 18 126t51.5 82.5t81.5 45.5t108 14q31 0 56 -2.5t49 -6.5v94l-50 5v104h224v-779h-161zM415 446q-23 4 -46 6t-40 2q-27 0 -46.5 -5t-33 -20t-20 -42t-6.5 -70v-70q0 -72 21.5 -101
t76.5 -29q25 0 48.5 5.5t45.5 14.5v309z" />
    <glyph glyph-name="g.alt" horiz-adv-x="629" 
d="M596 -33q0 -100 -74.5 -142t-211.5 -42q-136 0 -206 41.5t-70 137.5q0 30 13 60.5t39 53.5q-23 16 -33.5 36.5t-10.5 43.5q0 32 16 57t45 43q-47 44 -47 133q0 42 10.5 78t39 62.5t79.5 41t132 14.5h281v-87l-49 -13q8 -11 17.5 -35t9.5 -61q0 -54 -18.5 -91.5
t-52.5 -60.5t-82.5 -33t-107.5 -10q-32 0 -61 3.5t-52 10.5q-10 -8 -16.5 -17.5t-6.5 -21.5q0 -16 11.5 -21.5t34.5 -5.5h86q70 0 123.5 -6.5t89.5 -25t54 -53t18 -90.5zM429 -37q0 21 -5 35t-18 22.5t-36 11.5t-59 3h-90q-11 -11 -17.5 -29.5t-6.5 -41.5q0 -20 4.5 -34.5
t17.5 -24t35 -14t57 -4.5q68 0 93 18.5t25 57.5zM411 389q0 21 -3.5 37t-14 27t-29.5 16.5t-49 5.5t-48.5 -6t-28.5 -17t-13 -27t-3 -36q0 -21 3.5 -37t13.5 -27t28.5 -16.5t47.5 -5.5q30 0 49 5.5t29.5 16.5t14 27t3.5 37z" />
    <glyph glyph-name="h.alt" horiz-adv-x="673" 
d="M432 0v359q0 55 -16.5 75t-58.5 20q-33 0 -64 -9t-51 -18v-427h-174v651l-45 5v123h219v-234q33 17 78 28.5t93 11.5q59 0 96.5 -16.5t59 -46t29.5 -71t8 -90.5v-361h-174z" />
    <glyph glyph-name="i.alt" horiz-adv-x="318" 
d="M72 0v441l-46 6v123h220v-570h-174zM69 749q0 11 5.5 17t12.5 9t13 3.5l6 0.5h144v-131h-181v101z" />
    <glyph glyph-name="j.alt" horiz-adv-x="318" 
d="M246 -35q0 -52 -10 -87t-32.5 -56.5t-57.5 -30.5t-84 -9q-30 0 -58 2.5t-40 5.5v110q14 0 28 -0.5t28 -0.5q34 0 43 14t9 52v477l-46 5v123h220v-605zM69 749q0 11 5.5 17t12.5 9t13 3.5l6 0.5h144v-131h-181v101z" />
    <glyph glyph-name="k.alt" horiz-adv-x="624" 
d="M418 0l-176 264v-264h-174v651l-45 5v123h219v-461l179 252h186l-198 -274l206 -296h-197z" />
    <glyph glyph-name="l.alt" horiz-adv-x="317" 
d="M72 0v651l-46 5v123h220v-779h-174z" />
    <glyph glyph-name="m.alt" horiz-adv-x="962" 
d="M723 0v371q0 20 -1 36t-7 26.5t-18 16t-34 5.5q-20 0 -46 -7.5t-50 -20.5q2 -14 2.5 -28t0.5 -28v-371h-174v371q0 20 -1 36t-6.5 26.5t-17 16t-31.5 5.5q-25 0 -51 -9t-47 -20v-426h-174v442l-45 5v123h209v-45q35 28 79.5 44t92.5 16q53 0 84.5 -16.5t50.5 -45.5
q48 33 94 47.5t86 14.5q59 0 94 -17t54 -46t24.5 -67t5.5 -80v-375h-174z" />
    <glyph glyph-name="n.alt" horiz-adv-x="671" 
d="M432 0v361q0 52 -13.5 72.5t-54.5 20.5q-24 0 -55.5 -9t-66.5 -23v-422h-174v441l-45 6v123h209v-46q44 27 91 44t96 17q64 0 101.5 -17.5t56.5 -48t24 -71.5t5 -87v-361h-174z" />
    <glyph glyph-name="p.alt" horiz-adv-x="654" 
d="M68 -203v645l-45 5v123h206v-36q40 27 83.5 39t85.5 12q48 0 86.5 -14t66 -46t42 -84t14.5 -127v-51q0 -78 -18.5 -131t-53 -85.5t-83.5 -46.5t-110 -14q-25 0 -53.5 2.5t-46.5 6.5v-198h-174zM433 314q0 41 -5.5 67.5t-16.5 42.5t-28.5 22t-42.5 6q-22 0 -45 -5t-55 -19
v-303q23 -4 44.5 -6.5t41.5 -2.5q27 0 47 5.5t33.5 21.5t20 45t6.5 75v51z" />
    <glyph glyph-name="r.alt" horiz-adv-x="435" 
d="M68 0v442l-45 5v123h207v-47q42 38 91.5 50t96.5 12v-146q-48 0 -95 -7.5t-81 -18.5v-413h-174z" />
    <glyph glyph-name="s.alt" horiz-adv-x="543" 
d="M51 114q36 -4 88.5 -7.5t106.5 -3.5q53 0 73 12.5t20 38.5q0 13 -4 21t-14 15t-27.5 14t-44.5 18l-46 17q-40 15 -70 32.5t-50.5 39.5t-30.5 49.5t-10 62.5q0 47 16 78t46.5 50t74 26.5t98.5 7.5q31 0 63 -2t60.5 -5.5t51 -7.5t36.5 -8v-137h-113l-10 36q-17 1 -37.5 1.5
t-34.5 0.5q-42 0 -63 -5t-21 -31q0 -11 3.5 -18.5t12.5 -14t24 -12.5t38 -15l51 -19q47 -18 79.5 -35.5t52.5 -38.5t28.5 -48.5t8.5 -65.5q0 -174 -252 -174q-30 0 -61 2t-59 5.5t-50 7.5t-34 7v106z" />
    <glyph glyph-name="u.alt" horiz-adv-x="673" 
d="M605 570v-570h-164v46q-45 -26 -94 -43.5t-106 -17.5q-59 0 -93.5 19t-52.5 50t-23 71.5t-5 83.5v233l-46 5v123h220v-361q0 -52 13 -72.5t55 -20.5q25 0 56 9t66 23v422h174z" />
    <glyph glyph-name="y.alt" horiz-adv-x="673" 
d="M605 -15q0 -48 -12.5 -85t-43.5 -63t-82.5 -39.5t-129.5 -13.5q-41 0 -80.5 3t-72 6.5t-55 7.5t-29.5 6v104q24 -1 52.5 -2.5t57.5 -2.5t57.5 -2t54.5 -1q37 0 58.5 5t32.5 15t14.5 25.5t3.5 36.5v19q-14 -2 -41 -5t-50 -3q-131 0 -202 62.5t-71 202.5l1 309h172v-309
q0 -74 25.5 -104t87.5 -30q23 0 46.5 1.5t32.5 3.5v438h173v-585v0z" />
    <glyph glyph-name="z.alt" horiz-adv-x="548" 
d="M505 0h-465v128l269 317h-153l-8 -39h-99v164h455v-130l-267 -317h268v-123z" />
    <glyph glyph-name="a.alt2" horiz-adv-x="654" 
d="M424 0v29q-31 -20 -70 -31.5t-91 -11.5q-102 0 -159 63.5t-57 197.5v70q0 76 17 127.5t53 83t91.5 44.5t131.5 13q50 0 115.5 -3.5t130.5 -11.5v-570h-162zM413 450q-22 2 -47 3t-37 1q-27 0 -47.5 -5t-34 -20t-20 -42t-6.5 -70v-70q0 -72 22 -101t76 -29q26 0 50 6
t44 14v313z" />
    <glyph glyph-name="u.alt2" horiz-adv-x="672" 
d="M605 264q0 -145 -66.5 -212t-203.5 -67q-134 0 -201 67t-67 212v306h174v-306q0 -80 20.5 -113.5t73.5 -33.5q54 0 75 33.5t21 113.5v306h174v-306v0z" />
    <glyph glyph-name="Aacute.alt" horiz-adv-x="748" 
d="M419 789h-163l132 146h198zM196 611l-52 6v126h374l209 -743h-196l-53 187h-211l-54 -187h-192zM399 518q-7 27 -12.5 56t-10.5 58h-7l-10 -58t-13 -56l-53 -197h160z" />
    <glyph glyph-name="Acircumflex.alt" horiz-adv-x="748" 
d="M460 789l-87 82l-86 -82h-153l135 146h209l134 -146h-152zM196 611l-52 6v126h374l209 -743h-196l-53 187h-211l-54 -187h-192zM399 518q-7 27 -12.5 56t-10.5 58h-7l-10 -58t-13 -56l-53 -197h160z" />
    <glyph glyph-name="Adieresis.alt" horiz-adv-x="748" 
d="M196 611l-52 6v126h374l209 -743h-196l-53 187h-211l-54 -187h-192zM399 518q-7 27 -12.5 56t-10.5 58h-7l-10 -58t-13 -56l-53 -197h160zM175 898q0 11 5.5 17t12.5 9t13 3.5l6 0.5h104v-127h-141v97zM430 898v30h141v-127h-141v97z" />
    <glyph glyph-name="Agrave.alt" horiz-adv-x="748" 
d="M314 789l-167 146h198l131 -146h-162zM196 611l-52 6v126h374l209 -743h-196l-53 187h-211l-54 -187h-192zM399 518q-7 27 -12.5 56t-10.5 58h-7l-10 -58t-13 -56l-53 -197h160z" />
    <glyph glyph-name="Aring.alt" horiz-adv-x="748" 
d="M516 901q0 -60 -40 -91t-102 -31t-102.5 31t-40.5 91q0 30 11 52.5t30 38t45 23.5t57 8q62 0 102 -31t40 -91zM429 901q0 26 -15.5 37t-39.5 11t-39.5 -11t-15.5 -37q0 -25 15.5 -36.5t39.5 -11.5t39.5 11.5t15.5 36.5zM196 611l-52 6v126h374l209 -743h-196l-53 187
h-211l-54 -187h-192zM399 518q-7 27 -12.5 56t-10.5 58h-7l-10 -58t-13 -56l-53 -197h160z" />
    <glyph glyph-name="Atilde.alt" horiz-adv-x="748" 
d="M600 923q0 -76 -33.5 -107.5t-84.5 -31.5q-23 0 -48.5 7t-56.5 24l-47 26q-17 10 -29 15t-25 5q-19 0 -25 -12t-6 -35v-25h-99v25q0 37 9 63.5t25.5 43t39 24t49.5 7.5q25 0 46.5 -6t51.5 -23l48 -26q17 -9 30 -15t27 -6q19 0 25 11.5t6 35.5v24h97v-24zM196 611l-52 6
v126h374l209 -743h-196l-53 187h-211l-54 -187h-192zM399 518q-7 27 -12.5 56t-10.5 58h-7l-10 -58t-13 -56l-53 -197h160z" />
    <glyph glyph-name="Ccedilla.alt" horiz-adv-x="616" 
d="M324 -203h-160l106 140h185zM584 3q-14 -3 -38.5 -6.5t-53 -6.5t-57.5 -5t-52 -2q-80 0 -142 16.5t-104.5 56t-65 106t-22.5 167.5v86q0 100 22.5 166.5t65 106t104.5 55.5t142 16q23 0 52 -2t57.5 -5t53 -6.5t38.5 -7.5v-185h-115l-9 59q-14 1 -29 1.5t-30 0.5
q-41 0 -72 -8.5t-51 -30.5t-30 -60.5t-10 -99.5v-86q0 -61 10 -100t30.5 -61.5t51 -31t72.5 -8.5q47 0 97 2.5t85 4.5v-132z" />
    <glyph glyph-name="Eacute.alt" horiz-adv-x="628" 
d="M387 789h-163l132 146h197zM260 607v-162h298v-129h-298v-181h319v-135h-506v612l-46 5v126h552v-136h-319z" />
    <glyph glyph-name="Ecircumflex.alt" horiz-adv-x="628" 
d="M409 789l-86 82l-87 -82h-152l135 146h208l135 -146h-153zM260 607v-162h298v-129h-298v-181h319v-135h-506v612l-46 5v126h552v-136h-319z" />
    <glyph glyph-name="Edieresis.alt" horiz-adv-x="628" 
d="M260 607v-162h298v-129h-298v-181h319v-135h-506v612l-46 5v126h552v-136h-319zM130 897q0 11 5.5 17t12.5 9t13 3.5l6 0.5h104v-127h-141v97zM385 897v30h141v-127h-141v97z" />
    <glyph glyph-name="Egrave.alt" horiz-adv-x="628" 
d="M261 789l-167 146h198l131 -146h-162zM260 607v-162h298v-129h-298v-181h319v-135h-506v612l-46 5v126h552v-136h-319z" />
    <glyph glyph-name="Eth.alt" horiz-adv-x="738" 
d="M689 335q0 -89 -20.5 -154t-64 -107t-111.5 -62.5t-164 -20.5q-66 0 -128.5 2t-127.5 7v318h-50v126h50v167l-50 8v124q73 5 152 7t154 2q187 0 273.5 -82.5t86.5 -257.5v-77zM255 131h76q47 0 80 9.5t54 33t30.5 63t9.5 98.5v77q0 59 -9.5 97.5t-30.5 61t-54 31.5t-80 9
h-76v-167h110v-126h-110v-187z" />
    <glyph glyph-name="Iacute.alt" horiz-adv-x="345" 
d="M226 789h-163l132 146h197zM32 0v126l47 4v482l-47 5v126h281v-126l-47 -5v-482l47 -4v-126h-281z" />
    <glyph glyph-name="Icircumflex.alt" horiz-adv-x="345" 
d="M261 789l-86 82l-87 -82h-152l135 146h208l135 -146h-153zM32 0v126l47 4v482l-47 5v126h281v-126l-47 -5v-482l47 -4v-126h-281z" />
    <glyph glyph-name="Idieresis.alt" horiz-adv-x="345" 
d="M32 0v126l47 4v482l-47 5v126h281v-126l-47 -5v-482l47 -4v-126h-281zM-31 897q0 11 5.5 17t12.5 9t13 3.5l6 0.5h104v-127h-141v97zM224 897v30h141v-127h-141v97z" />
    <glyph glyph-name="Igrave.alt" horiz-adv-x="345" 
d="M126 789l-167 146h198l131 -146h-162zM32 0v126l47 4v482l-47 5v126h281v-126l-47 -5v-482l47 -4v-126h-281z" />
    <glyph glyph-name="Ntilde.alt" horiz-adv-x="776" 
d="M613 923q0 -38 -9 -64.5t-24.5 -43t-37.5 -24t-48 -7.5q-23 0 -48 7t-57 24l-47 26q-17 10 -29 15t-25 5q-18 0 -24.5 -12t-6.5 -35v-25h-99v25q0 37 9.5 63.5t26 43t39 24t48.5 7.5t47 -6t52 -23l47 -26q17 -9 30 -15t27 -6q19 0 25 11.5t6 35.5v24h98v-24zM509 0
l-215 386q-14 24 -27.5 50.5t-24.5 51.5h-2q1 -29 2 -59.5t1 -60.5v-368h-170v612l-47 5v126h238l217 -379q14 -24 28 -52t25 -53h2q-2 26 -2.5 59.5t-0.5 67.5v357h170v-743h-194z" />
    <glyph glyph-name="Scaron.alt" horiz-adv-x="646" 
d="M241 935l86 -82l87 82h152l-134 -146h-209l-135 146h153zM65 128q54 -4 110.5 -7.5t124.5 -3.5q60 0 87 19.5t27 61.5q0 16 -4 27.5t-13.5 21.5t-26.5 19.5t-43 20.5l-108 46q-40 17 -72 36.5t-54.5 45t-34.5 59.5t-12 80q0 110 74.5 157.5t215.5 47.5q37 0 73 -2.5
t68 -6.5t57.5 -8t42.5 -8v-168h-113l-12 57q-26 2 -54 2.5t-52 0.5q-57 0 -86.5 -14t-29.5 -52q0 -14 3.5 -24.5t13 -19.5t25.5 -18t42 -19l105 -44q49 -21 83.5 -42.5t56.5 -48t31.5 -59.5t9.5 -77q0 -116 -73.5 -170.5t-204.5 -54.5q-39 0 -77.5 2t-72.5 5.5t-61.5 7.5
t-45.5 9v121z" />
    <glyph glyph-name="Uacute.alt" horiz-adv-x="763" 
d="M445 789h-163l132 146h198zM695 301q0 -161 -81.5 -239.5t-231.5 -78.5t-232 78.5t-82 239.5v312l-47 4v126h232v-437q0 -50 6 -84.5t20.5 -56t39.5 -31.5t63 -10t63 10t40 31.5t21 56t6 84.5v437h183v-442z" />
    <glyph glyph-name="Ucircumflex.alt" horiz-adv-x="763" 
d="M468 789l-87 82l-86 -82h-153l135 146h209l134 -146h-152zM695 301q0 -161 -81.5 -239.5t-231.5 -78.5t-232 78.5t-82 239.5v312l-47 4v126h232v-437q0 -50 6 -84.5t20.5 -56t39.5 -31.5t63 -10t63 10t40 31.5t21 56t6 84.5v437h183v-442z" />
    <glyph glyph-name="Udieresis.alt" horiz-adv-x="763" 
d="M695 301q0 -161 -81.5 -239.5t-231.5 -78.5t-232 78.5t-82 239.5v312l-47 4v126h232v-437q0 -50 6 -84.5t20.5 -56t39.5 -31.5t63 -10t63 10t40 31.5t21 56t6 84.5v437h183v-442zM580 917v-96v-31h-27h-114v97q1 8 5 15q4 5 11 10t21 5h104v-96v-31h-27h-114v97q1 8 5 15
q4 5 11 10t21 5h104zM325 917v-96v-31h-27h-114v97q1 8 5 15q4 5 11 10t21 5h104v-96v-31h-27h-114v97q1 8 5 15q4 5 11 10t21 5h104z" />
    <glyph glyph-name="Ugrave.alt" horiz-adv-x="763" 
d="M313 789l-166 146h197l132 -146h-163zM695 301q0 -161 -81.5 -239.5t-231.5 -78.5t-232 78.5t-82 239.5v312l-47 4v126h232v-437q0 -50 6 -84.5t20.5 -56t39.5 -31.5t63 -10t63 10t40 31.5t21 56t6 84.5v437h183v-442z" />
    <glyph glyph-name="Zcaron.alt" horiz-adv-x="658" 
d="M249 935l87 -82l86 82h153l-135 -146h-208l-135 146h152zM607 0h-556v142l331 462h-204l-9 -53h-109v192h538v-144l-330 -460h339v-139z" />
    <glyph glyph-name="aacute.alt" horiz-adv-x="609" 
d="M372 631h-162l131 146h198zM388 0v37q-28 -19 -75 -35.5t-104 -16.5q-81 0 -124 41t-43 122v23q0 57 20.5 90.5t57.5 51.5t88 23t112 5h53v31q0 26 -4 42.5t-15 25.5t-31.5 12.5t-54.5 3.5h-31t-32 -1l-9 -45h-112v140q12 4 34.5 10.5t51.5 11.5t63.5 9t70.5 4
q67 0 113 -11.5t75 -37t42 -66t13 -98.5v-372h-159zM379 251h-58q-30 0 -51 -2.5t-35 -10t-20.5 -22.5t-6.5 -39v-23q0 -34 18 -46t47 -12q34 0 63.5 9.5t42.5 17.5v128z" />
    <glyph glyph-name="acircumflex.alt" horiz-adv-x="609" 
d="M406 631l-87 82l-86 -82h-153l135 146h208l135 -146h-152zM388 0v37q-28 -19 -75 -35.5t-104 -16.5q-81 0 -124 41t-43 122v23q0 57 20.5 90.5t57.5 51.5t88 23t112 5h53v31q0 26 -4 42.5t-15 25.5t-31.5 12.5t-54.5 3.5h-31t-32 -1l-9 -45h-112v140q12 4 34.5 10.5
t51.5 11.5t63.5 9t70.5 4q67 0 113 -11.5t75 -37t42 -66t13 -98.5v-372h-159zM379 251h-58q-30 0 -51 -2.5t-35 -10t-20.5 -22.5t-6.5 -39v-23q0 -34 18 -46t47 -12q34 0 63.5 9.5t42.5 17.5v128z" />
    <glyph glyph-name="adieresis.alt" horiz-adv-x="609" 
d="M388 0v37q-28 -19 -75 -35.5t-104 -16.5q-81 0 -124 41t-43 122v23q0 57 20.5 90.5t57.5 51.5t88 23t112 5h53v31q0 26 -4 42.5t-15 25.5t-31.5 12.5t-54.5 3.5h-31t-32 -1l-9 -45h-112v140q12 4 34.5 10.5t51.5 11.5t63.5 9t70.5 4q67 0 113 -11.5t75 -37t42 -66
t13 -98.5v-372h-159zM379 251h-58q-30 0 -51 -2.5t-35 -10t-20.5 -22.5t-6.5 -39v-23q0 -34 18 -46t47 -12q34 0 63.5 9.5t42.5 17.5v128zM110 742q0 11 5.5 17t12.5 9t13 3.5l6 0.5h104v-127h-141v97zM365 742v30h141v-127h-141v97z" />
    <glyph glyph-name="agrave.alt" horiz-adv-x="609" 
d="M271 631l-167 146h198l131 -146h-162zM388 0v37q-28 -19 -75 -35.5t-104 -16.5q-81 0 -124 41t-43 122v23q0 57 20.5 90.5t57.5 51.5t88 23t112 5h53v31q0 26 -4 42.5t-15 25.5t-31.5 12.5t-54.5 3.5h-31t-32 -1l-9 -45h-112v140q12 4 34.5 10.5t51.5 11.5t63.5 9t70.5 4
q67 0 113 -11.5t75 -37t42 -66t13 -98.5v-372h-159zM379 251h-58q-30 0 -51 -2.5t-35 -10t-20.5 -22.5t-6.5 -39v-23q0 -34 18 -46t47 -12q34 0 63.5 9.5t42.5 17.5v128z" />
    <glyph glyph-name="ampersand.alt" horiz-adv-x="831" 
d="M603 0l-41 38q-34 -23 -89.5 -38.5t-134.5 -15.5q-59 0 -110.5 9.5t-90 32t-60.5 61t-22 97.5v5q0 65 32 112.5t111 87.5l-11 10q-47 46 -71.5 85t-24.5 90v9q0 93 67.5 134.5t198.5 41.5q132 0 196.5 -41t64.5 -135v-9q0 -30 -7.5 -57t-28 -52.5t-56.5 -51t-92 -52.5
l142 -134q14 31 19 65.5t5 71.5v16h135v-16q0 -56 -11 -116.5t-48 -114.5l103 -98v-35h-176zM304 289q-38 -20 -53.5 -44.5t-15.5 -56.5v-5q0 -24 9.5 -40t25.5 -26t38 -14.5t46 -4.5q74 0 117 29zM442 571q0 35 -21.5 46.5t-62.5 11.5t-65 -11.5t-24 -46.5v-7
q0 -15 2.5 -26t9.5 -22.5t19.5 -25t32.5 -31.5l12 -11q31 18 50 33t29.5 28t14 26.5t3.5 28.5v7z" />
    <glyph glyph-name="aring.alt" horiz-adv-x="609" 
d="M460 738q0 -60 -40 -90.5t-101 -30.5q-31 0 -57 8t-45.5 23t-30.5 37.5t-11 52.5t11 53t30.5 38t45.5 23t57 8q61 0 101 -31t40 -91zM374 739q0 26 -16 37t-39 11q-25 0 -40.5 -11t-15.5 -37t15.5 -37t40.5 -11q23 0 39 11t16 37zM388 0v37q-28 -19 -75 -35.5t-104 -16.5
q-81 0 -124 41t-43 122v23q0 57 20.5 90.5t57.5 51.5t88 23t112 5h53v31q0 26 -4 42.5t-15 25.5t-31.5 12.5t-54.5 3.5h-31t-32 -1l-9 -45h-112v140q12 4 34.5 10.5t51.5 11.5t63.5 9t70.5 4q67 0 113 -11.5t75 -37t42 -66t13 -98.5v-372h-159zM379 251h-58q-30 0 -51 -2.5
t-35 -10t-20.5 -22.5t-6.5 -39v-23q0 -34 18 -46t47 -12q34 0 63.5 9.5t42.5 17.5v128z" />
    <glyph glyph-name="atilde.alt" horiz-adv-x="609" 
d="M544 767q0 -38 -9 -64.5t-24.5 -43t-37.5 -24t-48 -7.5q-23 0 -48 7t-56 24l-47 26q-17 10 -29.5 15t-25.5 5q-18 0 -24.5 -12t-6.5 -36v-24h-98v24q0 38 9 64.5t25.5 43t39 24t49.5 7.5q25 0 46 -6t52 -23l48 -26q17 -9 29.5 -15t27.5 -6q18 0 24 11.5t6 35.5v24h98v-24
zM388 0v37q-28 -19 -75 -35.5t-104 -16.5q-81 0 -124 41t-43 122v23q0 57 20.5 90.5t57.5 51.5t88 23t112 5h53v31q0 26 -4 42.5t-15 25.5t-31.5 12.5t-54.5 3.5h-31t-32 -1l-9 -45h-112v140q12 4 34.5 10.5t51.5 11.5t63.5 9t70.5 4q67 0 113 -11.5t75 -37t42 -66t13 -98.5
v-372h-159zM379 251h-58q-30 0 -51 -2.5t-35 -10t-20.5 -22.5t-6.5 -39v-23q0 -34 18 -46t47 -12q34 0 63.5 9.5t42.5 17.5v128z" />
    <glyph glyph-name="ccedilla.alt" horiz-adv-x="533" 
d="M270 -203h-159l105 140h185zM492 7q-25 -6 -73.5 -14t-117.5 -8q-132 0 -193 67.5t-61 200.5v64q0 136 61 202t193 66q69 0 120.5 -8t70.5 -14v-157h-108l-9 44q-11 1 -24 1.5t-21 0.5q-27 0 -47.5 -5.5t-34.5 -20t-21 -41t-7 -68.5v-64q0 -42 7.5 -68.5t21.5 -41.5
t35.5 -20.5t49.5 -5.5q25 0 63 2t95 6v-118z" />
    <glyph glyph-name="dotlessi.alt" horiz-adv-x="318" 
d="M72 0v441l-46 6v123h220v-570h-174z" />
    <glyph glyph-name="iacute.alt" horiz-adv-x="318" 
d="M72 0v441l-46 6v123h220v-570h-174zM215 631h-163l132 146h197z" />
    <glyph glyph-name="icircumflex.alt" horiz-adv-x="318" 
d="M72 0v441l-46 6v123h220v-570h-174zM246 631l-87 82l-86 -82h-153l135 146h209l134 -146h-152z" />
    <glyph glyph-name="idieresis.alt" horiz-adv-x="318" 
d="M72 0v441l-46 6v123h220v-570h-174zM-40 742q0 11 5.5 17t12.5 9t13 3.5l6 0.5h104v-127h-141v97zM215 742v30h141v-127h-141v97z" />
    <glyph glyph-name="igrave.alt" horiz-adv-x="318" 
d="M72 0v441l-46 6v123h220v-570h-174zM109 631l-167 146h198l131 -146h-162z" />
    <glyph glyph-name="lslash.alt" horiz-adv-x="328" 
d="M77 0v266l-77 -68v132l77 68v253l-46 5v123h220v-228l77 68v-132l-77 -68v-419h-174z" />
    <glyph glyph-name="ntilde.alt" horiz-adv-x="671" 
d="M568 767q0 -76 -33.5 -107.5t-84.5 -31.5q-23 0 -48.5 7t-56.5 24l-47 26q-17 10 -29 15t-25 5q-19 0 -25 -12t-6 -36v-24h-99v24q0 38 9 64.5t25.5 43t39 24t49.5 7.5q25 0 46.5 -6t51.5 -23l48 -26q17 -9 30 -15t27 -6q19 0 25 11.5t6 35.5v24h97v-24zM432 0v361
q0 52 -13.5 72.5t-54.5 20.5q-24 0 -55.5 -9t-66.5 -23v-422h-174v441l-45 6v123h209v-46q44 27 91 44t96 17q64 0 101.5 -17.5t56.5 -48t24 -71.5t5 -87v-361h-174z" />
    <glyph glyph-name="scaron.alt" horiz-adv-x="543" 
d="M193 777l87 -82l86 82h153l-135 -146h-208l-135 146h152zM51 114q36 -4 88.5 -7.5t106.5 -3.5q53 0 73 12.5t20 38.5q0 13 -4 21t-14 15t-27.5 14t-44.5 18l-46 17q-40 15 -70 32.5t-50.5 39.5t-30.5 49.5t-10 62.5q0 47 16 78t46.5 50t74 26.5t98.5 7.5q31 0 63 -2
t60.5 -5.5t51 -7.5t36.5 -8v-137h-113l-10 36q-17 1 -37.5 1.5t-34.5 0.5q-42 0 -63 -5t-21 -31q0 -11 3.5 -18.5t12.5 -14t24 -12.5t38 -15l51 -19q47 -18 79.5 -35.5t52.5 -38.5t28.5 -48.5t8.5 -65.5q0 -174 -252 -174q-30 0 -61 2t-59 5.5t-50 7.5t-34 7v106z" />
    <glyph glyph-name="uacute.alt" horiz-adv-x="673" 
d="M402 631h-162l131 146h198zM605 570v-570h-164v46q-45 -26 -94 -43.5t-106 -17.5q-59 0 -93.5 19t-52.5 50t-23 71.5t-5 83.5v233l-46 5v123h220v-361q0 -52 13 -72.5t55 -20.5q25 0 56 9t66 23v422h174z" />
    <glyph glyph-name="ucircumflex.alt" horiz-adv-x="673" 
d="M423 631l-86 82l-87 -82h-152l135 146h208l135 -146h-153zM605 570v-570h-164v46q-45 -26 -94 -43.5t-106 -17.5q-59 0 -93.5 19t-52.5 50t-23 71.5t-5 83.5v233l-46 5v123h220v-361q0 -52 13 -72.5t55 -20.5q25 0 56 9t66 23v422h174z" />
    <glyph glyph-name="udieresis.alt" horiz-adv-x="673" 
d="M605 570v-570h-164v46q-45 -26 -94 -43.5t-106 -17.5q-59 0 -93.5 19t-52.5 50t-23 71.5t-5 83.5v233l-46 5v123h220v-361q0 -52 13 -72.5t55 -20.5q25 0 56 9t66 23v422h174zM140 742q0 11 5.5 17t12.5 9t13 3.5l6 0.5h104v-127h-141v97zM395 742v30h141v-127h-141v97z
" />
    <glyph glyph-name="ugrave.alt" horiz-adv-x="673" 
d="M282 631l-167 146h198l131 -146h-162zM605 570v-570h-164v46q-45 -26 -94 -43.5t-106 -17.5q-59 0 -93.5 19t-52.5 50t-23 71.5t-5 83.5v233l-46 5v123h220v-361q0 -52 13 -72.5t55 -20.5q25 0 56 9t66 23v422h174z" />
    <glyph glyph-name="yacute.alt" horiz-adv-x="673" 
d="M605 -15q0 -48 -12.5 -85t-43.5 -63t-83 -39.5t-130 -13.5q-41 0 -80 3t-71.5 6.5t-55 7.5t-29.5 6v104q24 -1 52.5 -2.5t57.5 -2.5t57.5 -2t54.5 -1q37 0 58.5 5t32.5 15t14.5 25.5t3.5 36.5v19q-14 -2 -41 -5t-50 -3q-131 0 -202 62.5t-71 202.5v309h173v-309
q0 -74 25 -104t88 -30q22 0 45.5 1.5t33.5 3.5v438h173v-585zM403 631h-163l132 146h198z" />
    <glyph glyph-name="ydieresis.alt" horiz-adv-x="673" 
d="M605 -15q0 -48 -12.5 -85t-43.5 -63t-82.5 -39.5t-129.5 -13.5q-41 0 -80.5 3t-72 6.5t-55 7.5t-29.5 6v104q24 -1 52.5 -2.5t57.5 -2.5t57.5 -2t54.5 -1q37 0 58.5 5t32.5 15t14.5 25.5t3.5 36.5v19q-14 -2 -41 -5t-50 -3q-131 0 -202 62.5t-71 202.5l1 309h172v-309
q0 -74 25.5 -104t87.5 -30q23 0 46.5 1.5t32.5 3.5v438h173v-585zM144 742q0 11 5.5 17t12.5 9t13 3.5l6 0.5h104v-127h-141v97zM399 742v30h141v-127h-141v97z" />
    <glyph glyph-name="zcaron.alt" horiz-adv-x="548" 
d="M195 777l87 -82l86 82h153l-135 -146h-208l-135 146h152zM505 0h-465v128l269 317h-153l-8 -39h-99v164h455v-130l-267 -317h268v-123z" />
    <glyph glyph-name="two.alt" horiz-adv-x="651" 
d="M589 0h-537v92q0 69 11.5 118t38 87t69.5 69t105 64q44 23 71 39.5t41.5 30.5t19.5 27.5t5 31.5q0 19 -6.5 32t-22 21t-41 11.5t-63.5 3.5q-18 0 -44.5 -0.5t-52.5 -2.5l-9 -62h-113v166q19 6 48.5 11.5t63.5 10t70 7t68 2.5q153 0 222.5 -45.5t69.5 -144.5
q0 -38 -10.5 -70t-34.5 -61t-63.5 -57t-97.5 -57q-53 -27 -85 -46t-49 -37.5t-22.5 -40.5t-5.5 -53v-10h354v-137z" />
    <glyph glyph-name="three.alt" horiz-adv-x="652" 
d="M602 205q0 -61 -18.5 -103t-55 -68.5t-92 -38.5t-130.5 -12q-38 0 -75.5 3t-70.5 8t-59 11t-42 11v115q19 -2 46.5 -4t58 -4.5t62.5 -4t61 -1.5q33 0 57.5 3.5t40 14t23.5 29.5t8 49v17q0 20 -3.5 36.5t-15.5 28t-33.5 17.5t-57.5 6h-202v122h203q35 0 56.5 6.5t33 18.5
t15.5 28.5t4 36.5v10q0 26 -6 42.5t-21 26.5t-40 13.5t-63 3.5q-25 0 -52 -0.5t-52 -2.5l-8 -61h-113v166q13 4 39 9.5t59.5 10.5t71.5 8t75 3q70 0 125.5 -10t93 -34t57.5 -63.5t20 -97.5v-12q0 -49 -20 -92.5t-68 -69.5q49 -24 68.5 -67t19.5 -90v-18v0z" />
    <glyph glyph-name="five.alt" horiz-adv-x="641" 
d="M592 220q0 -65 -20.5 -110.5t-59.5 -73.5t-94.5 -40.5t-125.5 -12.5q-41 0 -78.5 3t-69.5 7.5t-57 10t-41 9.5v118q20 -2 46 -5t53.5 -5.5t56 -4.5t52.5 -2q83 0 117.5 22t34.5 82v20q0 27 -7 45.5t-23.5 30t-45.5 16t-72 4.5h-204l34 409h480v-184h-111l-8 50h-211
l-13 -148h71q85 0 141.5 -13t91 -40t49 -69t14.5 -99v-20v0z" />
    <glyph glyph-name="six.alt" horiz-adv-x="688" 
d="M639 230q0 -71 -24 -118.5t-64.5 -76t-93 -40.5t-109.5 -12q-77 0 -133.5 17t-93 54.5t-54.5 95.5t-18 141v166q0 71 12.5 127t46.5 95t93.5 59.5t152.5 20.5q39 0 77 -3t71 -7.5t59 -9t41 -8.5v-168h-112l-9 60q-24 2 -51.5 2.5t-53.5 0.5q-49 0 -77.5 -9t-43 -26.5
t-18.5 -44.5t-4 -63v-25q13 3 30.5 6t35.5 5t35 3t31 1q58 0 108.5 -8.5t87 -31.5t57.5 -64.5t21 -107.5v-31zM455 258q0 31 -7 51t-20.5 31t-34 15t-47.5 4q-21 0 -52 -2.5t-61 -9.5v-86q0 -45 7.5 -74t22.5 -46.5t36.5 -24t49.5 -6.5q47 0 76.5 28t29.5 91v29z" />
    <glyph glyph-name="seven.alt" horiz-adv-x="650" 
d="M284 0h-198l341 609h-253l-7 -54h-112v188h556v-148z" />
    <glyph glyph-name="dotlessj" horiz-adv-x="318" 
d="M246 -35q0 -52 -10 -87t-32.5 -56.5t-57.5 -30.5t-84 -9q-30 0 -58 2.5t-40 5.5v110q14 0 28 -0.5t28 -0.5q34 0 43 14t9 52v605h174v-605v0z" />
    <glyph glyph-name="zero.tab" 
d="M664 326q0 -166 -74 -254.5t-230 -88.5t-230 88.5t-74 254.5v90q0 166 74 254.5t230 88.5t230 -88.5t74 -254.5v-90zM476 416q0 61 -8 100t-23 62t-36.5 32t-48.5 9t-48.5 -9t-36.5 -32t-23 -62t-8 -100v-90q0 -61 8 -100t23 -62t36.5 -32t48.5 -9t48.5 9t36.5 32t23 62
t8 100v90z" />
    <glyph glyph-name="one.tab" 
d="M105 0v126l172 8v452l-173 -43v132l225 71h134v-612l172 -8v-126h-530z" />
    <glyph glyph-name="two.tab" 
d="M83 0v92q0 69 11.5 117t38 85.5t69.5 68t105 63.5q44 23 70.5 40t41 31.5t19.5 29t5 32.5q0 19 -6.5 32t-22 21t-41 11.5t-63.5 3.5q-27 0 -57 -1t-59 -2.5t-54.5 -3.5t-42.5 -4v112q25 7 55.5 13t62.5 10t64.5 6t61.5 2q153 0 222.5 -46t69.5 -144q0 -38 -10.5 -69.5
t-34.5 -60t-63.5 -56t-97.5 -56.5q-53 -27 -84.5 -46.5t-48.5 -38.5t-22.5 -41.5t-5.5 -53.5v-10h354v-137h-537z" />
    <glyph glyph-name="three.tab" 
d="M634 205q0 -61 -18.5 -103t-55 -68.5t-92.5 -38.5t-131 -12q-36 0 -73.5 3t-70.5 8t-59.5 11t-42.5 11v114q19 -2 45 -4t56 -4t62.5 -3.5t64.5 -1.5q33 0 57.5 3.5t40 14t23.5 29.5t8 49v17q0 20 -4 36.5t-15.5 28t-33 17.5t-57.5 6h-202v122h203q35 0 56.5 6.5t33 18.5
t15.5 28.5t4 36.5v10q0 26 -6 42.5t-21 26.5t-40 13.5t-63 3.5q-64 0 -121.5 -3.5t-104.5 -7.5v113q13 4 39.5 9.5t60 10.5t71.5 8t74 3q71 0 126 -10t93 -34t58 -63.5t20 -97.5v-12q0 -49 -20 -92.5t-68 -69.5q49 -24 68.5 -66.5t19.5 -90.5v-18v0z" />
    <glyph glyph-name="four.tab" 
d="M572 169v-169h-187v169h-341v128l369 446h159v-446h99v-128h-99zM394 546l-201 -249h201v249z" />
    <glyph glyph-name="five.tab" 
d="M633 220q0 -65 -21 -110.5t-60 -73.5t-94.5 -40.5t-124.5 -12.5q-84 0 -150.5 10.5t-95.5 18.5v116q35 -3 91 -8.5t117 -5.5q42 0 70.5 5t46 17t25 32t7.5 50v20q0 27 -6.5 45.5t-23 30t-44.5 16t-72 4.5h-204l35 409h480v-134h-330l-13 -148h70q85 0 142 -13t91.5 -40
t49 -69t14.5 -99v-20v0z" />
    <glyph glyph-name="seven.tab" 
d="M318 0h-198l341 609h-372v134h556v-148z" />
    <glyph glyph-name="six.tab" 
d="M653 230q0 -71 -24 -118.5t-64.5 -76t-93 -40.5t-109.5 -12q-77 0 -133.5 17t-93 54.5t-54.5 95.5t-18 141v166q0 71 12.5 127t46.5 95t93.5 59.5t153.5 20.5q39 0 76.5 -3t70.5 -7.5t59 -9t41 -8.5v-117q-53 5 -107.5 8.5t-117.5 3.5q-49 0 -77.5 -9t-43.5 -26.5
t-19 -44.5t-4 -63v-25q13 3 30.5 6t35.5 5t35 3t31 1q58 0 108.5 -8.5t87 -31.5t57.5 -64.5t21 -107.5v-31zM469 258q0 31 -6.5 51t-20 31t-34 15t-48.5 4q-21 0 -52 -2.5t-61 -9.5v-86q0 -45 7.5 -74t22.5 -46.5t36.5 -24t49.5 -6.5q47 0 76.5 28t29.5 91v29z" />
    <glyph glyph-name="eight.tab" 
d="M664 213q0 -78 -24.5 -123.5t-66 -69t-97 -30.5t-116.5 -7h-5q-62 0 -117 7t-96 30.5t-65.5 69t-24.5 123.5v7q0 59 20 97.5t62 65.5q-37 24 -58 61t-21 97v9q0 66 23 106.5t63.5 63.5t95.5 31t118 8h5q63 0 118 -8t95.5 -31t64 -63.5t23.5 -106.5v-9q0 -60 -21 -97
t-58 -61q42 -27 62 -65.5t20 -97.5v-7zM480 222q0 56 -16.5 80t-63.5 24h-84q-47 0 -63.5 -24t-16.5 -80v-7q0 -35 8.5 -56.5t24 -33.5t37.5 -16t49 -4h5q28 0 50 4t37.5 16t24 33.5t8.5 56.5v7zM478 544q0 55 -31.5 73.5t-86.5 18.5h-5q-27 0 -48.5 -4t-37 -14.5t-23.5 -28
t-8 -45.5v-9q0 -44 15.5 -68.5t62.5 -24.5h84q47 0 62.5 24.5t15.5 68.5v9z" />
    <glyph glyph-name="nine.tab" 
d="M646 288q0 -70 -12.5 -126.5t-46.5 -96t-93.5 -61t-153.5 -21.5q-39 0 -77 3t-71 7.5t-58.5 9t-40.5 8.5v117q43 -4 103 -8.5t126 -4.5q48 0 75.5 9t42 27t18.5 45t4 62v26q-14 -3 -31 -6t-35 -5t-35.5 -3t-30.5 -1q-59 0 -109 8.5t-86.5 31.5t-57.5 64.5t-21 107.5v31
q0 70 24 117.5t64.5 76.5t93 41t109.5 12q77 0 133.5 -16.5t93 -53t54.5 -94t18 -139.5v-168zM462 481q0 45 -7.5 74t-22.5 46.5t-36.5 24t-49.5 6.5q-48 0 -77 -28t-29 -91v-29q0 -32 6.5 -51.5t20 -30.5t34 -15t47.5 -4q21 0 52.5 2.5t61.5 8.5v87z" />
    <glyph glyph-name="periodcentered" horiz-adv-x="303" 
d="M68 421q0 11 5.5 17t12.5 9t13 3.5l6 0.5h128v-166h-165v136z" />
    <glyph glyph-name="threequartersemdash" horiz-adv-x="750" 
d="M57 225v112h636v-112h-636z" />
    <glyph glyph-name="macron" horiz-adv-x="647" 
d="M9 817v89h628v-89h-628z" />
    <glyph glyph-name="franc.taboldstyle" horiz-adv-x="653" 
d="M128 0v99h-53v85h53v427h449v-133h-263v-106h255v-124h-255v-64h129v-85h-129v-99h-186z" />
    <glyph glyph-name="lira.taboldstyle" horiz-adv-x="630" 
d="M550 479q-38 2 -72.5 4t-66.5 2t-51.5 -3.5t-30.5 -13t-15 -26t-4 -41.5v-18h161v-67h-161v-55h161v-67h-161v-10q0 -17 -4.5 -32t-12.5 -27h257v-125h-450v101q21 19 30 38.5t9 44.5v10h-61v67h61v55h-61v67h61v17q0 115 54 164t173 49q54 0 99.5 -4t84.5 -12v-118z" />
    <glyph glyph-name="currency.taboldstyle" horiz-adv-x="656" 
d="M528 36l-80 79q-56 -32 -119 -32q-31 0 -61 7.5t-58 24.5l-84 -80l-77 75l83 80q-17 26 -25 56.5t-8 60.5t8 59t25 55l-84 81l78 75l83 -80q28 17 58.5 25t61.5 8q32 0 62 -8t58 -25l80 78l78 -75l-82 -79q17 -26 26 -55.5t9 -59.5q0 -60 -34 -116l81 -78zM455 307
q0 28 -10 50.5t-27 38.5t-40 24.5t-49 8.5t-49 -8.5t-40 -24.5t-27 -38.5t-10 -50.5t10 -51t27.5 -39t40 -24.5t48.5 -8.5q25 0 48 8.5t40 24.5t27.5 39t10.5 51z" />
    <glyph glyph-name="peseta.taboldstyle" horiz-adv-x="681" 
d="M83 0v353h-49v105h49v144q57 6 114 9t111 3q56 0 105 -6.5t87 -24t63 -47.5t34 -78h52v-105h-53q-9 -47 -34 -77.5t-61 -48t-82 -24.5t-97 -7q-33 0 -69 3v-199h-170zM430 414q0 44 -29 57.5t-82 13.5q-15 0 -35.5 -1t-30.5 -2v-152q10 -1 30 -2t34 -1q54 0 83.5 16
t29.5 60v11z" />
    <glyph glyph-name="T_h.caron" horiz-adv-x="1213" 
d="M972 0v359q0 55 -16.5 74.5t-57.5 19.5q-33 0 -64 -8.5t-51 -17.5v-427h-175v606h-179v-606h-187v606h-216v137h757v-197q33 17 77.5 28t92.5 11q59 0 96.5 -16.5t59 -46t29.5 -71t8 -90.5v-361h-174zM445 788h-208l-135 146h152l87 -82l86 82h153z" />
    <glyph glyph-name="AE.alt" horiz-adv-x="1032" 
d="M478 0v187h-195l-53 -187h-190l170 609l-51 5v129h825v-136h-319v-162h298v-129h-298v-181h319v-135h-506zM478 630h-90q-7 -26 -12.5 -54.5t-12.5 -54.5l-54 -201h169v310z" />
    <glyph glyph-name="ae.alt" horiz-adv-x="963" 
d="M546 238v-8q0 -28 3.5 -50.5t16.5 -38t39.5 -24t72.5 -8.5q25 0 53.5 0.5t57 2t55.5 3.5t49 5v-111q-17 -4 -42 -8t-55 -7.5t-64 -5.5t-70 -2q-76 0 -131.5 16t-88.5 51q-56 -38 -110.5 -52.5t-122.5 -14.5q-81 0 -124 40.5t-43 121.5v23q0 57 20.5 90.5t57.5 51.5t88 23
t112 5h53v31q0 24 -3.5 40t-13.5 25.5t-29.5 14t-50.5 4.5h-35t-36 -1l-9 -45h-112v140q12 4 34 10.5t51.5 11.5t64 9t70.5 4q71 0 110.5 -11.5t64.5 -33.5q31 21 71.5 32.5t97.5 11.5q80 0 132.5 -24t83.5 -63.5t43.5 -90.5t12.5 -106v-62h-374zM750 341q0 24 -3.5 45.5
t-14 38t-31 26.5t-53.5 10t-52.5 -10t-30.5 -26.5t-14.5 -38.5t-3.5 -45v-8h203v8zM379 251h-58q-30 0 -51 -2.5t-35 -10t-20.5 -22.5t-6.5 -39v-23q0 -34 18 -46t47 -12q33 0 62.5 9.5t43.5 17.5v128z" />
    <glyph glyph-name="agrave.alt2" horiz-adv-x="654" 
d="M305 631l-166 146h197l132 -146h-163zM424 0v29q-31 -20 -70 -31.5t-91 -11.5q-102 0 -159 63.5t-57 197.5v70q0 76 17 127.5t53 83t91.5 44.5t131.5 13q50 0 115.5 -3.5t130.5 -11.5v-570h-162zM413 450q-22 2 -47 3t-37 1q-27 0 -47.5 -5t-34 -20t-20 -42t-6.5 -70v-70
q0 -72 22 -101t76 -29q26 0 50 6t44 14v313z" />
    <glyph glyph-name="aacute.alt2" horiz-adv-x="654" 
d="M388 631h-163l132 146h198zM424 0v29q-31 -20 -70 -31.5t-91 -11.5q-102 0 -159 63.5t-57 197.5v70q0 76 17 127.5t53 83t91.5 44.5t131.5 13q50 0 115.5 -3.5t130.5 -11.5v-570h-162zM413 450q-22 2 -47 3t-37 1q-27 0 -47.5 -5t-34 -20t-20 -42t-6.5 -70v-70
q0 -72 22 -101t76 -29q26 0 50 6t44 14v313z" />
    <glyph glyph-name="acircumflex.alt2" horiz-adv-x="654" 
d="M415 631l-87 82l-86 -82h-152l135 146h208l134 -146h-152zM424 0v29q-31 -20 -70 -31.5t-91 -11.5q-102 0 -159 63.5t-57 197.5v70q0 76 17 127.5t53 83t91.5 44.5t131.5 13q50 0 115.5 -3.5t130.5 -11.5v-570h-162zM413 450q-22 2 -47 3t-37 1q-27 0 -47.5 -5t-34 -20
t-20 -42t-6.5 -70v-70q0 -72 22 -101t76 -29q26 0 50 6t44 14v313z" />
    <glyph glyph-name="atilde.alt2" horiz-adv-x="654" 
d="M552 767q0 -38 -9 -64.5t-24.5 -43t-37.5 -24t-48 -7.5q-23 0 -48 7t-56 24l-47 26q-17 10 -29.5 15t-25.5 5q-18 0 -24.5 -12t-6.5 -36v-24h-98v24q0 38 9 64.5t25.5 43t39 24t49.5 7.5q25 0 46 -6t52 -23l48 -26q17 -9 29.5 -15t27.5 -6q18 0 24 11.5t6 35.5v24h98v-24
zM424 0v29q-31 -20 -70 -31.5t-91 -11.5q-102 0 -159 63.5t-57 197.5v70q0 76 17 127.5t53 83t91.5 44.5t131.5 13q50 0 115.5 -3.5t130.5 -11.5v-570h-162zM413 450q-22 2 -47 3t-37 1q-27 0 -47.5 -5t-34 -20t-20 -42t-6.5 -70v-70q0 -72 22 -101t76 -29q26 0 50 6t44 14
v313z" />
    <glyph glyph-name="adieresis.alt2" horiz-adv-x="654" 
d="M424 0v29q-31 -20 -70 -31.5t-91 -11.5q-102 0 -159 63.5t-57 197.5v70q0 76 17 127.5t53 83t91.5 44.5t131.5 13q50 0 115.5 -3.5t130.5 -11.5v-570h-162zM413 450q-22 2 -47 3t-37 1q-27 0 -47.5 -5t-34 -20t-20 -42t-6.5 -70v-70q0 -72 22 -101t76 -29q26 0 50 6
t44 14v313zM128 742q0 11 5.5 17t12.5 9t13 3.5l6 0.5h104v-127h-141v97zM383 742v30h141v-127h-141v97z" />
    <glyph glyph-name="aring.alt2" horiz-adv-x="654" 
d="M474 743q0 -60 -40 -91t-101 -31q-31 0 -57 8t-45.5 23.5t-30.5 38t-11 52.5t11 53t30.5 38t45.5 23t57 8q61 0 101 -31t40 -91zM388 743q0 26 -16 37.5t-39 11.5q-25 0 -40.5 -11.5t-15.5 -37.5q0 -25 15.5 -36.5t40.5 -11.5q23 0 39 11.5t16 36.5zM424 0v29
q-31 -20 -70 -31.5t-91 -11.5q-102 0 -159 63.5t-57 197.5v70q0 76 17 127.5t53 83t91.5 44.5t131.5 13q50 0 115.5 -3.5t130.5 -11.5v-570h-162zM413 450q-22 2 -47 3t-37 1q-27 0 -47.5 -5t-34 -20t-20 -42t-6.5 -70v-70q0 -72 22 -101t76 -29q26 0 50 6t44 14v313z" />
    <glyph glyph-name="ugrave.alt2" horiz-adv-x="672" 
d="M282 631l-167 146h198l131 -146h-162zM605 264q0 -145 -66.5 -212t-203.5 -67q-134 0 -201 67t-67 212v306h174v-306q0 -80 20.5 -113.5t73.5 -33.5q54 0 75 33.5t21 113.5v306h174v-306z" />
    <glyph glyph-name="uacute.alt2" horiz-adv-x="672" 
d="M400 631h-163l132 146h198zM605 264q0 -145 -66.5 -212t-203.5 -67q-134 0 -201 67t-67 212v306h174v-306q0 -80 20.5 -113.5t73.5 -33.5q54 0 75 33.5t21 113.5v306h174v-306z" />
    <glyph glyph-name="ucircumflex.alt2" horiz-adv-x="672" 
d="M424 631l-87 82l-86 -82h-152l135 146h208l134 -146h-152zM605 264q0 -145 -66.5 -212t-203.5 -67q-134 0 -201 67t-67 212v306h174v-306q0 -80 20.5 -113.5t73.5 -33.5q54 0 75 33.5t21 113.5v306h174v-306z" />
    <glyph glyph-name="udieresis.alt2" horiz-adv-x="672" 
d="M605 264q0 -145 -66.5 -212t-203.5 -67q-134 0 -201 67t-67 212v306h174v-306q0 -80 20.5 -113.5t73.5 -33.5q54 0 75 33.5t21 113.5v306h174v-306zM139 742q0 11 5.5 17t12.5 9t13 3.5l6 0.5h104v-127h-141v97zM394 742v30h141v-127h-141v97z" />
    </font>
</defs>
</svg>
