<?xml version="1.0" standalone="no"?>
<!DOCTYPE svg PUBLIC "-//W3C//DTD SVG 1.1//EN" "http://www.w3.org/Graphics/SVG/1.1/DTD/svg11.dtd" >
<svg>
<metadata>
Created by FontForge 20090622 at Mon Apr  6 16:46:45 2015
 By deploy user
Copyright (c) 2010 by Kreativagentur Thomas GmbH. All rights reserved.
</metadata>
<defs>
<font id="KlimmerGothicStd-LightXt" horiz-adv-x="691" >
  <font-face 
    font-family="Klimmer Gothic Std LightXt"
    font-weight="300"
    font-stretch="normal"
    units-per-em="1000"
    panose-1="2 11 3 3 3 5 4 2 2 4"
    ascent="782"
    descent="-218"
    x-height="543"
    cap-height="743"
    bbox="-76 -292 1516 998"
    underline-thickness="50"
    underline-position="-50"
    unicode-range="U+0020-U+FE6A"
  />
<missing-glyph horiz-adv-x="550" 
d="M12 665h475v-665h-475v665zM250 375l161 243h-323zM60 91l7 10l18 27l25.5 39l29.5 45l81 121l-161 242v-484zM278 333l162 -243v485zM250 290l-162 -242h323z" />
    <glyph glyph-name="f_i" unicode="fi" horiz-adv-x="637" 
d="M127 0v488l-108 6v49h108v74q0 37 4.5 67.5t18.5 52.5t41.5 34t72.5 12q13 0 27.5 -1t28 -3t24.5 -4t18 -3v-46q-6 1 -17 1.5t-24 1.5t-26 1.5t-25 0.5q-26 0 -41.5 -6t-23.5 -19.5t-10.5 -35.5t-2.5 -53v-74h309v-543h-65v488h-244v-488h-65zM502 773v-124h-67v94
q1 8 5 15q4 5 11 10t21 5h30z" />
    <glyph glyph-name="f_l" unicode="fl" horiz-adv-x="650" 
d="M127 0v488l-108 6v49h108v74q0 49 9.5 81.5t30 51.5t53 26.5t78.5 7.5q21 0 44 -1.5t43.5 -3t37 -3.5t26.5 -3h66v-773h-66v724q-9 1 -25.5 2.5t-36.5 2.5t-41.5 1.5t-40.5 0.5q-32 0 -54 -3.5t-35 -15.5t-18.5 -34.5t-5.5 -60.5v-74h167v-55h-167v-488h-65z" />
    <glyph glyph-name="f_f" unicode="ff" horiz-adv-x="758" 
d="M444 0v488h-251v-488h-66v488l-107 6v49h107v74q0 36 4.5 66t18.5 52.5t41.5 35t72.5 12.5q27 0 56 -4t43 -7v-46q-6 1 -17 1.5t-24 1.5t-26 1.5t-25 0.5q-26 0 -41.5 -6.5t-23.5 -20t-10.5 -35t-2.5 -52.5v-74h251v74q0 36 4.5 66t18.5 52.5t41 35t72 12.5q27 0 56 -4
t43 -7v-46q-6 1 -17 1.5t-24 1.5t-26 1.5t-25 0.5q-26 0 -41.5 -6t-23.5 -19.5t-10.5 -35.5t-2.5 -53v-74h166v-55h-166v-488h-65z" />
    <glyph glyph-name="f_f_i" unicode="ffi" horiz-adv-x="962" 
d="M761 0v488h-252v-488h-65v488h-251v-488h-66v488l-107 6v49h107v74q0 36 4.5 66.5t18.5 52.5t41.5 34.5t72.5 12.5q27 0 56 -4t43 -7v-46q-6 1 -17 1.5t-24 1.5t-26 1.5t-25 0.5q-26 0 -41 -6t-23.5 -19.5t-11 -35.5t-2.5 -53v-74h251v74q0 36 4.5 66.5t18.5 52.5
t41 34.5t72 12.5q27 0 56 -4t43 -7v-46q-6 1 -17 1.5t-24 1.5t-26 1.5t-25 0.5q-26 0 -41 -6t-23.5 -19.5t-11 -35.5t-2.5 -53v-74h318v-543h-66zM828 773v-124h-67v94q1 8 5 15q4 5 11 10t21 5h30z" />
    <glyph glyph-name="f_f_l" unicode="ffl" horiz-adv-x="966" 
d="M765 0v724q-8 1 -24 2t-36.5 2l-42 2t-39.5 1q-34 0 -56 -4t-35 -16t-18 -34.5t-5 -59.5v-74h167v-55h-167v-488h-65v488h-251v-488h-66v488l-107 6v49h107v74q0 37 4.5 67.5t19.5 52.5t42 34t72 12q28 0 57 -4t41 -7v-46q-6 1 -17 1.5t-23.5 1.5t-25.5 1.5t-25 0.5
q-26 0 -41.5 -5.5t-24 -19t-11 -35.5t-2.5 -54v-74h251v74q0 49 9 81t29.5 51t53 27t79.5 8q20 0 43 -1.5t44 -3.5l37.5 -3.5t25.5 -2.5h66v-773h-66z" />
    <glyph glyph-name="f_b" unicode="fb" horiz-adv-x="963" 
d="M127 0v488l-108 6v49h108v74q0 48 9 80t28.5 51.5t49 27.5t71.5 8q39 0 79 -4l70 -7h64v-248q38 18 78 25.5t72 7.5q109 0 159.5 -58.5t50.5 -185.5v-70q0 -137 -57.5 -197t-179.5 -60q-20 0 -39.5 0.5t-41.5 2t-47.5 3.5t-58.5 6v725q-33 3 -69.5 5t-72.5 2
q-28 0 -47 -4t-31 -16t-17 -34.5t-5 -59.5v-74h165v-55h-165v-488h-65zM499 51q60 -6 124 -6q44 0 76 10t52.5 33t30.5 61.5t10 94.5v70q0 102 -35 144t-116 42q-11 0 -28 -1.5t-36.5 -4.5t-39.5 -8.5t-38 -13.5v-421z" />
    <glyph glyph-name="f_f_b" unicode="ffb" horiz-adv-x="1281" 
d="M445 0v488h-252v-488h-66v488l-110 5v50h110v74q0 36 4 66t18.5 52.5t41.5 35t73 12.5q27 0 53.5 -3.5t43.5 -7.5v-46q-17 2 -41.5 3.5t-47.5 1.5q-26 0 -42 -6t-24 -19.5t-10.5 -35.5t-2.5 -53v-74h252v74q0 48 9 80t28.5 51.5t49 27.5t71.5 8q38 0 78.5 -4l70.5 -7h65
v-248q37 18 77.5 25.5t72.5 7.5q109 0 159.5 -58.5t50.5 -185.5v-70q0 -137 -58 -197t-179 -60q-21 0 -40.5 0.5t-41 2t-47.5 3.5t-59 6v725q-26 2 -66.5 4.5t-75.5 2.5q-28 0 -47 -4t-31 -16t-17 -34.5t-5 -59.5v-74h166v-55h-166v-488h-65zM1111 314q0 51 -8.5 86.5
t-26.5 57.5t-47 32t-70 10q-11 0 -28 -1.5t-36.5 -4.5t-39.5 -8.5t-37 -13.5v-421q28 -3 60 -4.5t64 -1.5q44 0 76 10t52.5 33t30.5 61.5t10 94.5v70z" />
    <glyph glyph-name="f_f_h" unicode="ffh" horiz-adv-x="1301" 
d="M1109 0v342q0 46 -6.5 76.5t-21 48.5t-37 25.5t-55.5 7.5q-48 0 -94.5 -15t-78.5 -31v-454h-65v724l-29 2.5t-36 2.5t-38.5 1.5t-36.5 0.5q-30 0 -49.5 -4t-31.5 -16t-17 -34.5t-5 -59.5v-74h165v-55h-165v-488h-65v488h-250v-488h-66v488l-110 6v49h110v74q0 36 4 66
t18.5 52.5t41.5 35t73 12.5q27 0 55 -4t42 -7v-46q-12 1 -39.5 3t-50.5 2q-26 0 -41.5 -6t-23.5 -19.5t-10.5 -35.5t-2.5 -53v-74h250v74q0 49 9.5 81t29 51t50.5 27t73 8q38 0 79 -4t67 -7h65v-266q31 16 78 33t107 17q93 0 133.5 -51.5t40.5 -161.5v-344h-66z" />
    <glyph glyph-name="f_f_k" unicode="ffk" horiz-adv-x="1218" 
d="M1067 0l-241 275v-275h-65v724q-28 2 -68.5 4.5t-78.5 2.5q-29 0 -49 -4t-32 -16t-17 -34.5t-5 -59.5v-74h166v-55h-166v-488h-65v488h-253v-488h-66v488l-110 6v49h110v74q0 36 4.5 66t18.5 52.5t41.5 35t72.5 12.5q27 0 55 -4t42 -7v-46q-12 1 -39.5 3t-50.5 2
q-26 0 -41.5 -6t-23.5 -19.5t-10.5 -35.5t-2.5 -53v-74h253v74q0 49 9.5 81t29.5 51t50 27t72 8q44 0 84.5 -4l69.5 -7h65v-478l240 248h86l-252 -257l255 -286h-88z" />
    <glyph glyph-name="f_h" unicode="fh" horiz-adv-x="987" 
d="M795 0v342q0 46 -6.5 76.5t-21 48.5t-37.5 25.5t-56 7.5q-48 0 -94.5 -15t-78.5 -31v-454h-65v724q-26 2 -64 4.5t-76 2.5q-30 0 -49.5 -4t-31.5 -16t-17 -34.5t-5 -59.5v-74h165v-55h-165v-488h-66v488l-110 6v49h110v74q0 49 9.5 81t29.5 51t51 27t73 8t81.5 -4
t64.5 -7h65v-266q31 16 78.5 33t106.5 17q93 0 133.5 -51.5t40.5 -161.5v-344h-65z" />
    <glyph glyph-name="f_j" unicode="fj" horiz-adv-x="649" 
d="M127 0v488l-110 6v49h110v74q0 36 4.5 66t19 52.5t41.5 35t72 12.5q27 0 55 -4t42 -7v-46q-12 1 -39.5 3t-50.5 2q-26 0 -41.5 -6t-23.5 -19.5t-10.5 -35.5t-2.5 -53v-74h320v-617q0 -76 -25.5 -110.5t-95.5 -34.5q-17 0 -35 2t-31 4v48q28 -3 58 -3q20 0 32.5 5t19.5 16
t9.5 29t2.5 44v562h-255v-488h-66zM514 773v-125h-68v95q1 8 5 15q4 5 11 10t21 5h31z" />
    <glyph glyph-name="f_f_j" unicode="ffj" horiz-adv-x="967" 
d="M446 0v488h-254v-488h-65v488l-110 6v49h110v74q0 36 4.5 66t19 52.5t41 35t71.5 12.5q27 0 56 -4t43 -7v-46q-6 1 -17 1.5t-24 1.5t-26 1.5t-25 0.5q-26 0 -41 -6.5t-23.5 -20t-11 -35.5t-2.5 -52v-74h254v74q0 36 4.5 66t18.5 52.5t41.5 35t72.5 12.5q26 0 54 -4t42 -7
v-46q-12 2 -39 3.5t-51 1.5q-26 0 -41.5 -6t-23.5 -19.5t-10.5 -35.5t-2.5 -53v-74h321v-617q0 -76 -26 -110.5t-95 -34.5q-17 0 -36 2t-31 4v48q28 -3 59 -3q19 0 31.5 5t19.5 16t9.5 29t2.5 44v562h-255v-488h-65zM832 773v-125h-67v95q1 8 5 15q4 5 11 10t21 5h30z" />
    <glyph glyph-name="f_k" unicode="fk" horiz-adv-x="902" 
d="M751 0l-241 275v-275h-65v724q-28 2 -68.5 4.5t-80.5 2.5q-30 0 -49.5 -4t-31.5 -16t-17 -34.5t-5 -59.5v-74h165v-55h-165v-488h-66v488l-110 6v49h110v74q0 49 9.5 81t29.5 51t51 27t73 8q45 0 85.5 -4l69.5 -7h65v-478l240 248h86l-253 -257l255 -286h-87z" />
    <glyph glyph-name=".notdef" horiz-adv-x="550" 
d="M12 665h475v-665h-475v665zM250 375l161 243h-323zM60 91l7 10l18 27l25.5 39l29.5 45l81 121l-161 242v-484zM278 333l162 -243v485zM250 290l-162 -242h323z" />
    <glyph glyph-name=".null" horiz-adv-x="25" 
 />
    <glyph glyph-name="nonmarkingreturn" horiz-adv-x="226" 
 />
    <glyph glyph-name="space" unicode=" " horiz-adv-x="226" 
 />
    <glyph glyph-name="numbersign" unicode="#" horiz-adv-x="779" 
d="M498 205l-23 -205h-59l22 205h-189l-22 -205h-60l23 205h-107v57h113l23 212h-136v57h142l24 212h59l-23 -212h189l24 212h59l-23 -212h117v-57h-123l-23 -212h146v-57h-153zM279 474l-23 -212h189l23 212h-189z" />
    <glyph glyph-name="dollar" unicode="$" horiz-adv-x="642" 
d="M264 -13q-60 2 -109 7.5t-72 10.5v53q38 -5 90.5 -9t115.5 -4q82 0 127 31t45 107q0 27 -7 48t-22.5 39t-40.5 34t-62 33l-101 47q-38 17 -67.5 36t-50.5 42.5t-32 53t-11 67.5q0 81 50 122t147 48v102h64v-101q56 -1 103.5 -6.5t72.5 -10.5v-54q-16 2 -39 4t-49.5 4
t-55 3.5t-55.5 1.5q-80 0 -125.5 -24.5t-45.5 -88.5q0 -51 29 -82.5t95 -60.5l101 -46q43 -20 75 -40.5t53 -45t31.5 -55t10.5 -70.5q0 -90 -50.5 -138t-150.5 -56v-108h-64v106z" />
    <glyph glyph-name="percent" unicode="%" horiz-adv-x="1065" 
d="M959 189q0 -103 -44 -151.5t-122 -48.5t-122.5 48.5t-44.5 151.5v58q0 103 44.5 151t122.5 48t122 -48t44 -151v-58zM900 247q0 44 -8.5 72.5t-22.5 45.5t-34 24t-42 7q-23 0 -42.5 -7t-34 -24t-23 -45.5t-8.5 -72.5v-58q0 -44 8.5 -72.5t23 -45.5t34 -24t42.5 -7
q22 0 42 7t34 24t22.5 45.5t8.5 72.5v58zM305 0h-67l474 743h67zM391 497q0 -96 -39.5 -148.5t-126.5 -52.5q-86 0 -126 54t-40 147v56q0 94 39.5 147.5t126.5 53.5t126.5 -52t39.5 -149v-56zM332 553q0 85 -28 118t-79 33t-79 -34t-28 -117v-56q0 -43 7 -71.5t21 -46
t33.5 -25t45.5 -7.5q25 0 45 7.5t34 25t21 46t7 71.5v56z" />
    <glyph glyph-name="ampersand" unicode="&#x26;" horiz-adv-x="778" 
d="M581 0l-64 64q-36 -35 -90 -56t-130 -21q-49 0 -92 10t-75.5 33t-51 59t-18.5 89v6q1 64 33 110t108 87l-6 7q-25 25 -45 48t-34.5 47t-22.5 51t-8 61q0 44 15.5 74.5t43.5 49.5t67.5 27.5t86.5 8.5q56 0 110.5 -5t92.5 -13v-53q-42 5 -94 8.5t-106 3.5q-32 0 -59 -4
t-46.5 -15.5t-31 -31.5t-11.5 -53q0 -25 5.5 -45t17.5 -39t30.5 -40t44.5 -47l265 -267q14 24 22.5 51.5t13 56.5t6 59t1.5 59l-62 4v51h186v-51l-62 -4q0 -68 -12.5 -139.5t-49.5 -128.5l100 -100v-12h-78zM243 340q-63 -32 -89 -66.5t-26 -89.5v-6q0 -36 13 -61.5
t36 -41.5t53.5 -23.5t66.5 -7.5q63 0 107 15.5t73 44.5z" />
    <glyph glyph-name="quoteright" unicode="&#x2019;" horiz-adv-x="212" 
d="M72 544h-52l52 229h70z" />
    <glyph glyph-name="parenleft" unicode="(" horiz-adv-x="381" 
d="M229 -207q-27 32 -56 78.5t-53 106t-39 131.5t-15 155v7q0 83 15 155t39 131.5t53 106t56 79.5h63q-34 -44 -63.5 -94t-51 -108t-33.5 -125t-12 -145v-7q0 -78 12 -145t33.5 -124.5t51 -107.5t63.5 -94h-63z" />
    <glyph glyph-name="parenright" unicode=")" horiz-adv-x="381" 
d="M264 264q0 -83 -15 -155t-38.5 -131.5t-52.5 -106t-56 -78.5h-65q34 44 64 94t51.5 107.5t34 124.5t12.5 145v7q0 78 -12.5 145t-34 125t-51.5 108t-64 94h65q27 -33 56 -79.5t52.5 -106t38.5 -131.5t15 -155v-7v0z" />
    <glyph glyph-name="asterisk" unicode="*" horiz-adv-x="565" 
d="M364 583q-14 -5 -31.5 -10t-34.5 -8q12 -12 23 -25.5l21 -26.5l53 -73l-47 -34l-53 73q-10 13 -19.5 27.5l-18.5 29.5q-8 -14 -17.5 -28.5l-18.5 -27.5l-53 -74l-47 34l53 74q9 13 20 26.5t22 25.5q-16 3 -33 7.5t-31 9.5l-86 28l17 55l86 -27q15 -5 32 -11.5l32 -12.5
q-2 16 -3 33t-1 33v92h58v-92q0 -16 -1 -33.5t-3 -34.5q16 7 32.5 13.5t30.5 11.5l87 29l18 -56z" />
    <glyph glyph-name="plus" unicode="+" horiz-adv-x="746" 
d="M376 364v-223h-55v223h-224v55h224v223h55v-223h222v-55h-222z" />
    <glyph glyph-name="comma" unicode="," horiz-adv-x="293" 
d="M91 -87h-60l82 223h76z" />
    <glyph glyph-name="hyphen" unicode="-" horiz-adv-x="445" 
d="M75 262v56h245v-56h-245z" />
    <glyph glyph-name="period" unicode="." horiz-adv-x="263" 
d="M139 136v-136h-65v106q1 8 5 15q4 5 11 10t21 5h28z" />
    <glyph glyph-name="slash" unicode="/" horiz-adv-x="455" 
d="M83 0h-63l299 743h63z" />
    <glyph glyph-name="zero" unicode="0" horiz-adv-x="677" 
d="M567 313q0 -85 -17.5 -146.5t-50 -101.5t-79.5 -59t-106 -19q-60 0 -107 19t-79.5 59t-49.5 101.5t-17 146.5v116q0 85 17 146.5t49.5 101.5t79.5 59t107 19q59 0 106 -19t79.5 -59t50 -101.5t17.5 -146.5v-116zM500 429q0 76 -14 127.5t-39 82.5t-59 44.5t-74 13.5
t-74 -13.5t-59 -44.5t-39 -82.5t-14 -127.5v-116q0 -77 14 -128.5t39 -82.5t59 -44.5t74 -13.5t74 13.5t59 44.5t39 82.5t14 128.5v116z" />
    <glyph glyph-name="one" unicode="1" horiz-adv-x="548" 
d="M59 0v55l159 4v620l-160 -54v59l176 64h50v-689l158 -4v-55h-383z" />
    <glyph glyph-name="two" unicode="2" horiz-adv-x="634" 
d="M66 0v72q0 66 12 112t39 81.5t71 65.5t107 65q50 27 81.5 49t49.5 42.5t24.5 42.5t6.5 51q0 64 -44 90t-144 26q-47 0 -99.5 -5t-89.5 -11v53q12 3 33 6.5t46.5 6.5t54.5 5.5t58 2.5q129 0 190.5 -41.5t61.5 -132.5q0 -35 -8.5 -64.5t-30.5 -57.5t-59 -55t-94 -58
q-62 -33 -100.5 -60t-61 -56.5t-30.5 -66t-8 -90.5v-14h384v-59h-450z" />
    <glyph glyph-name="three" unicode="3" horiz-adv-x="634" 
d="M522 196q0 -111 -63.5 -160t-190.5 -49q-29 0 -59 2.5t-57 5.5t-48 6.5t-32 5.5v51q45 -4 93 -9t102 -5q100 0 144 34t44 118v29q0 25 -4 49t-18 42.5t-41 30t-73 11.5h-220v57h220q46 0 73 11.5t41 30t18 43t4 50.5v14q0 36 -9 61.5t-30.5 41t-57.5 23t-91 7.5
q-53 0 -106 -4.5t-87 -8.5v52q7 1 27 4.5t47.5 6.5t59 5.5t60.5 2.5q133 0 193.5 -44t60.5 -147v-14q0 -26 -5 -51t-16.5 -46.5t-30.5 -39t-48 -27.5q30 -11 49 -28t30.5 -38t16 -45.5t4.5 -49.5v-29v0z" />
    <glyph glyph-name="four" unicode="4" horiz-adv-x="688" 
d="M472 207v-207h-67v207h-360v68l350 469h77v-479h119v-58h-119zM405 655l-292 -390h292v390z" />
    <glyph glyph-name="five" unicode="5" horiz-adv-x="631" 
d="M520 206q0 -114 -63 -166.5t-199 -52.5q-34 0 -66.5 2.5t-59.5 6t-47 7.5t-29 6v53q31 -4 86 -10.5t115 -6.5q56 0 94 9.5t61 29t32.5 50t9.5 72.5v27q0 43 -11 72t-35.5 46t-63.5 24.5t-95 7.5h-177l32 360h387v-60h-330l-22 -242h113q67 0 117.5 -11t84 -35.5t50 -64.5
t16.5 -97v-27v0z" />
    <glyph glyph-name="six" unicode="6" horiz-adv-x="676" 
d="M564 221q0 -71 -23.5 -116.5t-59.5 -71.5t-79.5 -36t-83.5 -10q-52 0 -98.5 11.5t-82 43.5t-56 90.5t-20.5 151.5v192q0 67 13 119t44.5 87.5t83.5 54t130 18.5q31 0 62.5 -2.5t59 -6t48.5 -7t32 -5.5v-52q-15 2 -38 4.5t-50 5t-56.5 4t-56.5 1.5q-66 0 -106.5 -15.5
t-62.5 -44t-29 -69t-7 -91.5v-47q22 6 47.5 11t51 8t49 5t43.5 2q46 0 90 -7.5t78.5 -29t55.5 -60.5t21 -102v-36zM497 255q0 47 -13.5 75.5t-37.5 44.5t-57 21t-72 5q-36 0 -87 -4.5t-102 -18.5v-99q0 -69 13.5 -114t38.5 -71.5t60 -37.5t78 -11q38 0 71 10t57 31.5
t37.5 54.5t13.5 80v34z" />
    <glyph glyph-name="seven" unicode="7" horiz-adv-x="612" 
d="M192 0h-75l340 683h-403v60h466v-71z" />
    <glyph glyph-name="eight" unicode="8" horiz-adv-x="694" 
d="M580 211q0 -74 -20 -118t-54.5 -67.5t-81 -31t-100.5 -7.5h-5q-54 0 -101 7.5t-81.5 31.5t-54 68t-19.5 118v7q0 66 22.5 107t71.5 61q-47 19 -69 60t-22 100v10q0 59 19.5 97t53.5 60.5t80 31t100 8.5h5q54 0 100 -8.5t80 -31t53.5 -60.5t19.5 -97v-10q0 -60 -22 -100.5
t-69 -59.5q49 -20 71.5 -61t22.5 -106v-9zM513 220q0 32 -6 57.5t-19.5 43.5t-36.5 27.5t-58 9.5h-143q-35 0 -58.5 -9.5t-37 -27.5t-19 -44t-5.5 -58v-7q0 -53 12.5 -85.5t37 -51t59.5 -25t80 -6.5h5q45 0 80 6.5t59.5 25t37 51t12.5 84.5v9zM511 557q0 42 -12.5 69
t-36.5 43t-59 22t-79 6h-5q-44 0 -79 -6t-59 -22t-36.5 -43t-12.5 -69v-10q0 -28 5 -52t18.5 -41.5t36.5 -27.5t58 -10h143q35 0 58 10t36.5 27.5t18.5 41.5t5 52v10z" />
    <glyph glyph-name="nine" unicode="9" horiz-adv-x="676" 
d="M564 265q0 -67 -13 -119t-44.5 -87.5t-83.5 -54t-130 -18.5q-31 0 -62.5 2.5t-59 6t-49 7t-31.5 5.5v53q15 -2 38 -4.5t50 -5t56 -4.5t56 -2q67 0 107.5 15.5t62.5 44t29 69t7 91.5v47q-22 -6 -47.5 -10.5t-51 -8t-49.5 -5t-44 -1.5q-46 0 -89.5 7t-78 28.5t-55.5 60.5
t-21 102v37q0 70 23.5 115.5t59.5 72t79.5 36.5t83.5 10q51 0 98 -11.5t82 -43.5t56 -90.5t21 -151.5v-193zM497 462q0 69 -13.5 114t-38.5 72t-60 38t-78 11q-38 0 -71 -10t-57 -31.5t-38 -55t-14 -79.5v-35q0 -47 14 -75.5t38 -44.5t57 -21t72 -5q36 0 86.5 5t102.5 18v99
z" />
    <glyph glyph-name="colon" unicode=":" horiz-adv-x="267" 
d="M77 0v136h66v-136h-66zM143 546v-136h-66v106q1 8 5 15q4 5 11 10t21 5h29z" />
    <glyph glyph-name="semicolon" unicode=";" horiz-adv-x="286" 
d="M69 -87h-59l82 223h76zM160 546v-136h-66v106q1 8 5 15q4 5 11 10t21 5h29z" />
    <glyph glyph-name="less" unicode="&#x3c;" horiz-adv-x="746" 
d="M445 139l-286 252l286 251h91l-287 -251l287 -252h-91z" />
    <glyph glyph-name="equal" unicode="=" horiz-adv-x="746" 
d="M571 252h-447v55h447v-55zM124 477v55h447v-55h-447z" />
    <glyph glyph-name="greater" unicode="&#x3e;" horiz-adv-x="746" 
d="M249 139h-90l286 252l-286 251h90l286 -251z" />
    <glyph glyph-name="question" unicode="?" horiz-adv-x="503" 
d="M390 616q0 -26 -4.5 -48t-16.5 -45t-32 -47.5t-50 -54.5q-35 -35 -55 -59t-30.5 -44t-13 -40t-2.5 -47v-39h-64v39q0 30 3 55t14 49.5t32 51.5t57 61q29 28 47.5 49.5t29 40.5t14.5 37.5t4 40.5v6q0 31 -9.5 51.5t-27.5 31.5t-44 15.5t-59 4.5q-32 0 -72 -3.5t-79 -8.5
v51q36 8 77 13.5t79 5.5q46 0 83.5 -8t63.5 -27t40.5 -49.5t14.5 -76.5v-6zM188 0h-37q-9 1 -15 5t-10.5 11t-4.5 21v92h67v-129z" />
    <glyph glyph-name="at" unicode="@" horiz-adv-x="873" 
d="M771 377q0 -66 -16.5 -124t-56.5 -101.5t-107.5 -68.5t-168.5 -25q-102 0 -147.5 36.5t-45.5 116.5q0 81 14 133.5t39.5 83t61.5 42.5t81 12q73 0 146 -17l-35 -343q50 10 85 33t56.5 56.5t31.5 76t10 90.5q0 111 -64.5 170.5t-203.5 59.5q-146 0 -226.5 -72t-105.5 -230
q-5 -29 -7.5 -61t-2.5 -67q0 -58 15.5 -103t48.5 -76t84.5 -47.5t123.5 -16.5q26 0 53 1t50 2.5t40 3.5t24 3v-38q-10 -2 -27.5 -4.5t-40 -5t-48 -4t-51.5 -1.5q-166 0 -245 75t-79 211q0 36 3 70t8 63q14 87 43 151t75.5 106.5t112 63.5t152.5 21q82 0 142.5 -19t100 -55
t58.5 -87t19 -115zM504 422q-15 2 -37.5 4t-40.5 2q-30 0 -55 -8t-43.5 -31t-28.5 -65.5t-10 -112.5q0 -58 30.5 -80t101.5 -22q17 0 28 0.5t24 1.5z" />
    <glyph glyph-name="A" unicode="A" horiz-adv-x="693" 
d="M548 0l-87 263h-282l-88 -263h-68l252 743h93l251 -743h-71zM356 573q-19 55 -32 115h-7q-15 -60 -32 -115l-86 -249h241z" />
    <glyph glyph-name="B" unicode="B" horiz-adv-x="674" 
d="M569 202q0 -62 -21 -101.5t-59 -63t-93 -32.5t-122 -9q-34 0 -57.5 0.5t-44 1l-40.5 1t-47 1.5v743q24 0 44.5 0.5l41.5 1t46 1t59 0.5q69 0 123 -8t91 -29t56 -57.5t19 -93.5v-9q0 -24 -6 -49t-19.5 -47t-36 -39.5t-56.5 -27.5q34 -10 57.5 -27.5t37.5 -40t20.5 -48.5
t6.5 -54v-14zM502 216q0 28 -7.5 54t-27.5 45.5t-55 31t-92 11.5h-168v-299q29 -2 56 -3t66 -1q57 0 99.5 6.5t71 23t43 45t14.5 72.5v14zM498 558q0 41 -14 66.5t-42 39t-69.5 18t-96.5 4.5q-37 0 -65 -0.5t-59 -1.5v-268h168q56 0 90.5 11t54 29.5t26.5 42.5t7 50v9z" />
    <glyph glyph-name="C" unicode="C" horiz-adv-x="600" 
d="M520 2q-19 -3 -67 -9t-106 -6q-66 0 -120 16.5t-92.5 56t-59 105.5t-20.5 164v85q0 98 20.5 163.5t59 105t92.5 56t120 16.5q56 0 103.5 -6t69.5 -10v-55q-42 5 -83.5 8t-89.5 3q-57 0 -99.5 -15t-70.5 -48t-41.5 -86.5t-13.5 -131.5v-85q0 -78 13.5 -131.5t41.5 -87
t70.5 -48.5t99.5 -15q50 0 92.5 3t80.5 8v-56v0z" />
    <glyph glyph-name="D" unicode="D" horiz-adv-x="709" 
d="M604 328q0 -81 -18 -143t-56 -104t-99 -63.5t-146 -21.5q-32 0 -56.5 0.5l-47.5 1l-46 1t-50 1.5v743q30 1 52 1.5l43.5 1t45.5 0.5h59q167 0 243 -84.5t76 -245.5v-88zM537 416q0 75 -16.5 127t-48.5 83.5t-80.5 45.5t-111.5 14q-38 0 -68.5 -0.5t-59.5 -1.5v-625
q29 -2 61 -3t67 -1q63 0 111.5 14.5t80.5 46.5t48.5 84.5t16.5 127.5v88z" />
    <glyph glyph-name="E" unicode="E" horiz-adv-x="618" 
d="M85 0v743h428v-60h-361v-265h337v-61h-337v-298h361v-59h-428z" />
    <glyph glyph-name="F" unicode="F" horiz-adv-x="608" 
d="M152 683v-265h337v-61h-337v-357h-67v743h428v-60h-361z" />
    <glyph glyph-name="G" unicode="G" horiz-adv-x="669" 
d="M554 5q-33 -5 -88 -11.5t-118 -6.5q-64 0 -117.5 17t-92.5 57t-61 104.5t-22 160.5v91q0 100 23.5 165t63.5 103.5t93 54t113 15.5q36 0 70 -2t61.5 -5t47 -6t27.5 -4v-55q-16 1 -42 3.5t-54.5 4l-55.5 3t-45 1.5q-53 0 -96.5 -12t-74.5 -43t-47.5 -85t-16.5 -138v-91
q0 -80 16 -133.5t46 -85.5t73.5 -45.5t98.5 -13.5q32 0 67 1t64 4v330h67v-378v0z" />
    <glyph glyph-name="H" unicode="H" horiz-adv-x="758" 
d="M556 0v365h-404v-365h-67v743h67v-317h404v317h67v-743h-67z" />
    <glyph glyph-name="I" unicode="I" horiz-adv-x="290" 
d="M87 0v743h67v-743h-67z" />
    <glyph glyph-name="J" unicode="J" horiz-adv-x="290" 
d="M153 -56q0 -38 -6 -67t-21.5 -49t-42.5 -30.5t-69 -10.5q-17 0 -37.5 2.5t-31.5 4.5v51q17 -1 32.5 -1h32.5q27 0 42 6t23 18.5t10 31.5t2 44v799h66v-799v0z" />
    <glyph glyph-name="K" unicode="K" horiz-adv-x="651" 
d="M494 0l-337 364v-364h-67v743h67v-353l341 353h87l-353 -365l354 -378h-92z" />
    <glyph glyph-name="L" unicode="L" horiz-adv-x="581" 
d="M85 0v743h67v-684h354v-59h-421z" />
    <glyph glyph-name="M" unicode="M" horiz-adv-x="841" 
d="M640 0v539q0 33 1 58.5t3 57.5h-2q-12 -26 -24.5 -50l-25.5 -49l-155 -292h-84l-153 292l-24.5 49.5l-25.5 49.5h-2q2 -32 2.5 -57t0.5 -59v-539h-66v743h88l177 -341l22 -44.5l22 -44.5h2l22 45.5l22 44.5l179 340h87v-743h-66z" />
    <glyph glyph-name="N" unicode="N" horiz-adv-x="742" 
d="M512 -1l-313 577l-26.5 50.5l-26.5 53.5h-1q3 -62 3 -128v-552h-63v743h95l314 -571l25.5 -50l25.5 -52h1q-2 35 -2.5 68t-0.5 62v543h64v-744h-95z" />
    <glyph glyph-name="O" unicode="O" horiz-adv-x="721" 
d="M616 332q0 -176 -73.5 -260.5t-206.5 -84.5q-134 0 -207.5 84.5t-73.5 260.5v78q0 176 73.5 260.5t207.5 84.5q133 0 206.5 -84.5t73.5 -260.5v-78zM549 410q0 81 -16 135.5t-44 87.5t-67.5 47.5t-85.5 14.5q-47 0 -86 -14.5t-67.5 -47.5t-44.5 -87.5t-16 -135.5v-78
q0 -81 16 -135.5t44.5 -87.5t67.5 -47.5t86 -14.5q46 0 85.5 14.5t67.5 47.5t44 87.5t16 135.5v78z" />
    <glyph glyph-name="P" unicode="P" horiz-adv-x="640" 
d="M550 520q0 -64 -20.5 -106t-58.5 -67t-91.5 -35t-119.5 -10h-53t-57 1v-303h-67v744l88 2t91 1q66 0 119 -9.5t90.5 -33.5t58 -65.5t20.5 -105.5v-13zM483 533q0 46 -13.5 76t-41 47t-69 24t-97.5 7q-32 0 -60.5 -1t-51.5 -2v-322q30 -1 57.5 -1h52.5q57 0 98.5 7.5
t69.5 26t41.5 49t13.5 76.5v13z" />
    <glyph glyph-name="Q" unicode="Q" horiz-adv-x="721" 
d="M616 332q0 -166 -65.5 -249.5t-181.5 -93.5v-58q0 -19 2.5 -32t10 -21.5t22.5 -12t39 -3.5h85v-46q-6 -1 -17.5 -2.5t-25.5 -2.5t-29.5 -2t-29.5 -1q-32 0 -55 6t-38 20t-22.5 38t-7.5 59v58q-59 5 -105 28t-77.5 65.5t-48.5 104.5t-17 145v78q0 176 73.5 260.5
t207.5 84.5q133 0 206.5 -84.5t73.5 -260.5v-78zM549 410q0 81 -16 135.5t-44 87.5t-67.5 47.5t-85.5 14.5q-47 0 -86 -14.5t-67.5 -47.5t-44.5 -87.5t-16 -135.5v-78q0 -81 16 -135.5t44.5 -87.5t67.5 -47.5t86 -14.5q46 0 85.5 14.5t67.5 47.5t44 87.5t16 135.5v78z" />
    <glyph glyph-name="R" unicode="R" horiz-adv-x="672" 
d="M516 0l-185 303q-17 -1 -36 -1h-34h-57t-52 1v-303h-67v743q27 1 48.5 2t42 1.5t40.5 0.5h43q66 0 120 -10t92.5 -34.5t59.5 -66t21 -104.5v-8q0 -90 -38.5 -138.5t-111.5 -68.5l193 -317h-79zM484 532q0 46 -14 76t-42 47.5t-70 24.5t-99 7q-25 0 -53 -1l-54 -2v-322
q25 -1 53 -1h56q57 0 99 8.5t69.5 27.5t41 50t13.5 77v8z" />
    <glyph glyph-name="S" unicode="S" horiz-adv-x="622" 
d="M517 183q0 -196 -240 -196q-33 0 -64.5 2t-59 4.5t-49 5.5t-33.5 6v53q38 -5 90.5 -9t115.5 -4q82 0 127 31t45 107q0 27 -7 48t-22.5 39t-40.5 34t-62 33l-101 47q-38 17 -67.5 36t-50.5 42.5t-32 53t-11 67.5q0 90 60 131t176 41q31 0 61.5 -2t57 -4.5t48 -5.5t34.5 -6
v-54q-16 2 -39 4t-49.5 4t-55 3.5t-55.5 1.5q-80 0 -125.5 -24.5t-45.5 -88.5q0 -50 29.5 -82t94.5 -61l101 -46q43 -20 75 -40.5t53 -45t31.5 -55t10.5 -70.5z" />
    <glyph glyph-name="T" unicode="T" horiz-adv-x="658" 
d="M337 683v-683h-67v683h-240v60h548v-60h-241z" />
    <glyph glyph-name="U" unicode="U" horiz-adv-x="733" 
d="M603 319q0 -166 -62.5 -248.5t-198.5 -82.5q-137 0 -199.5 82.5t-62.5 248.5v424h67v-417q0 -74 9.5 -126.5t32 -86t60 -49.5t93.5 -16q55 0 92.5 16t60 50t32.5 86.5t10 125.5v417h66v-424v0z" />
    <glyph glyph-name="V" unicode="V" horiz-adv-x="707" 
d="M373 0h-90l-253 743h71l199 -588q9 -26 15.5 -53t13.5 -51h2q6 25 13 51.5t16 52.5l198 588h69z" />
    <glyph glyph-name="W" unicode="W" horiz-adv-x="934" 
d="M693 0h-107l-123 492l-9.5 41l-9.5 41h-3l-10 -41l-10 -41l-122 -492h-108l-146 743h71l109 -572l10.5 -59l10.5 -59h3q7 29 13.5 59t13.5 59l114 460h106l115 -463l13.5 -57.5t12.5 -57.5h4l9.5 58.5t10.5 59.5l109 572h69z" />
    <glyph glyph-name="X" unicode="X" horiz-adv-x="704" 
d="M540 0l-219 324l-214 -324h-75l252 377l-250 366h81l215 -318l212 318h75l-251 -369l256 -374h-82z" />
    <glyph glyph-name="Y" unicode="Y" horiz-adv-x="651" 
d="M334 300v-300h-67v300l-240 443h73l150 -277l25.5 -49.5t24.5 -52.5h4q11 25 25.5 52l26.5 50l149 277h69z" />
    <glyph glyph-name="Z" unicode="Z" horiz-adv-x="654" 
d="M47 0v73l423 610h-407v60h479v-73l-422 -611h437v-59h-510z" />
    <glyph glyph-name="bracketleft" unicode="[" horiz-adv-x="431" 
d="M110 -208v951h218v-57h-153v-839h153v-55h-218z" />
    <glyph glyph-name="backslash" unicode="\" horiz-adv-x="479" 
d="M333 0l-304 743h63l305 -743h-64z" />
    <glyph glyph-name="bracketright" unicode="]" horiz-adv-x="431" 
d="M52 -208v55h153v840h-153v56h218v-951h-218z" />
    <glyph glyph-name="asciicircum" unicode="^" horiz-adv-x="746" 
d="M515 406l-168 276l-166 -276h-74l186 310h109l185 -310h-72z" />
    <glyph glyph-name="underscore" unicode="_" horiz-adv-x="625" 
d="M-9 -99v45h585v-45h-585z" />
    <glyph glyph-name="quoteleft" unicode="&#x2018;" horiz-adv-x="212" 
d="M90 544h-70l71 229h51z" />
    <glyph glyph-name="a" unicode="a" horiz-adv-x="581" 
d="M395 0v39q-29 -17 -74.5 -34.5t-106.5 -17.5q-80 0 -121 37.5t-41 118.5v15q0 52 16.5 84.5t48 50.5t77.5 24.5t106 6.5h92v46q0 40 -5.5 65.5t-21 40t-44 20t-73.5 5.5q-40 0 -76.5 -3t-82.5 -8v48q19 3 37 6.5t37.5 6.5t41.5 4.5t48 1.5q65 0 105 -11t62.5 -34.5
t30 -58.5t7.5 -83v-370h-63zM392 273h-92q-49 0 -84 -4.5t-57 -17t-32 -35t-10 -58.5v-19q0 -57 29.5 -79t80.5 -22q25 0 50 5t46.5 12.5t39.5 16t29 15.5v186z" />
    <glyph glyph-name="b" unicode="b" horiz-adv-x="609" 
d="M504 244q0 -69 -14.5 -118t-43.5 -80t-73.5 -45t-105.5 -14q-20 0 -39.5 0.5t-41.5 2t-47.5 3.5t-58.5 6v774h65v-248q38 18 77.5 25.5t71.5 7.5q108 0 159 -57t51 -187v-70zM438 314q0 53 -8.5 88.5t-26.5 57.5t-47 31t-69 9q-12 0 -29 -1.5t-36.5 -4.5t-39.5 -8.5
t-37 -13.5v-421q29 -3 60.5 -4.5t62.5 -1.5q44 0 76 9.5t53 32.5t31 61.5t10 95.5v70z" />
    <glyph glyph-name="c" unicode="c" horiz-adv-x="516" 
d="M421 4q-27 -6 -64 -11.5t-85 -5.5q-112 0 -164.5 61t-52.5 194v60q0 132 53 193.5t164 61.5q49 0 86.5 -6t62.5 -11v-50q-50 5 -83.5 7.5t-56.5 2.5q-39 0 -68.5 -8.5t-50 -31t-31 -60.5t-10.5 -98v-60q0 -61 10.5 -99.5t30.5 -60.5t50 -30.5t69 -8.5q21 0 55 2.5t85 8.5
v-50v0z" />
    <glyph glyph-name="d" unicode="d" horiz-adv-x="609" 
d="M416 0v31q-29 -16 -69.5 -30t-91.5 -14q-99 0 -149.5 58t-50.5 189v67q0 74 16 123t45.5 78.5t71 42t93.5 12.5q29 0 60.5 -2.5t72.5 -9.5v228h65v-773h-63zM414 490q-39 5 -73.5 8t-55.5 3q-41 0 -71.5 -8.5t-51 -31t-31 -61t-10.5 -99.5v-67q0 -103 34 -147t111 -44
q43 0 80 12.5t68 27.5v407z" />
    <glyph glyph-name="e" unicode="e" horiz-adv-x="609" 
d="M120 249v-12q0 -47 7.5 -82.5t28 -60.5t55.5 -37.5t91 -12.5q22 0 47 1t49.5 3.5l47.5 5t42 5.5v-52q-29 -7 -78 -13.5t-110 -6.5q-69 0 -116 16t-75.5 48.5t-41 82t-12.5 117.5v38q0 127 54 197.5t171 70.5q118 0 172 -70t54 -205v-33h-386zM438 313q0 36 -6.5 70
t-23.5 60t-48 41.5t-80 15.5q-50 0 -81 -16t-48 -42.5t-23.5 -60t-6.5 -68.5l-1 -9h318v9z" />
    <glyph glyph-name="f" unicode="f" horiz-adv-x="442" 
d="M193 488v-488h-66v488l-107 5v50h107v74q0 36 4.5 66t18.5 52.5t41.5 35t72.5 12.5q27 0 53.5 -3t44.5 -8v-46q-17 2 -42 3.5t-48 1.5q-26 0 -42 -6t-24 -19.5t-10.5 -35.5t-2.5 -53v-74h166v-55h-166z" />
    <glyph glyph-name="g" unicode="g" horiz-adv-x="610" 
d="M480 -20q0 -48 -9 -85.5t-32.5 -62.5t-64 -38t-103.5 -13q-29 0 -58 2t-54.5 4.5t-45.5 5.5t-31 5v48q45 -4 92.5 -6.5t96.5 -2.5q45 0 73 8t43.5 25t21.5 44t6 66v27q-18 -5 -55 -12.5t-75 -7.5q-57 0 -99.5 13t-71.5 43t-43.5 77.5t-14.5 116.5v70q0 128 56.5 189
t184.5 61q39 0 88 -4t95 -10v-563zM415 492q-20 3 -53 6t-65 3q-49 0 -82.5 -11t-54.5 -35t-30 -60.5t-9 -87.5v-70q0 -55 9 -92t29 -59.5t51.5 -32.5t75.5 -10q19 0 38 2t36.5 5t31.5 6t23 6v430z" />
    <glyph glyph-name="h" unicode="h" horiz-adv-x="630" 
d="M438 0v342q0 46 -6.5 76.5t-21 48.5t-37 25.5t-55.5 7.5q-49 0 -95 -15t-78 -31v-454h-65v773h65v-266q31 16 78 33t107 17q92 0 133 -51.5t41 -161.5v-344h-66z" />
    <glyph glyph-name="i" unicode="i" horiz-adv-x="286" 
d="M85 0v543h66v-543h-66zM152 773v-124h-67v94q1 8 5 15q4 5 11 10t21 5h30z" />
    <glyph glyph-name="j" unicode="j" horiz-adv-x="286" 
d="M151 -74q0 -39 -6 -66.5t-20 -45t-37.5 -25.5t-59.5 -8q-15 0 -34 1t-31 3v49q15 -1 30 -1.5t29 -0.5q20 0 32.5 5t19 16t9 29t2.5 44v617h66v-617zM152 773v-124h-67v94q1 8 5 15q4 5 11 10t21 5h30z" />
    <glyph glyph-name="k" unicode="k" horiz-adv-x="537" 
d="M386 0l-241 275v-275h-65v773h65v-478l240 248h86l-253 -257l255 -286h-87z" />
    <glyph glyph-name="l" unicode="l" horiz-adv-x="282" 
d="M84 0v773h65v-773h-65z" />
    <glyph glyph-name="m" unicode="m" horiz-adv-x="885" 
d="M693 0v363q0 32 -2.5 57.5t-12 43t-28.5 27t-52 9.5q-32 0 -71.5 -13t-81.5 -38q7 -35 7 -86v-363h-66v363q0 33 -2 58.5t-11 43t-27 26.5t-50 9q-35 0 -75 -15t-76 -36v-449h-65v543h65v-43q38 26 80 41.5t85 15.5q49 0 77.5 -16t43.5 -45q48 32 92.5 46.5t82.5 14.5
q55 0 85.5 -17.5t45.5 -45.5t18.5 -62.5t3.5 -68.5v-363h-66z" />
    <glyph glyph-name="n" unicode="n" horiz-adv-x="630" 
d="M438 0v344q0 43 -5.5 73t-18 48.5t-34 26.5t-54.5 8q-39 0 -84.5 -14t-96.5 -38v-448h-65v543h65v-44q45 24 91.5 41t95.5 17q52 0 85.5 -13.5t53 -40.5t26.5 -67t7 -92v-344h-66z" />
    <glyph glyph-name="o" unicode="o" horiz-adv-x="614" 
d="M508 243q0 -127 -55 -191.5t-171 -64.5t-171 64.5t-55 191.5v58q0 126 55 191t171 65t171 -65t55 -191v-58zM443 301q0 105 -38 151.5t-123 46.5t-123 -46.5t-38 -151.5v-58q0 -105 38 -152t123 -47t123 47t38 152v58z" />
    <glyph glyph-name="p" unicode="p" horiz-adv-x="610" 
d="M504 256q0 -77 -16.5 -128.5t-46.5 -82.5t-72.5 -44.5t-95.5 -13.5q-25 0 -59 3.5t-70 9.5v-209h-64v752h62v-39q35 23 79.5 38t89.5 15q97 0 145 -60t48 -201v-40zM439 296q0 57 -8 96t-24.5 62.5t-42.5 34t-62 10.5q-39 0 -77 -12.5t-81 -33.5v-398q79 -12 129 -12
q40 0 71 9.5t52 33.5t32 65.5t11 104.5v40z" />
    <glyph glyph-name="q" unicode="q" horiz-adv-x="609" 
d="M414 -209v230q-42 -19 -84 -26.5t-77 -7.5q-51 0 -88.5 14t-61.5 44.5t-36 80.5t-12 122v40q0 79 14.5 130.5t44 82.5t75 43.5t107.5 12.5q20 0 39 -0.5t40.5 -2t46.5 -4t57 -6.5v-753h-65zM414 494q-29 2 -63.5 3.5t-55.5 1.5q-45 0 -78 -8t-54.5 -31t-32 -64
t-10.5 -108v-40q0 -58 7.5 -97t25 -62.5t44.5 -33.5t66 -10q25 0 65 6t86 24v419z" />
    <glyph glyph-name="r" unicode="r" horiz-adv-x="411" 
d="M348 498q-23 0 -49 -3t-53 -9t-53.5 -15.5t-48.5 -22.5v-448h-64v543h64v-44q48 34 102.5 46t101.5 12v-59v0z" />
    <glyph glyph-name="s" unicode="s" horiz-adv-x="522" 
d="M428 134q0 -29 -9.5 -55.5t-32 -47t-60.5 -32.5t-95 -12q-27 0 -54 2t-50.5 5t-41.5 6.5t-28 6.5v51q13 -2 32 -4.5t42 -4.5t48.5 -4t49.5 -2q38 0 64 6.5t41.5 18t22 28t6.5 37.5q0 20 -5.5 35t-19 27.5t-37 25t-60.5 27.5l-39 15q-78 32 -115 68t-37 94q0 68 47.5 100
t146.5 32q51 0 95 -6.5t64 -12.5v-50q-38 5 -81 8.5t-75 3.5q-68 0 -99.5 -15t-31.5 -60q0 -19 5.5 -33.5t19 -26.5t34.5 -23t53 -24l39 -16q45 -19 76 -36t50 -36t27 -42t8 -54z" />
    <glyph glyph-name="t" unicode="t" horiz-adv-x="440" 
d="M362 -1q-17 -4 -44.5 -8t-53.5 -4q-69 0 -96 30t-27 105v366l-118 5v50h118v146h65v-146h156v-55h-156v-363q0 -26 2.5 -42.5t9 -26t19.5 -13t34 -3.5q20 0 46.5 1.5t44.5 3.5v-46v0z" />
    <glyph glyph-name="u" unicode="u" horiz-adv-x="630" 
d="M435 0v44q-50 -26 -97 -41.5t-96 -15.5q-50 0 -82 15t-50.5 42.5t-25.5 67t-7 87.5v344h64v-344q0 -44 5.5 -73.5t18.5 -48t34.5 -26.5t54.5 -8q41 0 85.5 14.5t95.5 38.5v447h65v-543h-65z" />
    <glyph glyph-name="v" unicode="v" horiz-adv-x="555" 
d="M298 0h-91l-187 543h71l122 -367l20.5 -67l18.5 -64h2q10 32 19 64t20 67l121 367h71z" />
    <glyph glyph-name="w" unicode="w" horiz-adv-x="860" 
d="M651 0h-94l-121 358q-11 32 -17.5 55.5l-11.5 40.5h-3l-11.5 -40.5t-17.5 -55.5l-121 -358h-94l-130 543h67l86 -369q7 -31 12.5 -62t9.5 -61h4q10 32 18.5 63t18.5 60l109 328h101l109 -328q10 -29 18.5 -60t18.5 -63h4q4 30 9.5 61t12.5 62l85 369h67z" />
    <glyph glyph-name="x" unicode="x" horiz-adv-x="563" 
d="M410 0l-158 223l-155 -223h-77l195 278l-185 265h77l157 -222l150 222h75l-191 -273l191 -270h-79z" />
    <glyph glyph-name="y" unicode="y" horiz-adv-x="570" 
d="M288 -43q-16 -45 -31 -78t-35.5 -54.5t-48 -32.5t-68.5 -11q-28 0 -53 2.5t-42 4.5v52q29 -2 49.5 -3t43.5 -1q25 0 41.5 6t29.5 20.5t24 39t25 62.5l13 37l-210 542h72l130 -348l20 -58.5l21 -63.5l18 63.5t19 59.5l119 347h70z" />
    <glyph glyph-name="z" unicode="z" horiz-adv-x="529" 
d="M42 0v72l319 416h-307v55h378v-67l-323 -422h324v-54h-391z" />
    <glyph glyph-name="braceleft" unicode="{" horiz-adv-x="451" 
d="M292 -209q-51 0 -82 9.5t-48.5 27t-23 42.5t-5.5 57v182q0 26 -3 45t-11 34t-21.5 27.5t-34.5 27.5v48q21 15 34.5 27.5t21.5 27.5t11 34t3 45v182q0 32 5.5 57.5t23 43t48.5 26.5t82 9h54v-56h-54q-32 0 -51 -4.5t-28.5 -14t-12 -24.5t-2.5 -37v-182q0 -58 -17 -94
t-58 -64q42 -29 58.5 -65t16.5 -93v-182q0 -22 2.5 -37.5t12 -25t28.5 -14t51 -4.5h55v-55h-55z" />
    <glyph glyph-name="bar" unicode="|" horiz-adv-x="332" 
d="M108 -209v952h65v-952h-65z" />
    <glyph glyph-name="braceright" unicode="}" horiz-adv-x="451" 
d="M338 243q-21 -15 -34.5 -27.5t-21.5 -27.5t-11 -34t-3 -45v-182q0 -32 -5.5 -57t-23 -42.5t-48.5 -27t-82 -9.5h-55v55h55q32 0 51 4.5t28.5 14t12 25t2.5 37.5v182q0 57 16.5 93t58.5 65q-41 28 -58 64t-17 94v182q0 22 -2.5 37t-12 24.5t-28.5 14t-51 4.5h-54v56h54
q51 0 82 -9t48.5 -26.5t23 -43t5.5 -57.5v-182q0 -26 3 -45t11 -34t21.5 -27.5t34.5 -27.5v-48v0z" />
    <glyph glyph-name="asciitilde" unicode="~" horiz-adv-x="746" 
d="M572 481q0 -31 -4.5 -56.5t-15.5 -44t-30.5 -28.5t-50.5 -10q-32 0 -59.5 12.5t-53.5 35.5l-58 51q-21 20 -36 30t-36 10q-33 0 -42 -23t-9 -65v-42h-54v42q0 32 5 58t17 44t32.5 28t51.5 10q30 0 52.5 -13t50.5 -38l56 -48q20 -18 39 -29t41 -11q34 0 42 23.5t8 63.5v43
h54v-43v0z" />
    <glyph glyph-name="exclamdown" unicode="&#xa1;" horiz-adv-x="281" 
d="M80 -219l7 570h58l6 -570h-71zM149 542v-127h-67v97q1 8 5 15q4 5 11 10t21 5h30z" />
    <glyph glyph-name="cent" unicode="&#xa2;" horiz-adv-x="528" 
d="M424 490q-49 5 -83 7.5t-57 2.5q-38 0 -68 -9t-50.5 -31t-31 -58t-10.5 -90v-80q0 -55 10.5 -91.5t31 -58t50 -30.5t68.5 -9q22 0 55.5 2.5t84.5 8.5v-50q-24 -5 -54 -10t-68 -7v-109h-60v111q-95 9 -139.5 69.5t-44.5 173.5v80q0 112 45 172.5t139 70.5v111h60v-110
q38 -2 68 -6.5t54 -9.5v-50z" />
    <glyph glyph-name="sterling" unicode="&#xa3;" horiz-adv-x="669" 
d="M552 682q-25 3 -75 7t-102 4q-51 0 -82.5 -9.5t-48.5 -31.5t-22.5 -58t-5.5 -89v-89h260v-56h-260v-166q0 -41 -10.5 -74t-33.5 -63h380v-57h-454v52q30 32 40.5 68t10.5 74v166h-82v56h82v89q0 63 9 109t33.5 77t68 46t111.5 15q60 0 107 -6t74 -11v-53z" />
    <glyph glyph-name="fraction" unicode="&#x2044;" horiz-adv-x="446" 
d="M-3 0h-67l473 743h67z" />
    <glyph glyph-name="yen" unicode="&#xa5;" horiz-adv-x="700" 
d="M357 259v-259h-67v259h-227v53h220l-62 116h-158v53h128l-141 262h73l150 -277l25.5 -49.5t24.5 -52.5h4q11 25 25.5 52l26.5 50l149 277h69l-142 -262h128v-53h-157l-63 -116h220v-53h-226z" />
    <glyph glyph-name="florin" unicode="&#x192;" horiz-adv-x="678" 
d="M566 698q-20 2 -39.5 3.5t-36.5 1.5q-24 0 -41.5 -4t-30 -16t-20 -33t-11.5 -55l-24 -175h178l-8 -55h-179l-47 -356q-6 -46 -19 -76t-32.5 -47.5t-46.5 -24.5t-60 -7q-25 0 -49.5 2.5t-43.5 7.5l7 47q19 -2 39 -3.5t39 -1.5q22 0 39 4t29 15t20 32t13 56l47 352h-156
l8 55h157l24 179q6 45 19 75t32.5 48t46.5 25.5t63 7.5q22 0 46.5 -2.5t42.5 -7.5z" />
    <glyph glyph-name="section" unicode="&#xa7;" horiz-adv-x="679" 
d="M101 -149q33 -4 88.5 -8.5t112.5 -4.5q89 0 130.5 33.5t41.5 101.5q0 27 -5.5 47.5t-21 38.5t-43.5 36t-73 41l-101 51q-70 36 -108 79.5t-38 110.5q0 25 6.5 53.5t23.5 52.5q-14 21 -22.5 46t-8.5 56q0 90 61 130t176 40q66 0 119 -6.5t81 -11.5v-56q-15 1 -36 3.5
t-47 4.5t-55.5 3.5t-59.5 1.5q-88 0 -128.5 -24.5t-40.5 -84.5q0 -25 6.5 -44.5t21 -36.5t38.5 -33t60 -34l97 -48q47 -23 79.5 -45t52.5 -45.5t28.5 -51t8.5 -60.5q0 -25 -6 -51.5t-23 -55.5q29 -48 29 -107q0 -88 -59.5 -142t-180.5 -54q-31 0 -62 2t-58 4.5t-49 5.5
t-35 6v56zM469 125q5 11 6.5 23.5t1.5 26.5q0 30 -5.5 50.5t-20 37.5t-39.5 32.5t-65 35.5l-97 48q-38 19 -58 33t-34 27q-5 -11 -8.5 -24.5t-3.5 -29.5q0 -31 6.5 -51.5t20.5 -36t36 -28.5t54 -29l98 -49q67 -33 108 -66z" />
    <glyph glyph-name="currency" unicode="&#xa4;" 
d="M516 137l-76 76q-26 -20 -57 -30t-63 -10t-63 9.5t-57 30.5l-77 -75l-45 45l76 76q-20 26 -30 57.5t-10 62.5q0 68 40 120l-76 76l46 45l76 -75q26 20 57 29.5t63 9.5t63 -9.5t58 -29.5l75 75l46 -45l-76 -75q19 -26 29.5 -57t10.5 -64q0 -67 -39 -121l75 -75zM471 379
q0 31 -11.5 58.5t-32 48.5t-48 33.5t-59.5 12.5q-30 0 -57.5 -12t-48 -32.5t-32.5 -48.5t-12 -60q0 -31 12 -59t32.5 -49t47.5 -33t58 -12q30 0 57.5 12t48 32.5t33 48.5t12.5 60z" />
    <glyph glyph-name="quotesingle" unicode="'" horiz-adv-x="175" 
d="M70 519h-50l19 240h66z" />
    <glyph glyph-name="quotedblleft" unicode="&#x201c;" horiz-adv-x="396" 
d="M273 544h-70l71 229h52zM142 773l-52 -229h-70l71 229h51z" />
    <glyph glyph-name="guillemotleft" unicode="&#xab;" horiz-adv-x="663" 
d="M56 285l159 206h78l-156 -206l156 -207h-78zM479 491h78l-158 -206l158 -207h-78l-161 207z" />
    <glyph glyph-name="guilsinglleft" unicode="&#x2039;" horiz-adv-x="400" 
d="M216 78l-160 207l160 206h78l-157 -206l157 -207h-78z" />
    <glyph glyph-name="guilsinglright" unicode="&#x203a;" horiz-adv-x="400" 
d="M134 78h-78l158 207l-158 206h78l161 -206z" />
    <glyph glyph-name="endash" unicode="&#x2013;" horiz-adv-x="548" 
d="M71 262v57h356v-57h-356z" />
    <glyph glyph-name="dagger" unicode="&#x2020;" horiz-adv-x="544" 
d="M275 495v-615h-65v615h-132v58h132v220h65v-220h144v-58h-144z" />
    <glyph glyph-name="daggerdbl" unicode="&#x2021;" horiz-adv-x="544" 
d="M275 277v-397h-65v397h-134v58h134v156h-134v58h134v221h65v-221h146v-58h-146v-156h146v-58h-146z" />
    <glyph glyph-name="periodcentered" unicode="&#xb7;" horiz-adv-x="263" 
d="M140 438v-108v-30h-29h-38v108q1 8 5 15q4 5 11 10t21 5h30z" />
    <glyph glyph-name="paragraph" unicode="&#xb6;" horiz-adv-x="762" 
d="M574 -201v888h-75v-888h-61v464h-57q-68 0 -126 10t-100 36t-65.5 72t-23.5 117v10q0 75 23.5 121t66.5 71.5t101.5 34.5t129.5 9h248v-945h-61z" />
    <glyph glyph-name="bullet" unicode="&#x2022;" horiz-adv-x="583" 
d="M398 369q0 -27 -10.5 -51t-28.5 -42t-42 -28.5t-51 -10.5t-51 10.5t-42 28.5t-28.5 42t-10.5 51t10.5 51t28.5 42t42 28.5t51 10.5t51 -10.5t42 -28.5t28.5 -42t10.5 -51z" />
    <glyph glyph-name="quotesinglbase" unicode="&#x201a;" horiz-adv-x="212" 
d="M72 -94h-52l52 228h70z" />
    <glyph glyph-name="quotedblbase" unicode="&#x201e;" horiz-adv-x="396" 
d="M73 134h70l-71 -229h-52zM204 -95l52 229h70l-71 -229h-51z" />
    <glyph glyph-name="quotedblright" unicode="&#x201d;" horiz-adv-x="396" 
d="M73 773h70l-71 -229h-52zM204 544l52 229h70l-71 -229h-51z" />
    <glyph glyph-name="guillemotright" unicode="&#xbb;" horiz-adv-x="663" 
d="M398 78h-78l156 207l-156 206h78l159 -206zM295 285l-161 -207h-78l158 207l-158 206h78z" />
    <glyph glyph-name="ellipsis" unicode="&#x2026;" horiz-adv-x="818" 
d="M351 0v136h66v-136h-66zM626 0v136h65v-136h-65zM143 136v-106v-30h-29h-38v106q1 8 5 15q4 5 11 10t21 5h30z" />
    <glyph glyph-name="perthousand" unicode="&#x2030;" horiz-adv-x="1464" 
d="M1358 189q0 -103 -44 -151.5t-122 -48.5t-122 48.5t-44 151.5v58q0 103 44 151t122 48t122 -48t44 -151v-58zM1299 247q0 44 -8 72.5t-22.5 45.5t-34 24t-42.5 7t-42.5 -7t-34 -24t-22.5 -45.5t-8 -72.5v-58q0 -44 8 -72.5t22.5 -45.5t34 -24t42.5 -7t42.5 7t34 24
t22.5 45.5t8 72.5v58zM959 189q0 -103 -44 -151.5t-122 -48.5t-122.5 48.5t-44.5 151.5v58q0 103 44.5 151t122.5 48t122 -48t44 -151v-58zM900 247q0 44 -8.5 72.5t-22.5 45.5t-34 24t-42 7q-23 0 -42.5 -7t-34 -24t-23 -45.5t-8.5 -72.5v-58q0 -44 8.5 -72.5t23 -45.5
t34 -24t42.5 -7q22 0 42 7t34 24t22.5 45.5t8.5 72.5v58zM305 0h-67l474 743h67zM391 497q0 -96 -39.5 -148.5t-126.5 -52.5q-86 0 -126 54t-40 147v56q0 94 39.5 147.5t126.5 53.5t126.5 -52t39.5 -149v-56zM332 553q0 85 -28 118t-79 33t-79 -34t-28 -117v-56
q0 -43 7 -71.5t21 -46t33.5 -25t45.5 -7.5q25 0 45 7.5t34 25t21 46t7 71.5v56z" />
    <glyph glyph-name="questiondown" unicode="&#xbf;" horiz-adv-x="503" 
d="M424 -213q-37 -9 -78 -14.5t-79 -5.5q-46 0 -83.5 7.5t-63.5 25.5t-40.5 47.5t-14.5 73.5v6q0 25 4.5 47.5t16.5 45t32 47t50 54.5q35 34 55 58.5t30.5 44.5t13 40t2.5 47v39h64v-39q0 -30 -3 -55t-14 -49.5t-32 -51.5t-56 -61q-30 -28 -48.5 -49.5t-29 -40.5t-14.5 -37
t-4 -40v-6q0 -29 9.5 -48t27.5 -29.5t44 -14.5t59 -4t73 3.5t79 8.5v-50zM333 543v-130h-66v100q1 8 5 15q4 5 11 10t21 5h29z" />
    <glyph glyph-name="grave" unicode="`" horiz-adv-x="481" 
d="M209 616l-148 154h80l135 -154h-67z" />
    <glyph glyph-name="acute" unicode="&#xb4;" horiz-adv-x="493" 
d="M223 616h-66l134 154h80z" />
    <glyph glyph-name="circumflex" unicode="&#x2c6;" horiz-adv-x="503" 
d="M340 616l-114 116l-112 -116h-67l138 154h84l138 -154h-67z" />
    <glyph glyph-name="tilde" unicode="&#x2dc;" horiz-adv-x="498" 
d="M414 737q0 -57 -18.5 -90t-70.5 -33q-27 0 -49 10.5t-47 33.5l-41 38q-19 18 -32 26t-30 8q-28 0 -35.5 -21.5t-7.5 -55.5v-34h-49v34q0 57 20.5 90.5t71.5 33.5q28 0 47.5 -10t44.5 -32l42 -39q18 -17 32 -26t32 -9q28 0 35 21t7 55v34h48v-34v0z" />
    <glyph glyph-name="macron" unicode="&#xaf;" horiz-adv-x="501" 
d="M54 664v52h343v-52h-343z" />
    <glyph glyph-name="breve" unicode="&#x2d8;" horiz-adv-x="495" 
d="M385 771q-3 -33 -12 -61.5t-28 -49.5t-48.5 -33t-73.5 -12t-74 12t-48.5 33t-27.5 49.5t-12 61.5h50q5 -55 29.5 -83t82.5 -28q57 0 81.5 28t30.5 83h50v0z" />
    <glyph glyph-name="dotaccent" unicode="&#x2d9;" horiz-adv-x="481" 
d="M253 770v-121h-65v91q1 8 5 15q4 5 11 10t21 5h28z" />
    <glyph glyph-name="dieresis" unicode="&#xa8;" horiz-adv-x="491" 
d="M306 642v119h59v-119h-59zM136 761v-119h-60v89q1 8 5 15q4 5 11 10t21 5h23z" />
    <glyph glyph-name="ring" unicode="&#x2da;" horiz-adv-x="495" 
d="M338 711q0 -57 -32.5 -82.5t-81.5 -25.5t-82.5 26t-33.5 82t33.5 82t82.5 26t81.5 -25.5t32.5 -82.5zM292 711q0 38 -20.5 52.5t-47.5 14.5q-29 0 -49 -14.5t-20 -52.5t20 -52.5t49 -14.5q27 0 47.5 14.5t20.5 52.5z" />
    <glyph glyph-name="cedilla" unicode="&#xb8;" horiz-adv-x="485" 
d="M145 -209h-69l121 141h82z" />
    <glyph glyph-name="hungarumlaut" unicode="&#x2dd;" horiz-adv-x="499" 
d="M330 614h-67l135 154h79zM289 768l-147 -154h-68l135 154h80z" />
    <glyph glyph-name="ogonek" unicode="&#x2db;" horiz-adv-x="495" 
d="M338 -207q-9 -3 -32.5 -6.5t-52.5 -3.5q-63 0 -92 25.5t-29 68.5q0 40 38.5 73.5t96.5 58.5l71 -9q-42 -19 -71 -34.5t-46.5 -30t-25 -28t-7.5 -27.5q0 -25 15 -39.5t56 -14.5q20 0 41 2t38 4v-39v0z" />
    <glyph glyph-name="caron" unicode="&#x2c7;" horiz-adv-x="503" 
d="M114 770l112 -117l114 117h67l-138 -154h-84l-138 154h67z" />
    <glyph glyph-name="emdash" unicode="&#x2014;" horiz-adv-x="687" 
d="M71 262v57h495v-57h-495z" />
    <glyph glyph-name="AE" unicode="&#xc6;" horiz-adv-x="1598" 
d="M337 683v-683h-67v683h-240v60h500v-60h-193zM934 0l-337 364v-364h-67v743h67v-353l341 353h87l-353 -365l354 -378h-92zM1095 0v743h67v-684h354v-59h-421z" />
    <glyph glyph-name="ordfeminine" unicode="&#xaa;" horiz-adv-x="445" 
d="M268 437v24q-17 -10 -46 -21t-68 -11q-48 0 -76 23t-28 71v10q0 33 12 52.5t33 30t50.5 13.5t65.5 3h55v22q0 22 -3.5 36.5t-13 23t-26.5 11.5t-45 3q-11 0 -25.5 -0.5t-29 -1.5t-27.5 -2t-21 -2v36q14 3 45.5 7.5t65.5 4.5q41 0 67 -6.5t41 -20.5t20.5 -36t5.5 -53v-217
h-52zM266 595h-55q-29 0 -49.5 -2t-33.5 -8.5t-19 -18.5t-6 -32v-13q0 -31 18 -40.5t47 -9.5q30 0 57.5 10t40.5 18v96z" />
    <glyph glyph-name="Lslash" unicode="&#x141;" horiz-adv-x="581" 
d="M-3 309l89 85v349h66v-282l119 118v-80l-119 -118v-322h354v-59h-420v315l-89 -86v80z" />
    <glyph glyph-name="Oslash" unicode="&#xd8;" horiz-adv-x="721" 
d="M616 332q0 -176 -73.5 -260.5t-206.5 -84.5q-120 0 -189 66l-37 -53h-70l69 98q-26 42 -40 100t-14 134v78q0 176 73.5 260.5t207.5 84.5q59 0 107 -17t83 -52l40 57h69l-71 -101q26 -42 39 -99.5t13 -132.5v-78zM488 633q-29 33 -67.5 47.5t-84.5 14.5q-47 0 -86 -14.5
t-67.5 -47.5t-44.5 -87.5t-16 -135.5v-78q0 -111 32 -173zM549 410q0 56 -8 97.5t-22 72.5l-334 -474q29 -32 67 -45.5t84 -13.5t85.5 14.5t67.5 47.5t44 87.5t16 135.5v78z" />
    <glyph glyph-name="OE" unicode="&#x152;" horiz-adv-x="1011" 
d="M903 0h-407q-41 -6 -75.5 -10t-78.5 -4q-137 0 -212 84t-75 254v94q0 169 75 253t212 84q40 0 75.5 -3.5t73.5 -8.5h412v-60h-361v-265h337v-61h-337v-298h361v-59zM475 684q-41 6 -72 8.5t-61 2.5q-48 0 -88 -14.5t-69.5 -47t-45.5 -85.5t-16 -130v-94q0 -77 16 -130
t45.5 -86t69.5 -47.5t88 -14.5q31 0 61 2t72 8v628z" />
    <glyph glyph-name="ordmasculine" unicode="&#xba;" horiz-adv-x="448" 
d="M348 584q0 -74 -37 -115.5t-112 -41.5t-112 41.5t-37 115.5v31q0 74 37 114.5t112 40.5t112 -40.5t37 -114.5v-31zM294 615q0 56 -22 83t-73 27q-50 0 -72.5 -27t-22.5 -83v-31q0 -56 22 -83.5t73 -27.5t73 27.5t22 83.5v31z" />
    <glyph glyph-name="ae" unicode="&#xe6;" horiz-adv-x="946" 
d="M827 7q-30 -7 -80.5 -13.5t-107.5 -6.5q-84 0 -134.5 16.5t-76.5 55.5q-48 -35 -100 -53.5t-117 -18.5q-75 0 -117.5 37t-42.5 116v21q0 51 16.5 82.5t48 49.5t77.5 24.5t106 6.5h93v46q0 39 -5.5 64.5t-21 40.5t-44 20.5t-73.5 5.5q-38 0 -77.5 -3t-83.5 -8v48l29 5.5
t40 6.5t47 5t49 2q47 0 79.5 -5.5t53.5 -16t33 -26.5t20 -36q24 38 68 60.5t113 22.5q60 0 102.5 -18.5t70 -52t40.5 -82t13 -108.5v-46h-387v-55q0 -36 8 -64.5t29 -48t56 -29.5t89 -10q53 0 100.5 5.5t86.5 12.5v-53zM778 319q0 33 -6.5 65.5t-24 58t-48.5 41.5t-80 16
q-50 0 -81 -16t-48.5 -41t-24 -55.5t-6.5 -60.5v-23h319v15zM392 273h-93q-49 0 -83.5 -4t-56.5 -16t-32 -34t-10 -58v-26q0 -54 29 -75.5t77 -21.5q26 0 51.5 5.5t47.5 13.5t40 17.5t30 18.5v180z" />
    <glyph glyph-name="dotlessi" unicode="&#x131;" horiz-adv-x="286" 
d="M85 0v543h66v-543h-66z" />
    <glyph glyph-name="lslash" unicode="&#x142;" horiz-adv-x="282" 
d="M84 0v328l-72 -70v80l72 70v365h66v-298l71 68v-80l-71 -69v-394h-66z" />
    <glyph glyph-name="oslash" unicode="&#xf8;" horiz-adv-x="614" 
d="M508 243q0 -127 -55 -191.5t-171 -64.5q-89 0 -144 41l-39 -53h-69l69 92q-43 62 -43 176v58q0 126 55 191t171 65q95 0 152 -48l44 59h69l-77 -101q38 -61 38 -166v-58zM443 301q0 66 -18 107l-250 -331q39 -33 107 -33q85 0 123 47t38 152v58zM396 460q-38 39 -114 39
q-85 0 -123 -46.5t-38 -151.5v-58q0 -77 21 -120z" />
    <glyph glyph-name="oe" unicode="&#x153;" horiz-adv-x="995" 
d="M506 249v-17q0 -45 8.5 -80.5t29 -59.5t55.5 -37t89 -13q53 0 100 5.5t87 12.5v-53q-29 -7 -80.5 -13.5t-108.5 -6.5q-81 0 -135 25t-80 80q-23 -48 -69.5 -77t-122.5 -29q-116 0 -171 66t-55 183v73q0 117 55 183t171 66q74 0 122 -29t72 -77q24 49 72 77.5t121 28.5
q59 0 102 -18.5t70.5 -52.5t41 -83t13.5 -109v-45h-387zM825 318q0 34 -6.5 66.5t-24 58t-48.5 41.5t-80 16q-50 0 -81 -16t-48.5 -40.5t-24 -55t-6.5 -60.5v-24h319v14zM440 308q0 98 -38 145t-123 47t-122.5 -47.5t-38.5 -144.5v-73q1 -97 38.5 -144.5t122.5 -47.5
t123 47.5t38 144.5v73z" />
    <glyph glyph-name="germandbls" unicode="&#xdf;" horiz-adv-x="661" 
d="M88 0v511q0 66 12 117.5t39 86.5t71 53.5t108 18.5q60 0 102 -15t68.5 -41.5t39 -63.5t12.5 -80v-9q0 -65 -29 -109t-86 -62q60 -16 95.5 -60.5t35.5 -114.5v-21q0 -51 -14 -91.5t-42.5 -69t-73.5 -44t-106 -15.5q-8 0 -22 0.5t-36 2.5v52q22 -2 34.5 -2h21.5
q89 0 131.5 40t42.5 128v20q0 69 -43 107.5t-141 38.5h-46v52h46q48 0 80 11t51.5 30.5t28 46.5t8.5 60v9q0 32 -7.5 58.5t-25.5 45t-48.5 29t-76.5 10.5q-45 0 -76.5 -11.5t-51 -38t-28 -68t-8.5 -101.5v-511h-66z" />
    <glyph glyph-name="one.superior" unicode="&#xb9;" horiz-adv-x="437" 
d="M61 335v44l106 2v340l-107 -34v49l122 42h45v-397l107 -2v-44h-273z" />
    <glyph glyph-name="logicalnot" unicode="&#xac;" horiz-adv-x="746" 
d="M515 252v225h-391v55h447v-280h-56z" />
    <glyph glyph-name="mu" unicode="&#xb5;" horiz-adv-x="677" 
d="M460 0v44q-50 -26 -97.5 -41.5t-96.5 -15.5q-35 0 -59.5 9t-39.5 29v-234h-66v752h65v-344q0 -44 5.5 -73.5t18.5 -48t34.5 -26.5t54.5 -8q41 0 85.5 14.5t95.5 38.5v447h65v-543h-65z" />
    <glyph glyph-name="trademark" unicode="&#x2122;" horiz-adv-x="917" 
d="M736 349v249q0 20 0.5 40.5t1.5 40.5h-1l-18.5 -33.5t-19.5 -31.5l-70 -110h-45l-69 109q-10 14 -20 31.5l-19 34.5h-1q1 -20 1.5 -40.5t0.5 -40.5v-249h-54v394h66l88 -143l14.5 -24.5l14.5 -25.5h1l14.5 25.5l14.5 24.5l88 143h67v-394h-55zM226 698v-349h-55v349h-129
v45h313v-45h-129z" />
    <glyph glyph-name="Eth" unicode="&#xd0;" horiz-adv-x="709" 
d="M604 328q0 -81 -18 -143t-56 -104t-99 -63.5t-146 -21.5q-55 0 -104 1t-96 3v357h-57v59h57v327q52 2 97.5 2.5t102.5 0.5q167 0 243 -84.5t76 -245.5v-88zM537 416q0 75 -16.5 127t-48.5 83.5t-80.5 45.5t-111.5 14q-38 0 -68.5 -0.5t-59.5 -1.5v-268h166v-59h-166v-298
q29 -2 61 -3t67 -1q63 0 111.5 14.5t80.5 46.5t48.5 84.5t16.5 127.5v88z" />
    <glyph glyph-name="onehalf" unicode="&#xbd;" horiz-adv-x="1020" 
d="M271 0h-66l473 743h67zM62 307v44l106 2v340l-107 -34v49l122 42h45v-397l107 -2v-44h-273zM625 435q17 4 56.5 8.5t80.5 4.5q80 0 120 -24t40 -82q0 -22 -5.5 -40.5t-20 -35t-38.5 -32.5t-60 -34q-39 -19 -62.5 -34t-36 -30.5t-17 -35t-4.5 -47.5v-5h238v-48h-298v44
q0 39 7 66.5t23.5 49t44 39.5t69.5 39q33 16 53 28.5t30.5 24t13.5 23.5t3 27q0 35 -25 48.5t-81 13.5q-17 0 -35.5 -1t-36.5 -2.5t-33.5 -3l-25.5 -2.5v41z" />
    <glyph glyph-name="plusminus" unicode="&#xb1;" horiz-adv-x="746" 
d="M101 0v55h492v-55h-492zM376 384v-223h-55v223h-224v55h224v223h55v-223h222v-55h-222z" />
    <glyph glyph-name="Thorn" unicode="&#xde;" horiz-adv-x="640" 
d="M550 390q0 -64 -20.5 -106t-58.5 -67t-91.5 -35t-119.5 -10h-53t-57 1v-173h-67v744h67v-129q27 1 55 1.5t57 0.5q66 0 119 -9.5t90.5 -33.5t58 -65.5t20.5 -105.5v-13zM483 403q0 46 -13.5 76t-41 47t-69 24t-97.5 7q-32 0 -60.5 -1t-51.5 -2v-322q30 -1 57.5 -1h52.5
q57 0 98.5 7.5t69.5 26t41.5 49t13.5 76.5v13z" />
    <glyph glyph-name="onequarter" unicode="&#xbc;" horiz-adv-x="938" 
d="M271 0h-66l473 743h67zM62 307v44l106 2v340l-107 -34v49l122 42h45v-397l107 -2v-44h-273zM702 0v117h-225v49l226 275h59v-279h72v-45h-72v-117h-60zM704 372l-170 -210h170v210z" />
    <glyph glyph-name="divide" unicode="&#xf7;" horiz-adv-x="746" 
d="M314 109v132h67v-132h-67zM590 363h-485v55h485v-55zM381 661v-131h-67v101q1 8 5 15q4 5 11 10t21 5h30z" />
    <glyph glyph-name="brokenbar" unicode="&#xa6;" horiz-adv-x="332" 
d="M108 -209v392h65v-392h-65zM173 351h-65v392h65v-392z" />
    <glyph glyph-name="degree" unicode="&#xb0;" horiz-adv-x="497" 
d="M398 581q0 -36 -13.5 -67.5t-37 -55t-55.5 -36.5t-68 -13t-67.5 13t-55 36.5t-37 55t-13.5 67.5t13.5 68t37 55t55 36.5t67.5 13.5t68 -13.5t55.5 -36.5t37 -55t13.5 -68zM342 581q0 26 -9.5 48t-25.5 37.5t-37.5 24.5t-45.5 9t-45.5 -9t-37.5 -24.5t-25.5 -37.5
t-9.5 -48t9.5 -47.5t25.5 -37.5t37.5 -24.5t45.5 -8.5t45.5 8.5t37.5 24.5t25.5 37.5t9.5 47.5z" />
    <glyph glyph-name="thorn" unicode="&#xfe;" horiz-adv-x="610" 
d="M80 -209v982h65v-268q36 23 77 37.5t87 14.5q100 0 147.5 -60t47.5 -192v-60q0 -72 -16.5 -121t-46.5 -79.5t-72.5 -44t-94.5 -13.5q-26 0 -57 3.5t-72 9.5v-209h-65zM439 305q0 105 -32 149.5t-105 44.5q-39 0 -77 -12.5t-80 -33.5v-398q39 -5 73.5 -8.5t54.5 -3.5
q40 0 71 10t52 33t32 62t11 97v60z" />
    <glyph glyph-name="threequarters" unicode="&#xbe;" horiz-adv-x="967" 
d="M275 0h-67l474 743h66zM58 742l20 3.5t32 4.5t38.5 3.5t39.5 1.5q85 0 126.5 -24.5t41.5 -88.5v-6q0 -32 -14 -60t-49 -42q37 -13 50 -40t13 -58v-8q0 -69 -40.5 -99.5t-127.5 -30.5q-20 0 -40.5 1.5t-38.5 3.5t-31.5 4t-19.5 3v42q18 -2 54 -5t71 -3q60 0 86.5 17.5
t26.5 67.5v8q0 15 -2.5 29t-11.5 24t-26 16t-45 6h-135v45h136q28 0 44.5 6.5t25.5 17.5t11.5 24.5t2.5 28.5v5q0 39 -24 54.5t-88 15.5q-17 0 -35 -1t-35 -2.5t-32 -2.5t-24 -2v41zM726 0v117h-225v49l226 275h59v-279h72v-45h-72v-117h-60zM728 372l-170 -210h170v210z
" />
    <glyph glyph-name="two.superior" unicode="&#xb2;" horiz-adv-x="471" 
d="M65 770q17 4 56.5 8.5t80.5 4.5q80 0 120 -24t40 -82q0 -22 -5.5 -40.5t-20 -35t-38.5 -32.5t-60 -34q-39 -19 -62.5 -34t-36 -30.5t-17 -35t-4.5 -47.5v-5h238v-48h-298v44q0 39 7 66.5t23.5 49t44 39.5t69.5 39q33 16 53 28.5t30.5 24t13.5 23.5t3 27q0 35 -25 48.5
t-81 13.5q-17 0 -35.5 -1t-36.5 -2.5t-33.5 -3l-25.5 -2.5v41z" />
    <glyph glyph-name="registered" unicode="&#xae;" horiz-adv-x="724" 
d="M603 478q0 -63 -19 -115t-54.5 -89t-85 -57.5t-109.5 -20.5t-109.5 20.5t-84.5 57.5t-54 89t-19 115t19 115t54 89t84.5 57.5t109.5 20.5t109.5 -20.5t85 -57.5t54.5 -89t19 -115zM557 478q0 55 -15.5 99t-44 75t-70 48t-92.5 17t-92.5 -17t-70 -48t-44 -75t-15.5 -99
t15.5 -99.5t44 -75.5t70 -48t92.5 -17t92.5 17t70 48t44 75.5t15.5 99.5zM410 329l-80 124h-51v-124h-46v317q26 1 42.5 1.5t39.5 0.5q59 0 95 -19.5t36 -74.5v-3q0 -38 -18 -60t-49 -30l87 -132h-56zM398 554q0 35 -21 45t-62 10h-36v-119h41q38 0 58 13t20 48v3z" />
    <glyph glyph-name="minus" unicode="&#x2212;" horiz-adv-x="746" 
d="M109 364v55h476v-55h-476z" />
    <glyph glyph-name="eth" unicode="&#xf0;" horiz-adv-x="614" 
d="M508 236q0 -118 -55 -183.5t-171 -65.5t-171 65.5t-55 183.5v64q0 118 55 183.5t171 65.5q46 0 80 -14.5t57 -39.5q-17 65 -48 110.5t-84 74.5l-137 -90l-26 35l113 78q-30 11 -64 16t-69 6q-10 2 -26 0v53h30q51 -1 96 -9.5t87 -26.5l83 53l28 -35l-64 -43
q88 -56 129 -159.5t41 -257.5v-64zM443 300q0 98 -38 145t-123 47t-123 -47t-38 -145v-64q0 -97 38 -144.5t123 -47.5t123 47t38 145v64z" />
    <glyph glyph-name="multiply" unicode="&#xd7;" horiz-adv-x="746" 
d="M511 189l-163 163l-165 -165l-38 38l165 166l-166 165l38 38l166 -165l164 165l39 -39l-165 -165l164 -163z" />
    <glyph glyph-name="three.superior" unicode="&#xb3;" horiz-adv-x="467" 
d="M191 326q-20 0 -41 1.5t-39 3.5t-31.5 4t-19.5 3v42q9 -1 23 -2t31 -2.5t35.5 -2.5t36.5 -1q59 0 85.5 17.5t26.5 67.5v8q0 15 -2.5 29t-11.5 24t-25.5 16t-44.5 6h-135v45h135q28 0 44.5 6.5t25.5 17.5t11.5 24.5t2.5 28.5v5q0 39 -24 54.5t-88 15.5q-17 0 -35 -1
t-35 -2.5t-32 -2.5t-24 -2v41l20 3.5t32 4.5t38.5 3.5t40.5 1.5q85 0 126 -24.5t41 -88.5v-6q0 -32 -14 -60t-49 -42q38 -13 50.5 -40t12.5 -58v-8q0 -69 -40.5 -99.5t-126.5 -30.5z" />
    <glyph glyph-name="copyright" unicode="&#xa9;" horiz-adv-x="887" 
d="M767 377q0 -87 -26.5 -154.5t-73 -114t-110.5 -70.5t-140 -24t-140 24t-111 70.5t-73.5 114t-26.5 154.5q0 86 26.5 153.5t73.5 114t111 71t140 24.5t140 -24.5t110.5 -71t73 -114t26.5 -153.5zM714 377q0 73 -22 131.5t-61.5 98.5t-94 61.5t-119.5 21.5t-119.5 -21.5
t-93.5 -61.5t-61 -98.5t-22 -131.5q0 -74 22 -132t61 -98.5t93.5 -62t119.5 -21.5t119.5 21.5t94 62t61.5 98.5t22 132zM423 162q-88 0 -134 47.5t-46 139.5v55q0 94 46 140.5t134 46.5q31 0 63.5 -3t45.5 -6v-48q-28 3 -54.5 5t-52.5 2q-67 0 -94.5 -31.5t-27.5 -105.5v-55
q0 -74 27.5 -105.5t94.5 -31.5q26 0 52.5 1.5t54.5 5.5v-48q-13 -4 -45.5 -6.5t-63.5 -2.5z" />
    <glyph glyph-name="Aacute" unicode="&#xc1;" horiz-adv-x="693" 
d="M548 0l-87 263h-282l-88 -263h-68l252 743h93l251 -743h-71zM356 573q-19 55 -32 115h-7q-15 -60 -32 -115l-86 -249h241zM328 789h-67l134 154h80z" />
    <glyph glyph-name="Acircumflex" unicode="&#xc2;" horiz-adv-x="693" 
d="M548 0l-87 263h-282l-88 -263h-68l252 743h93l251 -743h-71zM356 573q-19 55 -32 115h-7q-15 -60 -32 -115l-86 -249h241zM433 789l-113 116l-113 -116h-67l138 154h84l138 -154h-67z" />
    <glyph glyph-name="Adieresis" unicode="&#xc4;" horiz-adv-x="693" 
d="M548 0l-87 263h-282l-88 -263h-68l252 743h93l251 -743h-71zM356 573q-19 55 -32 115h-7q-15 -60 -32 -115l-86 -249h241zM405 809v119h60v-119h-60zM236 928v-119h-60v89q1 8 5 15q4 5 11 10t21 5h23z" />
    <glyph glyph-name="Agrave" unicode="&#xc0;" horiz-adv-x="693" 
d="M548 0l-87 263h-282l-88 -263h-68l252 743h93l251 -743h-71zM356 573q-19 55 -32 115h-7q-15 -60 -32 -115l-86 -249h241zM332 789l-147 154h80l134 -154h-67z" />
    <glyph glyph-name="Aring" unicode="&#xc5;" horiz-adv-x="693" 
d="M548 0l-87 263h-282l-88 -263h-68l252 743h93l251 -743h-71zM356 573q-19 55 -32 115h-7q-15 -60 -32 -115l-86 -249h241zM436 879q0 -57 -32.5 -82.5t-81.5 -25.5t-82.5 26t-33.5 82t33.5 82t82.5 26t81.5 -25.5t32.5 -82.5zM391 879q0 38 -21 52.5t-48 14.5
q-28 0 -48.5 -14.5t-20.5 -52.5t20.5 -52.5t48.5 -14.5q27 0 48 14.5t21 52.5z" />
    <glyph glyph-name="Atilde" unicode="&#xc3;" horiz-adv-x="693" 
d="M548 0l-87 263h-282l-88 -263h-68l252 743h93l251 -743h-71zM356 573q-19 55 -32 115h-7q-15 -60 -32 -115l-86 -249h241zM511 908q0 -57 -19 -90.5t-71 -33.5q-27 0 -49 11t-47 33l-41 39q-18 17 -31 25t-31 8q-28 0 -35.5 -21t-7.5 -55v-34h-48v34q0 57 20 90t71 33
q28 0 47.5 -9.5t44.5 -31.5l42 -39q18 -17 32 -26t32 -9q28 0 35.5 21t7.5 55v34h48v-34z" />
    <glyph glyph-name="Ccedilla" unicode="&#xc7;" horiz-adv-x="600" 
d="M520 2q-19 -3 -67 -9t-106 -6q-66 0 -120 16.5t-92.5 56t-59 105.5t-20.5 164v85q0 98 20.5 163.5t59 105t92.5 56t120 16.5q56 0 103.5 -6t69.5 -10v-55q-31 3 -78 7t-95 4q-57 0 -99.5 -15t-70.5 -48t-41.5 -86.5t-13.5 -131.5v-85q0 -78 13.5 -131.5t41.5 -87
t70.5 -48.5t99.5 -15q50 0 96 4t77 7v-56zM241 -209h-68l121 141h82z" />
    <glyph glyph-name="Eacute" unicode="&#xc9;" horiz-adv-x="618" 
d="M85 0v743h428v-60h-361v-265h337v-61h-337v-298h361v-59h-428zM318 789h-66l134 154h80z" />
    <glyph glyph-name="Ecircumflex" unicode="&#xca;" horiz-adv-x="618" 
d="M85 0v743h428v-60h-361v-265h337v-61h-337v-298h361v-59h-428zM414 789l-113 116l-113 -116h-67l138 154h84l138 -154h-67z" />
    <glyph glyph-name="Edieresis" unicode="&#xcb;" horiz-adv-x="618" 
d="M85 0v743h428v-60h-361v-265h337v-61h-337v-298h361v-59h-428zM386 808v119h59v-119h-59zM216 927v-119h-60v89q1 8 5 15q4 5 11 10t21 5h23z" />
    <glyph glyph-name="Egrave" unicode="&#xc8;" horiz-adv-x="618" 
d="M85 0v743h428v-60h-361v-265h337v-61h-337v-298h361v-59h-428zM285 789l-147 154h79l135 -154h-67z" />
    <glyph glyph-name="Iacute" unicode="&#xcd;" horiz-adv-x="290" 
d="M87 0v743h67v-743h-67zM124 788h-67l134 154h80z" />
    <glyph glyph-name="Icircumflex" unicode="&#xce;" horiz-adv-x="290" 
d="M87 0v743h67v-743h-67zM233 789l-113 116l-113 -116h-67l138 154h84l138 -154h-67z" />
    <glyph glyph-name="Idieresis" unicode="&#xcf;" horiz-adv-x="290" 
d="M87 0v743h67v-743h-67zM206 809v119h59v-119h-59zM36 928v-119h-60v89q1 8 5 15q4 5 11 10t21 5h23z" />
    <glyph glyph-name="Igrave" unicode="&#xcc;" horiz-adv-x="290" 
d="M87 0v743h67v-743h-67zM134 789l-148 154h80l135 -154h-67z" />
    <glyph glyph-name="Ntilde" unicode="&#xd1;" horiz-adv-x="742" 
d="M512 -1l-313 577l-26.5 50.5l-26.5 53.5h-1q3 -62 3 -128v-552h-63v743h95l314 -571l25.5 -50l25.5 -52h1q-2 35 -2.5 68t-0.5 62v543h64v-744h-95zM536 907q0 -57 -18.5 -90.5t-70.5 -33.5q-27 0 -49 10.5t-47 33.5l-41 38q-19 18 -32 26t-30 8q-28 0 -35.5 -21
t-7.5 -56v-34h-49v34q0 57 20.5 90.5t71.5 33.5q28 0 47.5 -9.5t44.5 -32.5l42 -39q18 -17 32 -25.5t32 -8.5q28 0 35 20.5t7 55.5v33h48v-33z" />
    <glyph glyph-name="Oacute" unicode="&#xd3;" horiz-adv-x="721" 
d="M616 332q0 -176 -73.5 -260.5t-206.5 -84.5q-134 0 -207.5 84.5t-73.5 260.5v78q0 176 73.5 260.5t207.5 84.5q133 0 206.5 -84.5t73.5 -260.5v-78zM549 410q0 81 -16 135.5t-44 87.5t-67.5 47.5t-85.5 14.5q-47 0 -86 -14.5t-67.5 -47.5t-44.5 -87.5t-16 -135.5v-78
q0 -81 16 -135.5t44.5 -87.5t67.5 -47.5t86 -14.5q46 0 85.5 14.5t67.5 47.5t44 87.5t16 135.5v78zM338 789h-67l135 154h79z" />
    <glyph glyph-name="Ocircumflex" unicode="&#xd4;" horiz-adv-x="721" 
d="M616 332q0 -176 -73.5 -260.5t-206.5 -84.5q-134 0 -207.5 84.5t-73.5 260.5v78q0 176 73.5 260.5t207.5 84.5q133 0 206.5 -84.5t73.5 -260.5v-78zM549 410q0 81 -16 135.5t-44 87.5t-67.5 47.5t-85.5 14.5q-47 0 -86 -14.5t-67.5 -47.5t-44.5 -87.5t-16 -135.5v-78
q0 -81 16 -135.5t44.5 -87.5t67.5 -47.5t86 -14.5q46 0 85.5 14.5t67.5 47.5t44 87.5t16 135.5v78zM448 788l-113 117l-113 -117h-67l138 154h84l138 -154h-67z" />
    <glyph glyph-name="Odieresis" unicode="&#xd6;" horiz-adv-x="721" 
d="M616 332q0 -176 -73.5 -260.5t-206.5 -84.5q-134 0 -207.5 84.5t-73.5 260.5v78q0 176 73.5 260.5t207.5 84.5q133 0 206.5 -84.5t73.5 -260.5v-78zM549 410q0 81 -16 135.5t-44 87.5t-67.5 47.5t-85.5 14.5q-47 0 -86 -14.5t-67.5 -47.5t-44.5 -87.5t-16 -135.5v-78
q0 -81 16 -135.5t44.5 -87.5t67.5 -47.5t86 -14.5q46 0 85.5 14.5t67.5 47.5t44 87.5t16 135.5v78zM421 810v119h59v-119h-59zM251 929v-119h-60v89q1 8 5 15q4 5 11 10t21 5h23z" />
    <glyph glyph-name="Ograve" unicode="&#xd2;" horiz-adv-x="721" 
d="M616 332q0 -176 -73.5 -260.5t-206.5 -84.5q-134 0 -207.5 84.5t-73.5 260.5v78q0 176 73.5 260.5t207.5 84.5q133 0 206.5 -84.5t73.5 -260.5v-78zM549 410q0 81 -16 135.5t-44 87.5t-67.5 47.5t-85.5 14.5q-47 0 -86 -14.5t-67.5 -47.5t-44.5 -87.5t-16 -135.5v-78
q0 -81 16 -135.5t44.5 -87.5t67.5 -47.5t86 -14.5q46 0 85.5 14.5t67.5 47.5t44 87.5t16 135.5v78zM336 789l-147 154h79l135 -154h-67z" />
    <glyph glyph-name="Otilde" unicode="&#xd5;" horiz-adv-x="721" 
d="M616 332q0 -176 -73.5 -260.5t-206.5 -84.5q-134 0 -207.5 84.5t-73.5 260.5v78q0 176 73.5 260.5t207.5 84.5q133 0 206.5 -84.5t73.5 -260.5v-78zM549 410q0 81 -16 135.5t-44 87.5t-67.5 47.5t-85.5 14.5q-47 0 -86 -14.5t-67.5 -47.5t-44.5 -87.5t-16 -135.5v-78
q0 -81 16 -135.5t44.5 -87.5t67.5 -47.5t86 -14.5q46 0 85.5 14.5t67.5 47.5t44 87.5t16 135.5v78zM525 908q0 -57 -18.5 -90.5t-70.5 -33.5q-27 0 -49 10.5t-47 33.5l-41 38q-19 18 -32 26t-30 8q-28 0 -35.5 -21t-7.5 -56v-34h-49v34q0 57 20.5 90.5t71.5 33.5
q28 0 47.5 -9.5t44.5 -32.5l42 -39q18 -17 32 -25.5t32 -8.5q28 0 35 20.5t7 55.5v33h48v-33z" />
    <glyph glyph-name="Scaron" unicode="&#x160;" horiz-adv-x="622" 
d="M517 183q0 -196 -240 -196q-33 0 -64.5 2t-59 4.5t-49 5.5t-33.5 6v53q38 -5 90.5 -9t115.5 -4q82 0 127 31t45 107q0 28 -7 49t-22.5 38.5t-40.5 33t-62 33.5l-101 47q-38 18 -67.5 37t-50.5 42.5t-32 52.5t-11 67q0 90 60 131t176 41q31 0 61.5 -2t57 -4.5t48 -5.5
t34.5 -6v-54q-16 2 -39 4t-49.5 4t-55 3.5t-55.5 1.5q-80 0 -125.5 -24.5t-45.5 -88.5q0 -26 7.5 -45.5t22.5 -36t38.5 -31.5t55.5 -30l101 -46q43 -21 75 -41.5t53 -45t31.5 -54.5t10.5 -70zM172 943l112 -117l114 117h67l-138 -154h-84l-138 154h67z" />
    <glyph glyph-name="Uacute" unicode="&#xda;" horiz-adv-x="733" 
d="M603 319q0 -166 -62.5 -248.5t-198.5 -82.5q-137 0 -199.5 82.5t-62.5 248.5v424h67v-417q0 -74 9.5 -126.5t32 -86t60 -49.5t93.5 -16q55 0 92.5 16t60 50t32.5 86.5t10 125.5v417h66v-424zM356 790h-67l134 154h80z" />
    <glyph glyph-name="Ucircumflex" unicode="&#xdb;" horiz-adv-x="733" 
d="M603 319q0 -166 -62.5 -248.5t-198.5 -82.5q-137 0 -199.5 82.5t-62.5 248.5v424h67v-417q0 -74 9.5 -126.5t32 -86t60 -49.5t93.5 -16q55 0 92.5 16t60 50t32.5 86.5t10 125.5v417h66v-424zM455 789l-113 116l-113 -116h-67l138 154h84l138 -154h-67z" />
    <glyph glyph-name="Udieresis" unicode="&#xdc;" horiz-adv-x="733" 
d="M603 319q0 -166 -62.5 -248.5t-198.5 -82.5q-137 0 -199.5 82.5t-62.5 248.5v424h67v-417q0 -74 9.5 -126.5t32 -86t60 -49.5t93.5 -16q55 0 92.5 16t60 50t32.5 86.5t10 125.5v417h66v-424zM425 809v119h60v-119h-60zM256 928v-119h-60v89q1 8 5 15q4 5 11 10t21 5h23z
" />
    <glyph glyph-name="Ugrave" unicode="&#xd9;" horiz-adv-x="733" 
d="M603 319q0 -166 -62.5 -248.5t-198.5 -82.5q-137 0 -199.5 82.5t-62.5 248.5v424h67v-417q0 -74 9.5 -126.5t32 -86t60 -49.5t93.5 -16q55 0 92.5 16t60 50t32.5 86.5t10 125.5v417h66v-424zM331 789l-147 154h79l135 -154h-67z" />
    <glyph glyph-name="Yacute" unicode="&#xdd;" horiz-adv-x="651" 
d="M334 300v-300h-67v300l-240 443h73l150 -277l25.5 -49.5t24.5 -52.5h4q11 25 25.5 52l26.5 50l149 277h69zM326 789h-67l134 154h80z" />
    <glyph glyph-name="Ydieresis" unicode="&#x178;" horiz-adv-x="651" 
d="M334 300v-300h-67v300l-240 443h73l150 -277l25.5 -49.5t24.5 -52.5h4q11 25 25.5 52l26.5 50l149 277h69zM387 809v119h60v-119h-60zM218 928v-119h-60v89q1 8 5 15q4 5 11 10t21 5h23z" />
    <glyph glyph-name="Zcaron" unicode="&#x17d;" horiz-adv-x="654" 
d="M47 0v73l423 610h-407v60h479v-73l-422 -611h437v-59h-510zM199 943l112 -117l114 117h67l-138 -154h-84l-138 154h67z" />
    <glyph glyph-name="aacute" unicode="&#xe1;" horiz-adv-x="581" 
d="M395 0v39q-29 -17 -74.5 -34.5t-106.5 -17.5q-80 0 -121 37.5t-41 118.5v15q0 52 16.5 84.5t48 50.5t77.5 24.5t106 6.5h92v46q0 40 -5.5 65.5t-21 40t-44 20t-73.5 5.5q-40 0 -76.5 -3t-82.5 -8v48q23 5 67 12t97 7q65 0 105 -11t62.5 -34.5t30 -58.5t7.5 -83v-370h-63z
M392 273h-92q-49 0 -84 -4.5t-57 -17t-32 -35t-10 -58.5v-19q0 -57 29.5 -79t80.5 -22q25 0 50 5t46.5 12.5t39.5 16t29 15.5v186zM284 616h-66l134 154h80z" />
    <glyph glyph-name="acircumflex" unicode="&#xe2;" horiz-adv-x="581" 
d="M395 0v39q-29 -17 -74.5 -34.5t-106.5 -17.5q-80 0 -121 37.5t-41 118.5v15q0 52 16.5 84.5t48 50.5t77.5 24.5t106 6.5h92v46q0 40 -5.5 65.5t-21 40t-44 20t-73.5 5.5q-40 0 -76.5 -3t-82.5 -8v48q23 5 67 12t97 7q65 0 105 -11t62.5 -34.5t30 -58.5t7.5 -83v-370h-63z
M392 273h-92q-49 0 -84 -4.5t-57 -17t-32 -35t-10 -58.5v-19q0 -57 29.5 -79t80.5 -22q25 0 50 5t46.5 12.5t39.5 16t29 15.5v186zM380 616l-114 116l-112 -116h-67l138 154h84l138 -154h-67z" />
    <glyph glyph-name="adieresis" unicode="&#xe4;" horiz-adv-x="581" 
d="M395 0v39q-29 -17 -74.5 -34.5t-106.5 -17.5q-80 0 -121 37.5t-41 118.5v15q0 52 16.5 84.5t48 50.5t77.5 24.5t106 6.5h92v46q0 40 -5.5 65.5t-21 40t-44 20t-73.5 5.5q-40 0 -76.5 -3t-82.5 -8v48q23 5 67 12t97 7q65 0 105 -11t62.5 -34.5t30 -58.5t7.5 -83v-370h-63z
M392 273h-92q-49 0 -84 -4.5t-57 -17t-32 -35t-10 -58.5v-19q0 -57 29.5 -79t80.5 -22q25 0 50 5t46.5 12.5t39.5 16t29 15.5v186zM352 642v119h60v-119h-60zM183 761v-119h-61v89q1 8 5 15q4 5 11 10t21 5h24z" />
    <glyph glyph-name="agrave" unicode="&#xe0;" horiz-adv-x="581" 
d="M395 0v39q-29 -17 -74.5 -34.5t-106.5 -17.5q-80 0 -121 37.5t-41 118.5v15q0 52 16.5 84.5t48 50.5t77.5 24.5t106 6.5h92v46q0 40 -5.5 65.5t-21 40t-44 20t-73.5 5.5q-40 0 -76.5 -3t-82.5 -8v48q23 5 67 12t97 7q65 0 105 -11t62.5 -34.5t30 -58.5t7.5 -83v-370h-63z
M392 273h-92q-49 0 -84 -4.5t-57 -17t-32 -35t-10 -58.5v-19q0 -57 29.5 -79t80.5 -22q25 0 50 5t46.5 12.5t39.5 16t29 15.5v186zM261 616l-147 154h80l134 -154h-67z" />
    <glyph glyph-name="aring" unicode="&#xe5;" horiz-adv-x="581" 
d="M395 0v39q-29 -17 -74.5 -34.5t-106.5 -17.5q-80 0 -121 37.5t-41 118.5v15q0 52 16.5 84.5t48 50.5t77.5 24.5t106 6.5h92v46q0 40 -5.5 65.5t-21 40t-44 20t-73.5 5.5q-40 0 -76.5 -3t-82.5 -8v48q23 5 67 12t97 7q65 0 105 -11t62.5 -34.5t30 -58.5t7.5 -83v-370h-63z
M392 273h-92q-49 0 -84 -4.5t-57 -17t-32 -35t-10 -58.5v-19q0 -57 29.5 -79t80.5 -22q25 0 50 5t46.5 12.5t39.5 16t29 15.5v186zM388 708q0 -57 -32.5 -82.5t-80.5 -25.5q-50 0 -83 26t-33 82t33 81.5t83 25.5q48 0 80.5 -25.5t32.5 -81.5zM343 708q0 38 -20.5 52
t-47.5 14q-29 0 -49.5 -14t-20.5 -52t20.5 -52.5t49.5 -14.5q27 0 47.5 14.5t20.5 52.5z" />
    <glyph glyph-name="atilde" unicode="&#xe3;" horiz-adv-x="581" 
d="M395 0v39q-29 -17 -74.5 -34.5t-106.5 -17.5q-80 0 -121 37.5t-41 118.5v15q0 52 16.5 84.5t48 50.5t77.5 24.5t106 6.5h92v46q0 40 -5.5 65.5t-21 40t-44 20t-73.5 5.5q-40 0 -76.5 -3t-82.5 -8v48q23 5 67 12t97 7q65 0 105 -11t62.5 -34.5t30 -58.5t7.5 -83v-370h-63z
M392 273h-92q-49 0 -84 -4.5t-57 -17t-32 -35t-10 -58.5v-19q0 -57 29.5 -79t80.5 -22q25 0 50 5t46.5 12.5t39.5 16t29 15.5v186zM457 737q0 -57 -19 -90t-71 -33q-27 0 -49 10.5t-47 33.5l-41 38q-18 18 -31 26t-31 8q-28 0 -35.5 -21.5t-7.5 -55.5v-34h-48v34
q0 57 20 90.5t71 33.5q28 0 47.5 -10t44.5 -32l42 -39q18 -17 32 -26t32 -9q28 0 35.5 21t7.5 55v34h48v-34z" />
    <glyph glyph-name="ccedilla" unicode="&#xe7;" horiz-adv-x="516" 
d="M421 4q-27 -6 -64 -11.5t-85 -5.5q-112 0 -164.5 61t-52.5 194v60q0 132 53 193.5t164 61.5q49 0 86.5 -6t62.5 -11v-50q-50 5 -83.5 7.5t-56.5 2.5q-39 0 -68.5 -8.5t-50 -31t-31 -60.5t-10.5 -98v-60q0 -61 10.5 -99.5t30.5 -60.5t50 -30.5t69 -8.5q21 0 55 2.5t85 8.5
v-50zM186 -209h-68l121 141h82z" />
    <glyph glyph-name="eacute" unicode="&#xe9;" horiz-adv-x="609" 
d="M120 249v-12q0 -47 7.5 -82.5t28 -60.5t55.5 -37.5t91 -12.5q22 0 47 1t49.5 3.5l47.5 5t42 5.5v-52q-29 -7 -78 -13.5t-110 -6.5q-69 0 -116 16t-75.5 48.5t-41 82t-12.5 117.5v38q0 127 54 197.5t171 70.5q118 0 172 -70t54 -205v-33h-386zM438 313q0 36 -6.5 70
t-23.5 60t-48 41.5t-80 15.5q-50 0 -81 -16t-48 -42.5t-23.5 -60t-6.5 -68.5v-9h317v9zM306 616h-66l134 154h80z" />
    <glyph glyph-name="ecircumflex" unicode="&#xea;" horiz-adv-x="609" 
d="M120 249v-12q0 -47 7.5 -82.5t28 -60.5t55.5 -37.5t91 -12.5q22 0 47 1t49.5 3.5l47.5 5t42 5.5v-52q-29 -7 -78 -13.5t-110 -6.5q-69 0 -116 16t-75.5 48.5t-41 82t-12.5 117.5v38q0 127 54 197.5t171 70.5q118 0 172 -70t54 -205v-33h-386zM438 313q0 36 -6.5 70
t-23.5 60t-48 41.5t-80 15.5q-50 0 -81 -16t-48 -42.5t-23.5 -60t-6.5 -68.5v-9h317v9zM395 616l-113 116l-113 -116h-67l138 154h84l138 -154h-67z" />
    <glyph glyph-name="edieresis" unicode="&#xeb;" horiz-adv-x="609" 
d="M120 249v-12q0 -47 7.5 -82.5t28 -60.5t55.5 -37.5t91 -12.5q22 0 47 1t49.5 3.5l47.5 5t42 5.5v-52q-29 -7 -78 -13.5t-110 -6.5q-69 0 -116 16t-75.5 48.5t-41 82t-12.5 117.5v38q0 127 54 197.5t171 70.5q118 0 172 -70t54 -205v-33h-386zM438 313q0 36 -6.5 70
t-23.5 60t-48 41.5t-80 15.5q-50 0 -81 -16t-48 -42.5t-23.5 -60t-6.5 -68.5v-9h317v9zM365 642v119h59v-119h-59zM195 761v-119h-60v89q1 8 5 15q4 5 11 10t21 5h23z" />
    <glyph glyph-name="egrave" unicode="&#xe8;" horiz-adv-x="609" 
d="M120 249v-12q0 -47 7.5 -82.5t28 -60.5t55.5 -37.5t91 -12.5q22 0 47 1t49.5 3.5l47.5 5t42 5.5v-52q-29 -7 -78 -13.5t-110 -6.5q-69 0 -116 16t-75.5 48.5t-41 82t-12.5 117.5v38q0 127 54 197.5t171 70.5q118 0 172 -70t54 -205v-33h-386zM438 313q0 36 -6.5 70
t-23.5 60t-48 41.5t-80 15.5q-50 0 -81 -16t-48 -42.5t-23.5 -60t-6.5 -68.5v-9h317v9zM285 616l-148 154h80l135 -154h-67z" />
    <glyph glyph-name="iacute" unicode="&#xed;" horiz-adv-x="286" 
d="M85 0v543h66v-543h-66zM118 616h-67l135 154h79z" />
    <glyph glyph-name="icircumflex" unicode="&#xee;" horiz-adv-x="286" 
d="M85 0v543h66v-543h-66zM232 616l-114 116l-112 -116h-67l138 154h84l138 -154h-67z" />
    <glyph glyph-name="idieresis" unicode="&#xef;" horiz-adv-x="286" 
d="M85 0v543h66v-543h-66zM204 642v119h59v-119h-59zM34 761v-119h-60v89q1 8 5 15q4 5 11 10t21 5h23z" />
    <glyph glyph-name="igrave" unicode="&#xec;" horiz-adv-x="286" 
d="M85 0v543h66v-543h-66zM119 616l-148 154h80l135 -154h-67z" />
    <glyph glyph-name="ntilde" unicode="&#xf1;" horiz-adv-x="630" 
d="M438 0v344q0 43 -5.5 73t-18 48.5t-34 26.5t-54.5 8q-39 0 -84.5 -14t-96.5 -38v-448h-65v543h65v-44q45 24 91.5 41t95.5 17q52 0 85.5 -13.5t53 -40.5t26.5 -67t7 -92v-344h-66zM480 737q0 -57 -18.5 -90t-70.5 -33q-28 0 -50 10.5t-46 33.5l-42 38q-18 18 -31 26
t-31 8q-27 0 -34.5 -21.5t-7.5 -55.5v-34h-49v34q0 57 20 90.5t71 33.5q28 0 48 -10t44 -32l43 -39q18 -17 31.5 -26t31.5 -9q28 0 35.5 21t7.5 55v34h48v-34z" />
    <glyph glyph-name="oacute" unicode="&#xf3;" horiz-adv-x="614" 
d="M508 243q0 -127 -55 -191.5t-171 -64.5t-171 64.5t-55 191.5v58q0 126 55 191t171 65t171 -65t55 -191v-58zM443 301q0 105 -38 151.5t-123 46.5t-123 -46.5t-38 -151.5v-58q0 -105 38 -152t123 -47t123 47t38 152v58zM292 616h-67l135 154h79z" />
    <glyph glyph-name="ocircumflex" unicode="&#xf4;" horiz-adv-x="614" 
d="M508 243q0 -127 -55 -191.5t-171 -64.5t-171 64.5t-55 191.5v58q0 126 55 191t171 65t171 -65t55 -191v-58zM443 301q0 105 -38 151.5t-123 46.5t-123 -46.5t-38 -151.5v-58q0 -105 38 -152t123 -47t123 47t38 152v58zM395 616l-113 116l-113 -116h-67l138 154h84
l138 -154h-67z" />
    <glyph glyph-name="odieresis" unicode="&#xf6;" horiz-adv-x="614" 
d="M508 243q0 -127 -55 -191.5t-171 -64.5t-171 64.5t-55 191.5v58q0 126 55 191t171 65t171 -65t55 -191v-58zM443 301q0 105 -38 151.5t-123 46.5t-123 -46.5t-38 -151.5v-58q0 -105 38 -152t123 -47t123 47t38 152v58zM368 642v119h59v-119h-59zM198 761v-119h-60v89
q1 8 5 15q4 5 11 10t21 5h23z" />
    <glyph glyph-name="ograve" unicode="&#xf2;" horiz-adv-x="614" 
d="M508 243q0 -127 -55 -191.5t-171 -64.5t-171 64.5t-55 191.5v58q0 126 55 191t171 65t171 -65t55 -191v-58zM443 301q0 105 -38 151.5t-123 46.5t-123 -46.5t-38 -151.5v-58q0 -105 38 -152t123 -47t123 47t38 152v58zM278 616l-148 154h80l135 -154h-67z" />
    <glyph glyph-name="otilde" unicode="&#xf5;" horiz-adv-x="614" 
d="M508 243q0 -127 -55 -191.5t-171 -64.5t-171 64.5t-55 191.5v58q0 126 55 191t171 65t171 -65t55 -191v-58zM443 301q0 105 -38 151.5t-123 46.5t-123 -46.5t-38 -151.5v-58q0 -105 38 -152t123 -47t123 47t38 152v58zM472 737q0 -57 -18.5 -90t-70.5 -33q-28 0 -50 10.5
t-46 33.5l-42 38q-18 18 -31 26t-31 8q-27 0 -34.5 -21.5t-7.5 -55.5v-34h-49v34q0 57 20 90.5t71 33.5q28 0 48 -10t44 -32l43 -39q18 -17 31.5 -26t31.5 -9q28 0 35.5 21t7.5 55v34h48v-34z" />
    <glyph glyph-name="scaron" unicode="&#x161;" horiz-adv-x="522" 
d="M428 134q0 -29 -9.5 -55.5t-32 -47t-60.5 -32.5t-95 -12q-27 0 -54 2t-50.5 5t-41.5 6.5t-28 6.5v51q13 -2 32 -4.5t42 -4.5t48.5 -4t49.5 -2q38 0 64 6.5t41.5 18t22 28t6.5 37.5q0 20 -5.5 35t-19 27.5t-37 25t-60.5 27.5l-39 15q-78 32 -115 68t-37 94q0 68 47.5 100
t146.5 32q51 0 95 -6.5t64 -12.5v-50q-38 5 -81 8.5t-75 3.5q-68 0 -99.5 -15t-31.5 -60q0 -19 5.5 -33.5t19 -26.5t34.5 -23t53 -24l39 -16q45 -19 76 -36t50 -36t27 -42t8 -54zM126 770l112 -117l114 117h67l-138 -154h-84l-138 154h67z" />
    <glyph glyph-name="uacute" unicode="&#xfa;" horiz-adv-x="630" 
d="M435 0v44q-50 -26 -97 -41.5t-96 -15.5q-50 0 -82 15t-50.5 42.5t-25.5 67t-7 87.5v344h64v-344q0 -44 5.5 -73.5t18.5 -48t34.5 -26.5t54.5 -8q41 0 85.5 14.5t95.5 38.5v447h65v-543h-65zM312 616h-66l134 154h80z" />
    <glyph glyph-name="ucircumflex" unicode="&#xfb;" horiz-adv-x="630" 
d="M435 0v44q-50 -26 -97 -41.5t-96 -15.5q-50 0 -82 15t-50.5 42.5t-25.5 67t-7 87.5v344h64v-344q0 -44 5.5 -73.5t18.5 -48t34.5 -26.5t54.5 -8q41 0 85.5 14.5t95.5 38.5v447h65v-543h-65zM404 616l-113 116l-113 -116h-67l138 154h84l138 -154h-67z" />
    <glyph glyph-name="udieresis" unicode="&#xfc;" horiz-adv-x="630" 
d="M435 0v44q-50 -26 -97 -41.5t-96 -15.5q-50 0 -82 15t-50.5 42.5t-25.5 67t-7 87.5v344h64v-344q0 -44 5.5 -73.5t18.5 -48t34.5 -26.5t54.5 -8q41 0 85.5 14.5t95.5 38.5v447h65v-543h-65zM376 642v119h59v-119h-59zM206 761v-119h-60v89q1 8 5 15q4 5 11 10t21 5h23z
" />
    <glyph glyph-name="ugrave" unicode="&#xf9;" horiz-adv-x="630" 
d="M435 0v44q-50 -26 -97 -41.5t-96 -15.5q-50 0 -82 15t-50.5 42.5t-25.5 67t-7 87.5v344h64v-344q0 -44 5.5 -73.5t18.5 -48t34.5 -26.5t54.5 -8q41 0 85.5 14.5t95.5 38.5v447h65v-543h-65zM279 616l-148 154h80l135 -154h-67z" />
    <glyph glyph-name="yacute" unicode="&#xfd;" horiz-adv-x="570" 
d="M288 -43q-16 -45 -31 -78t-35.5 -54.5t-48 -32.5t-68.5 -11q-28 0 -53 2.5t-42 4.5v52q29 -2 49.5 -3t43.5 -1q25 0 41.5 6t29.5 20.5t24 39t25 62.5l13 37l-210 542h72l130 -348q11 -31 19.5 -58.5l19.5 -63.5h2l18 63.5t19 59.5l119 347h70zM287 616h-67l135 154h79z
" />
    <glyph glyph-name="ydieresis" unicode="&#xff;" horiz-adv-x="570" 
d="M288 -43q-16 -45 -31 -78t-35.5 -54.5t-48 -32.5t-68.5 -11q-28 0 -53 2.5t-42 4.5v52q29 -2 49.5 -3t43.5 -1q25 0 41.5 6t29.5 20.5t24 39t25 62.5l13 37l-210 542h72l130 -348q11 -31 19.5 -58.5l19.5 -63.5h2l18 63.5t19 59.5l119 347h70zM353 642v119h60v-119h-60z
M184 761v-119h-60v89q1 8 5 15q4 5 11 10t21 5h23z" />
    <glyph glyph-name="zcaron" unicode="&#x17e;" horiz-adv-x="529" 
d="M42 0v72l319 416h-307v55h378v-67l-323 -422h324v-54h-391zM136 770l113 -117l113 117h67l-138 -154h-84l-138 154h67z" />
    <glyph glyph-name="dollar.oldstyle" horiz-adv-x="533" 
d="M71 55q23 -2 67.5 -5.5t98.5 -3.5q67 0 97.5 24t30.5 69q0 19 -5 33t-17.5 26t-33 23.5t-51.5 25.5l-65 29q-33 15 -58.5 30.5t-42 33.5t-25 40.5t-8.5 51.5q0 116 158 130v102h59v-99q42 -2 79.5 -7t56.5 -10v-50q-11 1 -29 3t-39.5 4t-45 3t-44.5 1q-61 0 -95 -17
t-34 -59q0 -17 5 -30.5t16 -25.5t30 -23.5t48 -23.5l66 -29q37 -17 63.5 -32t43.5 -33.5t25 -41.5t8 -54q0 -62 -38 -101t-118 -47v-102h-59v99q-44 2 -82.5 7t-61.5 10v49z" />
    <glyph glyph-name="dollar.superior" horiz-adv-x="443" 
d="M58 386q20 -2 54.5 -5t75.5 -3q99 0 99 70q0 29 -17 44.5t-58 32.5l-62 27q-46 20 -75 46t-29 76q0 53 35 78t90 30v75h54v-74q35 -1 65.5 -4.5t43.5 -6.5v-47q-26 3 -63 6t-66 3q-41 0 -69.5 -12.5t-28.5 -46.5q0 -26 17.5 -42t52.5 -31l63 -24q53 -22 80.5 -49.5
t27.5 -77.5q0 -57 -34.5 -86t-88.5 -35v-77h-54v74q-32 1 -63.5 5t-49.5 8v46z" />
    <glyph glyph-name="parenleft.superior" unicode="&#x207d;" horiz-adv-x="300" 
d="M146 262q-14 17 -29.5 42.5t-28 58.5t-21 73t-8.5 86v5q0 46 8.5 86.5t21.5 74t28.5 59t29.5 43.5h59q-35 -48 -60.5 -111.5t-25.5 -151.5v-5q0 -87 25 -149.5t60 -110.5h-59z" />
    <glyph glyph-name="parenright.superior" unicode="&#x207e;" horiz-adv-x="300" 
d="M190 522q0 -46 -8.5 -86t-21 -73t-28 -58.5t-29.5 -42.5h-58q35 48 59.5 110.5t24.5 149.5v5q0 88 -25.5 151.5t-60.5 111.5h59q14 -18 29.5 -43.5t28.5 -59t21.5 -74t8.5 -86.5v-5v0z" />
    <glyph glyph-name="twodotenleader" unicode="&#x2025;" horiz-adv-x="478" 
d="M290 0v136h66v-136h-66zM138 136v-136h-66v106q0 8 4 15q3 5 10.5 10t21.5 5h30z" />
    <glyph glyph-name="onedotenleader" unicode="&#x2024;" horiz-adv-x="260" 
d="M138 136v-136h-66v106q0 8 4 15q3 5 10.5 10t21.5 5h30z" />
    <glyph glyph-name="zero.oldstyle" horiz-adv-x="680" 
d="M566 257q0 -132 -66.5 -201t-185.5 -69t-186 69t-67 201v41q0 131 67 200t186 69t185.5 -69t66.5 -200v-41zM500 298q0 58 -14 98t-39 65t-59 36.5t-74 11.5t-74 -11.5t-59 -36.5t-39 -65t-14 -98v-41q0 -57 14 -97.5t39 -66t59 -37t74 -11.5t74 11.5t59 37t39 66
t14 97.5v41z" />
    <glyph glyph-name="one.oldstyle" horiz-adv-x="538" 
d="M53 0v56l162 3v433l-163 -56v64l179 63h50v-504l158 -3v-56h-386z" />
    <glyph glyph-name="two.oldstyle" horiz-adv-x="630" 
d="M75 546q19 5 43.5 9t51.5 6.5t53.5 4t50.5 1.5q68 0 115.5 -10t77 -29.5t43 -49t13.5 -68.5q0 -38 -12.5 -70t-41.5 -64.5t-78 -69t-121 -82.5l-100 -64h348v-60h-454v60l166 105q67 42 110.5 74.5t69.5 60.5t36.5 54t10.5 56q0 55 -45 77t-142 22q-21 0 -47 -1.5
t-52.5 -3.5t-51.5 -5t-44 -6v53z" />
    <glyph glyph-name="three.oldstyle" horiz-adv-x="629" 
d="M506 9q0 -111 -63 -160.5t-191 -49.5q-29 0 -59 2.5t-57 6t-48 7t-32 5.5v51q13 -2 35.5 -4.5t49 -4.5t55.5 -3.5t56 -1.5q100 0 144 34t44 118v28q0 25 -4 49t-18.5 43t-41.5 30.5t-73 11.5h-219v56h219q46 0 73 11.5t41 30.5t18.5 43.5t4.5 50.5v14q0 36 -9 61
t-31 40.5t-58 23t-91 7.5q-53 0 -106 -4t-87 -8v52l27 4t47.5 6t59 5.5t60.5 2.5q67 0 115 -10.5t79 -33t46 -59t15 -87.5v-14q0 -26 -5 -51t-16.5 -46.5t-31 -39t-48.5 -27.5q30 -11 49 -28t30.5 -38.5t16 -46t4.5 -49.5v-28v0z" />
    <glyph glyph-name="four.oldstyle" horiz-adv-x="687" 
d="M468 20v-207h-66v207h-361v68l350 469h77v-479h119v-58h-119zM402 468l-293 -390h293v390z" />
    <glyph glyph-name="five.oldstyle" horiz-adv-x="626" 
d="M518 12q0 -115 -63 -167t-199 -52q-34 0 -66.5 2.5t-59.5 6t-47 7t-29 5.5v54l37 -5t48.5 -5.5t56 -4.5t58.5 -2q56 0 94 9.5t61 29t32.5 50t9.5 72.5v26q0 43 -11 72.5t-35 46.5t-63 24.5t-95 7.5h-177l31 360h388v-60h-330l-22 -242h113q67 0 117.5 -11t84 -36
t50 -64.5t16.5 -97.5v-26v0z" />
    <glyph glyph-name="six.oldstyle" horiz-adv-x="674" 
d="M565 221q0 -71 -23.5 -116.5t-59.5 -71.5t-79.5 -36t-83.5 -10q-52 0 -98.5 11.5t-82 43.5t-56 90.5t-20.5 151.5v192q0 67 13 119t44.5 87.5t83.5 54t130 18.5q31 0 62.5 -2.5t59 -6t48.5 -7t32 -5.5v-52q-15 2 -38 4.5t-50 5t-56.5 4t-56.5 1.5q-66 0 -106.5 -15.5
t-62.5 -44t-29 -69t-7 -91.5v-47q22 6 47.5 11t51 8t49 5t43.5 2q46 0 90 -7.5t78.5 -29t55.5 -60.5t21 -102v-36zM498 255q0 47 -13.5 75.5t-37.5 44.5t-57 21t-72 5q-36 0 -87 -4.5t-102 -18.5v-99q0 -69 13.5 -114t38.5 -71.5t60 -37.5t78 -11q38 0 71 10t57 31.5
t37.5 54.5t13.5 80v34z" />
    <glyph glyph-name="seven.oldstyle" horiz-adv-x="609" 
d="M188 -186h-75l340 683h-403v60h466v-70z" />
    <glyph glyph-name="eight.oldstyle" horiz-adv-x="693" 
d="M581 211q0 -74 -20 -118t-54.5 -67.5t-81 -31t-100.5 -7.5h-4q-54 0 -101 7.5t-81.5 31.5t-54 68t-19.5 118v7q0 66 22 107t71 61q-47 19 -69 60t-22 100v10q0 59 19.5 97t53.5 60.5t80.5 31t100.5 8.5h4q54 0 100.5 -8.5t80.5 -31t53.5 -60.5t19.5 -97v-10
q0 -60 -22.5 -100.5t-68.5 -59.5q48 -20 70.5 -61t22.5 -106v-9zM514 220q0 32 -5.5 57.5t-19 43.5t-36.5 27.5t-58 9.5h-144q-35 0 -58.5 -9.5t-37 -27.5t-19 -44t-5.5 -58v-7q0 -53 12.5 -85.5t37 -51t60 -25t80.5 -6.5h4q45 0 80.5 6.5t59.5 25t36.5 51t12.5 84.5v9z
M512 557q0 42 -12.5 69t-36.5 43t-58.5 22t-79.5 6h-4q-45 0 -80 -6t-59 -22t-36.5 -43t-12.5 -69v-10q0 -28 5 -52t18.5 -41.5t36.5 -27.5t58 -10h144q35 0 57.5 10t36 27.5t18.5 41.5t5 52v10z" />
    <glyph glyph-name="nine.oldstyle" horiz-adv-x="674" 
d="M556 78q0 -68 -13.5 -120t-45 -87t-83.5 -53.5t-130 -18.5q-31 0 -62.5 2.5t-59 5.5t-48.5 6.5t-31 5.5v53q15 -2 38 -4.5t50 -5t56 -4t56 -1.5q66 0 106.5 15.5t62.5 44t29.5 69t7.5 90.5v48q-23 -6 -48 -11t-50.5 -8.5t-49.5 -5t-44 -1.5q-46 0 -90 7.5t-78.5 29
t-55.5 60.5t-21 102v36q0 70 23.5 115.5t59.5 72t79.5 36.5t83.5 10q52 0 98.5 -11.5t82 -43.5t56.5 -90.5t21 -151.5v-192zM489 275q0 69 -13.5 114t-38.5 71.5t-60.5 37.5t-78.5 11q-38 0 -70.5 -10t-56.5 -31.5t-38 -55t-14 -79.5v-34q0 -47 13.5 -75.5t37.5 -44.5
t57 -21t72 -5q36 0 87 4.5t103 18.5v99z" />
    <glyph glyph-name="comma.superior" horiz-adv-x="258" 
d="M95 282h-51l51 143h62z" />
    <glyph glyph-name="period.superior" horiz-adv-x="216" 
d="M112 425v-88h-57v58q1 8 5 15q4 5 11 10t21 5h20z" />
    <glyph glyph-name="a.superior" horiz-adv-x="428" 
d="M259 302v23q-17 -10 -46 -20.5t-65 -10.5q-51 0 -77 23t-26 74v9q0 33 11 53t31 31t49.5 14.5t67.5 3.5h52v25q0 22 -3 36.5t-12 22.5t-25.5 11t-43.5 3q-21 0 -49.5 -1t-52.5 -3v36q16 3 46.5 8t63.5 5q41 0 67 -7t40.5 -21t20 -36.5t5.5 -53.5v-225h-54zM257 465h-52
q-56 0 -80 -11t-24 -53v-10q0 -32 16.5 -44.5t45.5 -12.5t54.5 9t39.5 17v105z" />
    <glyph glyph-name="b.superior" horiz-adv-x="442" 
d="M123 775v-143q24 8 45 11.5t38 3.5q74 0 107.5 -38t33.5 -119v-32q0 -88 -38.5 -125.5t-116.5 -37.5q-28 0 -55.5 1t-71.5 6v473h58zM289 490q0 61 -20 85.5t-69 24.5q-11 0 -33.5 -2t-43.5 -10v-244q16 -2 34 -3t36 -1q51 0 73.5 26t22.5 92v32z" />
    <glyph glyph-name="cent.superior" horiz-adv-x="418" 
d="M323 339q-19 -4 -42.5 -6.5t-46.5 -3.5v-76h-52v79q-63 9 -99.5 53.5t-36.5 143.5v56q0 178 136 196v74h52v-72q23 -1 46.5 -3.5t42.5 -5.5v-48l-51.5 4t-49.5 2q-64 0 -90.5 -33.5t-26.5 -113.5v-56q0 -80 25.5 -114t91.5 -34q27 0 53 1.5t48 3.5v-47v0z" />
    <glyph glyph-name="d.superior" horiz-adv-x="442" 
d="M272 302v19q-17 -10 -42.5 -18.5t-57.5 -8.5q-62 0 -94.5 37.5t-32.5 115.5v42q0 87 38.5 121t107.5 34q18 0 36.5 -1.5t41.5 -4.5v135h58v-471h-55zM270 593q-23 4 -42 5.5t-32 1.5q-47 0 -70 -22.5t-23 -88.5v-42q0 -57 19 -82.5t64 -25.5q24 0 45.5 7t38.5 15v232z
" />
    <glyph glyph-name="e.superior" horiz-adv-x="437" 
d="M103 452v-10q0 -23 4.5 -42.5t16 -33.5t32 -21.5t52.5 -7.5q34 0 65 3t55 7v-41q-18 -4 -52 -8t-72 -4q-47 0 -77.5 12t-48.5 33t-25.5 50.5t-7.5 64.5v30q0 77 37 119t111 42q40 0 68.5 -12t46.5 -33.5t26 -51.5t8 -65v-31h-239zM283 499q0 19 -3.5 37t-13.5 32.5
t-27.5 23t-44.5 8.5q-28 0 -45.5 -9t-27.5 -23.5t-13.5 -32.5t-3.5 -36v-9h179v9z" />
    <glyph glyph-name="i.superior" unicode="&#x2071;" horiz-adv-x="240" 
d="M124 635v-333h-58v333h58zM65 696v77h60v-77h-60z" />
    <glyph glyph-name="l.superior" horiz-adv-x="238" 
d="M65 302v471h58v-471h-58z" />
    <glyph glyph-name="m.superior" horiz-adv-x="626" 
d="M121 609q23 17 49.5 26.5t53.5 9.5q31 0 49 -10t29 -27q30 20 58.5 28.5t51.5 8.5q34 0 54 -10t30 -27t12.5 -39t2.5 -45v-222h-59v221q0 18 -1 32.5t-6.5 24.5t-16 15t-29.5 5q-18 0 -40.5 -7t-45.5 -21q2 -12 3 -24.5t1 -23.5v-222h-58v222q0 36 -7.5 56t-43.5 20
q-20 0 -42.5 -8.5t-42.5 -20.5v-268h-58v332h56v-26v0z" />
    <glyph glyph-name="n.superior" unicode="&#x207f;" horiz-adv-x="449" 
d="M282 302v208q0 51 -13 70t-50 19q-23 0 -49 -8t-53 -21v-268h-59v333h57v-23q28 14 57 23.5t58 9.5q35 0 56.5 -9.5t33.5 -26.5t16 -42t4 -55v-210h-58z" />
    <glyph glyph-name="o.superior" horiz-adv-x="437" 
d="M342 455q0 -79 -37 -120t-112 -41t-111.5 41t-36.5 120v29q0 79 36.5 120t111.5 41t112 -41t37 -120v-29zM284 484q0 60 -21 87.5t-70 27.5q-48 0 -69 -27.5t-21 -87.5v-29q0 -60 21 -88t69 -28q49 0 70 28t21 88v29z" />
    <glyph glyph-name="r.superior" horiz-adv-x="332" 
d="M65 302v333h55v-26q26 19 56.5 27.5t62.5 8.5v-49q-32 0 -62.5 -7.5t-53.5 -19.5v-267h-58z" />
    <glyph glyph-name="s.superior" horiz-adv-x="390" 
d="M295 387q0 -19 -6.5 -36t-22 -29.5t-41 -20t-62.5 -7.5q-34 0 -66.5 4t-46.5 8v39l48 -5.5t63 -3.5q45 0 60.5 14t15.5 36q0 23 -13 35t-55 29l-27 11q-48 19 -72.5 38.5t-24.5 58.5q0 45 31 66t97 21q33 0 66 -4t46 -8v-38q-8 1 -20.5 2t-28 2l-31.5 2t-29 1
q-38 0 -55.5 -9t-17.5 -33q0 -20 14 -31t49 -25l28 -11q28 -11 47.5 -22t31.5 -23t17 -27t5 -34z" />
    <glyph glyph-name="t.superior" horiz-adv-x="357" 
d="M263 302q-10 -2 -28 -5t-36 -3q-48 0 -66.5 20t-18.5 69v210l-71 4v38h71v90h58v-90h92v-42h-92v-209q0 -31 6.5 -39.5t30.5 -8.5q12 0 27.5 0.5t26.5 1.5v-36v0z" />
    <glyph glyph-name="parenleft.inferior" unicode="&#x208d;" horiz-adv-x="300" 
d="M146 -242q-14 17 -29.5 42.5t-28.5 58.5t-21 73t-8 87v4q0 46 8.5 86.5t21.5 74t28.5 59t29.5 43.5h59q-35 -47 -60.5 -111t-25.5 -152v-4q0 -87 24.5 -150.5t59.5 -110.5h-58z" />
    <glyph glyph-name="parenright.inferior" unicode="&#x208e;" horiz-adv-x="300" 
d="M190 19q0 -47 -8.5 -87t-21 -73t-28 -58.5t-29.5 -42.5h-59q35 48 60 110.5t25 150.5v4q0 88 -25.5 152t-60.5 111h59q14 -18 29.5 -43.5t28.5 -59t21.5 -74t8.5 -86.5v-4v0z" />
    <glyph glyph-name="hyphen.superior" horiz-adv-x="312" 
d="M55 506v46h152v-46h-152z" />
    <glyph glyph-name="colonmonetary" unicode="&#x20a1;" horiz-adv-x="517" 
d="M425 490q-10 1 -25.5 3t-34.5 3.5t-39.5 2.5t-39.5 1q-38 0 -68 -9t-50.5 -30.5t-31.5 -57.5t-11 -90v-81q0 -54 10.5 -90.5t30.5 -58.5t50 -31t68 -9q23 0 56.5 2.5t84.5 8.5v-50q-14 -3 -30 -6t-36 -5v-106h-55v100h-25q-27 0 -46 3v-103h-54v119q-120 46 -120 226v81
q0 176 120 225v125h54v-110q20 4 51 4h20v106h55v-112q38 -4 66 -11v-50z" />
    <glyph glyph-name="cent.oldstyle" horiz-adv-x="536" 
d="M430 500q-35 3 -68 5.5t-65 2.5q-86 0 -126 -43t-40 -145v-86q0 -103 39.5 -145.5t126.5 -42.5q31 0 64.5 2.5t68.5 7.5v-52q-61 -13 -116 -14v-110h-60v111q-97 11 -143 70t-46 173v86q0 222 189 243v110h60v-109q28 -1 57.5 -4.5t58.5 -8.5v-51z" />
    <glyph glyph-name="figuredash" unicode="&#x2012;" horiz-adv-x="703" 
d="M75 264v56h513v-56h-513z" />
    <glyph glyph-name="hyphen.inferior" horiz-adv-x="312" 
d="M55 5v46h152v-46h-152z" />
    <glyph glyph-name="oneeighth" unicode="&#x215b;" horiz-adv-x="1030" 
d="M254 0h-67l474 743h66zM62 307v46h106v340l-107 -34v49l122 42h45v-399h107v-44h-273zM922 123q0 -44 -14 -70t-37.5 -39.5t-55.5 -18t-68 -4.5q-35 0 -66 4.5t-54.5 18t-37.5 39.5t-14 70v7q0 73 59 99q-57 26 -57 97v6q0 36 13.5 58.5t37 35t55 17.5t67.5 5q35 0 66 -5
t54 -17.5t36.5 -35t13.5 -58.5v-6q0 -71 -56 -97q28 -13 43 -37.5t15 -61.5v-7zM862 130q0 36 -15 57t-56 21h-84q-42 0 -57 -21t-15 -57v-6q0 -28 8 -45.5t23 -27t36 -13t48 -3.5q25 0 46 3.5t35.5 13t22.5 27t8 45.5v6zM861 331q0 44 -31 58.5t-83 14.5q-50 0 -80.5 -14.5
t-30.5 -58.5v-6q0 -32 15 -53t56 -21h84q41 0 55.5 21.5t14.5 52.5v6z" />
    <glyph glyph-name="threeeighths" unicode="&#x215c;" horiz-adv-x="1061" 
d="M276 0h-67l473 743h67zM60 742l20 3.5t32 4.5t38.5 3.5t39.5 1.5q85 0 126.5 -24.5t41.5 -88.5v-6q0 -32 -14 -60t-50 -42q38 -13 51 -40t13 -58v-8q0 -69 -41 -99.5t-127 -30.5q-20 0 -41 1.5t-39 3.5t-31.5 4t-18.5 3v42q9 -1 23 -2t30.5 -2.5t35 -2.5t36.5 -1
q59 0 86 17.5t27 67.5v8q0 15 -2.5 29t-11.5 24t-26 16t-45 6h-135v45h136q28 0 44.5 6.5t25.5 17.5t11.5 24.5t2.5 28.5v5q0 39 -24.5 54.5t-87.5 15.5q-17 0 -35.5 -1t-35.5 -2.5t-31.5 -2.5t-23.5 -2v41zM922 123q0 -44 -14 -70t-37.5 -39.5t-55.5 -18t-68 -4.5
q-35 0 -66 4.5t-54.5 18t-37.5 39.5t-14 70v7q0 73 59 99q-57 26 -57 97v6q0 36 13.5 58.5t37 35t55 17.5t67.5 5q35 0 66 -5t54 -17.5t36.5 -35t13.5 -58.5v-6q0 -71 -56 -97q28 -13 43 -37.5t15 -61.5v-7zM862 130q0 36 -15 57t-56 21h-84q-42 0 -57 -21t-15 -57v-6
q0 -28 8 -45.5t23 -27t36 -13t48 -3.5q25 0 46 3.5t35.5 13t22.5 27t8 45.5v6zM861 331q0 44 -31 58.5t-83 14.5q-50 0 -80.5 -14.5t-30.5 -58.5v-6q0 -32 15 -53t56 -21h84q41 0 55.5 21.5t14.5 52.5v6z" />
    <glyph glyph-name="fiveeighths" unicode="&#x215d;" horiz-adv-x="1066" 
d="M280 0h-67l474 743h67zM959 123q0 -44 -14 -70t-37.5 -39.5t-55.5 -18t-68 -4.5q-35 0 -66 4.5t-54.5 18t-37.5 39.5t-14 70v7q0 73 59 99q-57 26 -57 97v6q0 36 13.5 58.5t37 35t55 17.5t67.5 5q35 0 66 -5t54 -17.5t36.5 -35t13.5 -58.5v-6q0 -71 -56 -97
q28 -13 43 -37.5t15 -61.5v-7zM899 130q0 36 -15 57t-56 21h-84q-42 0 -57 -21t-15 -57v-6q0 -28 8 -45.5t23 -27t36 -13t48 -3.5q25 0 46 3.5t35.5 13t22.5 27t8 45.5v6zM898 331q0 44 -31 58.5t-83 14.5q-50 0 -80.5 -14.5t-30.5 -58.5v-6q0 -32 15 -53t56 -21h84
q41 0 55.5 21.5t14.5 52.5v6zM138 701l-12 -129h68q87 0 129 -27.5t42 -99.5v-9q0 -74 -43 -106t-130 -32q-45 0 -81 5t-51 9v42q28 -4 59 -7t66 -3q67 0 93 21t26 70v10q0 24 -6 40t-20 25.5t-36.5 13t-54.5 3.5h-119l20 221h259v-47h-209z" />
    <glyph glyph-name="seveneighths" unicode="&#x215e;" horiz-adv-x="983" 
d="M197 0h-66l474 743h66zM56 748h302v-54l-208 -387h-65l214 394h-243v47zM875 123q0 -44 -14 -70t-37.5 -39.5t-55.5 -18t-68 -4.5q-35 0 -66 4.5t-54.5 18t-37.5 39.5t-14 70v7q0 73 59 99q-57 26 -57 97v6q0 36 13.5 58.5t37 35t55 17.5t67.5 5q35 0 66 -5t54 -17.5
t36.5 -35t13.5 -58.5v-6q0 -71 -56 -97q28 -13 43 -37.5t15 -61.5v-7zM815 130q0 36 -15 57t-56 21h-84q-42 0 -57 -21t-15 -57v-6q0 -28 8 -45.5t23 -27t36 -13t48 -3.5q25 0 46 3.5t35.5 13t22.5 27t8 45.5v6zM814 331q0 44 -31 58.5t-83 14.5q-50 0 -80.5 -14.5
t-30.5 -58.5v-6q0 -32 15 -53t56 -21h84q41 0 55.5 21.5t14.5 52.5v6z" />
    <glyph glyph-name="onethird" unicode="&#x2153;" horiz-adv-x="1013" 
d="M254 0h-67l474 743h66zM62 307v44l106 2v340l-107 -34v49l122 42h45v-397l107 -2v-44h-273zM620 436q6 1 20 3t32 4t38.5 3.5t39.5 1.5q85 0 126.5 -24.5t41.5 -88.5v-6q0 -31 -14 -59.5t-50 -42.5q38 -12 51 -39.5t13 -58.5v-8q0 -69 -41 -99.5t-127 -30.5
q-20 0 -41 1.5t-39 3.5t-31.5 4t-18.5 4v41q9 -1 23 -2t30.5 -2.5t35 -2.5t36.5 -1q58 0 85.5 18t27.5 68v8q0 15 -2.5 28.5t-11.5 23.5t-26 16t-45 6h-135v45h136q28 0 44.5 6.5t25.5 17.5t11.5 24.5t2.5 28.5v6q0 38 -24.5 53.5t-87.5 15.5q-17 0 -35.5 -1t-35.5 -2.5
t-31.5 -2.5t-23.5 -2v42z" />
    <glyph glyph-name="twothirds" unicode="&#x2154;" horiz-adv-x="1062" 
d="M292 0h-66l474 743h66zM64 742q17 4 56.5 8.5t80.5 4.5q80 0 120 -24t40 -82q0 -22 -5.5 -40.5t-20 -35t-38.5 -32.5t-60 -34q-39 -19 -62.5 -34t-36 -30.5t-17 -35t-4.5 -47.5v-5h238v-48h-298v44q0 39 7 66.5t23.5 49t44 39.5t69.5 39q33 16 53 28.5t30.5 24t13.5 23.5
t3 27q0 35 -25 48.5t-81 13.5q-17 0 -35.5 -1t-36.5 -2.5t-33.5 -3l-25.5 -2.5v41zM651 436q6 1 20 3t32 4t38.5 3.5t39.5 1.5q85 0 126.5 -24.5t41.5 -88.5v-6q0 -31 -14 -59.5t-49 -42.5q37 -12 50 -39.5t13 -58.5v-8q0 -69 -40.5 -99.5t-127.5 -30.5q-20 0 -40.5 1.5
t-38.5 3.5t-31.5 4t-19.5 4v41q18 -2 54 -5t71 -3q59 0 86 18t27 68v8q0 15 -2.5 28.5t-11.5 23.5t-26 16t-45 6h-135v45h136q28 0 44.5 6.5t25.5 17.5t11.5 24.5t2.5 28.5v6q0 38 -24 53.5t-88 15.5q-17 0 -35 -1t-35 -2.5t-32 -2.5t-24 -2v42z" />
    <glyph glyph-name="zero.superior" unicode="&#x2070;" horiz-adv-x="488" 
d="M387 525q0 -103 -45 -151t-124 -48t-123.5 48t-44.5 151v58q0 103 44.5 151.5t123.5 48.5t124 -48.5t45 -151.5v-58zM326 583q0 44 -8.5 73t-23 46.5t-34 24.5t-42.5 7t-43 -7t-34.5 -24.5t-22.5 -46.5t-8 -73v-58q0 -44 8 -72.5t22.5 -45.5t34.5 -24t43 -7t42.5 7t34 24
t23 45.5t8.5 72.5v58z" />
    <glyph glyph-name="four.superior" unicode="&#x2074;" horiz-adv-x="499" 
d="M271 335v117h-225v49l227 275h58v-279h72v-45h-72v-117h-60zM273 707l-170 -210h170v210z" />
    <glyph glyph-name="five.superior" unicode="&#x2075;" horiz-adv-x="472" 
d="M137 729l-13 -129h69q87 0 129 -27.5t42 -99.5v-9q0 -74 -43.5 -106t-130.5 -32q-44 0 -80 5t-52 9v42q28 -4 59.5 -7t66.5 -3q67 0 93 21t26 70v10q0 24 -6 40t-20 25.5t-36.5 13t-55.5 3.5h-119l21 221h259v-47h-209z" />
    <glyph glyph-name="six.superior" unicode="&#x2076;" horiz-adv-x="497" 
d="M366 727q-24 3 -60 6t-71 3q-38 0 -61.5 -8t-36.5 -24t-18 -38.5t-5 -50.5v-22q28 7 59 10.5t54 3.5q31 0 60 -4.5t51 -17.5t35.5 -36.5t13.5 -61.5v-21q0 -41 -14 -67.5t-37 -43t-52 -23t-59 -6.5q-38 0 -69 8t-53.5 28.5t-35 55.5t-12.5 88v104q0 42 8.5 74.5t29 54
t54.5 33t84 11.5q42 0 79 -4.5t56 -8.5v-43zM327 486q0 25 -8 41t-21.5 24t-33 11t-41.5 3q-20 0 -48.5 -2t-60.5 -10v-53q0 -39 8 -64t23 -39.5t35.5 -20t44.5 -5.5q44 0 73 22t29 73v20z" />
    <glyph glyph-name="seven.superior" unicode="&#x2077;" horiz-adv-x="464" 
d="M59 776h303v-54l-208 -387h-66l215 394h-244v47z" />
    <glyph glyph-name="eight.superior" unicode="&#x2078;" horiz-adv-x="512" 
d="M401 458q0 -44 -14 -70t-37.5 -39.5t-55.5 -18t-68 -4.5q-35 0 -66 4.5t-54.5 18t-37.5 39.5t-14 70v7q0 73 59 99q-57 26 -57 97v6q0 36 13.5 58.5t37 35t55 17.5t67.5 5q35 0 66 -5t54 -17.5t36.5 -35t13.5 -58.5v-6q0 -71 -56 -97q28 -13 43 -37.5t15 -61.5v-7z
M341 465q0 36 -15 57t-56 21h-84q-42 0 -57 -21t-15 -57v-6q0 -28 8 -45.5t23 -27t36 -13t48 -3.5q25 0 46 3.5t35.5 13t22.5 27t8 45.5v6zM340 666q0 44 -31 58.5t-83 14.5q-50 0 -80.5 -14.5t-30.5 -58.5v-6q0 -32 15 -53t56 -21h84q41 0 55.5 21.5t14.5 52.5v6z" />
    <glyph glyph-name="nine.superior" unicode="&#x2079;" horiz-adv-x="497" 
d="M75 382q19 -2 57 -5.5t75 -3.5q38 0 61.5 8.5t36.5 24t17.5 38t4.5 50.5v23q-27 -7 -58 -10.5t-54 -3.5q-31 0 -60 4.5t-51.5 17.5t-36 36.5t-13.5 61.5v21q0 40 14.5 67t37.5 43t52.5 22.5t59.5 6.5q37 0 68 -8t53.5 -28.5t35 -55t12.5 -87.5v-104q0 -42 -9 -74
t-29.5 -54.5t-54 -34t-83.5 -11.5q-42 0 -79.5 5t-56.5 8v43zM327 610q0 39 -8 64t-22.5 39.5t-34.5 20t-45 5.5q-44 0 -73.5 -22t-29.5 -73v-20q0 -26 8 -41.5t21.5 -23.5t32.5 -11t42 -3q21 0 49.5 2t59.5 10v53z" />
    <glyph glyph-name="zero.inferior" unicode="&#x2080;" horiz-adv-x="497" 
d="M392 -19q0 -103 -45 -151.5t-124 -48.5t-123.5 48.5t-44.5 151.5v58q0 103 44.5 151t123.5 48t124 -48t45 -151v-58zM332 39q0 44 -8.5 73t-23 46t-34.5 24t-43 7t-42.5 -7t-34 -24t-23 -46t-8.5 -73v-59q0 -44 8.5 -72.5t23 -45.5t34 -24t42.5 -7t43 7t34.5 24t23 45.5
t8.5 72.5v59z" />
    <glyph glyph-name="one.inferior" unicode="&#x2081;" horiz-adv-x="429" 
d="M54 -210v44l105 2v340l-106 -34v49l122 42h44v-397l107 -2v-44h-272z" />
    <glyph glyph-name="two.inferior" unicode="&#x2082;" horiz-adv-x="471" 
d="M65 225q17 4 56.5 8.5t80.5 4.5q80 0 120 -24t40 -82q0 -22 -5.5 -40.5t-20 -35t-38.5 -32.5t-60 -34q-39 -19 -62.5 -34t-36 -30.5t-17 -35t-4.5 -47.5v-5h238v-48h-298v44q0 39 7 66.5t23.5 49t44 39.5t69.5 39q33 16 53 28.5t30.5 24t13.5 23.5t3 27q0 35 -25 48.5
t-81 13.5q-17 0 -35.5 -1t-36.5 -2.5t-33.5 -3l-25.5 -2.5v41z" />
    <glyph glyph-name="three.inferior" unicode="&#x2083;" horiz-adv-x="466" 
d="M190 -219q-20 0 -41 1.5t-39 3.5t-31.5 4t-18.5 4v41q9 -1 23 -2t30.5 -2.5t35 -2.5t36.5 -1q58 0 85.5 18t27.5 68v8q0 15 -2.5 28.5t-11.5 23.5t-26 16t-45 6h-135v45h136q28 0 44.5 6.5t25.5 17.5t11.5 24.5t2.5 28.5v6q0 38 -24.5 53.5t-87.5 15.5q-17 0 -35.5 -1
t-35.5 -2.5t-31.5 -2.5t-23.5 -2v42q6 1 20 3t32 4t38.5 3.5t39.5 1.5q85 0 126.5 -24.5t41.5 -88.5v-6q0 -31 -14 -59.5t-50 -42.5q38 -12 51 -39.5t13 -58.5v-8q0 -69 -41 -99.5t-127 -30.5z" />
    <glyph glyph-name="four.inferior" unicode="&#x2084;" horiz-adv-x="497" 
d="M269 -210v117h-225v49l227 275h58v-279h72v-45h-72v-117h-60zM271 162l-170 -210h170v210z" />
    <glyph glyph-name="five.inferior" unicode="&#x2085;" horiz-adv-x="472" 
d="M137 184l-13 -129h69q87 0 129 -27.5t42 -99.5v-9q0 -74 -43.5 -106t-130.5 -32q-44 0 -80 5t-52 9v42q28 -4 59.5 -7t66.5 -3q67 0 93 21t26 70v10q0 24 -6 40t-20 25.5t-36.5 13t-55.5 3.5h-119l21 221h259v-47h-209z" />
    <glyph glyph-name="six.inferior" unicode="&#x2086;" horiz-adv-x="493" 
d="M366 182q-24 3 -60 6t-71 3q-38 0 -61.5 -8t-36.5 -24t-18 -38.5t-5 -50.5v-22q28 7 59 10.5t54 3.5q31 0 60 -4.5t51 -17.5t35.5 -36.5t13.5 -61.5v-21q0 -41 -14 -67.5t-37 -43t-52 -23t-59 -6.5q-38 0 -69 8t-53.5 28.5t-35 55.5t-12.5 88v104q0 42 8.5 74.5t29 54
t54.5 33t84 11.5q42 0 79 -4.5t56 -8.5v-43zM327 -59q0 25 -8 41t-21.5 24t-33 11t-41.5 3q-20 0 -48.5 -2t-60.5 -10v-53q0 -39 8 -64t23 -39.5t35.5 -20t44.5 -5.5q44 0 73 22t29 73v20z" />
    <glyph glyph-name="seven.inferior" unicode="&#x2087;" horiz-adv-x="462" 
d="M57 231h303v-54l-208 -387h-66l215 394h-244v47z" />
    <glyph glyph-name="eight.inferior" unicode="&#x2088;" horiz-adv-x="505" 
d="M401 -87q0 -44 -14 -70t-37.5 -39.5t-54.5 -18t-66 -4.5h-3q-35 0 -66 4.5t-54.5 18t-37.5 39.5t-14 70v7q0 73 59 99q-57 26 -57 97v6q0 36 13.5 58.5t36.5 35t54 17.5t66 5h3q35 0 66 -5t54 -17.5t36.5 -35t13.5 -58.5v-6q0 -71 -56 -97q28 -13 43 -37.5t15 -61.5v-7z
M341 -80q0 36 -15 57t-56 21h-84q-42 0 -57 -21t-15 -57v-6q0 -28 8 -45.5t22.5 -27t35 -13t46.5 -3.5h3q25 0 46 3.5t35.5 13t22.5 27t8 45.5v6zM340 121q0 44 -30.5 58.5t-80.5 14.5h-3q-50 0 -80.5 -14.5t-30.5 -58.5v-6q0 -32 15 -53t56 -21h84q41 0 55.5 21.5
t14.5 52.5v6z" />
    <glyph glyph-name="nine.inferior" unicode="&#x2089;" horiz-adv-x="493" 
d="M76 -163q9 -1 24 -2.5t33 -3t37 -2.5t37 -1q38 0 62 8.5t37 24t17.5 38t4.5 50.5v23q-27 -7 -58.5 -10.5t-54.5 -3.5q-31 0 -59.5 4.5t-51 17.5t-36 36.5t-13.5 61.5v21q0 40 14.5 67t37.5 43t52.5 22.5t59.5 6.5q37 0 68 -8t53 -28.5t34.5 -55t12.5 -87.5v-104
q0 -42 -8.5 -74t-29 -54.5t-54.5 -34t-84 -11.5q-42 0 -79.5 5t-55.5 8v43zM328 65q0 39 -8 64t-22.5 39.5t-35 20t-44.5 5.5q-44 0 -73.5 -22t-29.5 -73v-20q0 -26 8 -41.5t21.5 -23.5t32.5 -11t42 -3q20 0 49 2t60 10v53z" />
    <glyph glyph-name="cent.inferior" horiz-adv-x="418" 
d="M322 -206q-19 -4 -42.5 -6.5t-46.5 -3.5v-76h-52v79q-63 9 -99 53.5t-36 143.5v56q0 178 135 196v74h52v-72q23 -1 46.5 -3.5t42.5 -5.5v-48l-51.5 4t-48.5 2q-32 0 -54.5 -8t-36.5 -25.5t-20 -45.5t-6 -68v-56q0 -40 6 -68t19.5 -46t36 -26t55.5 -8q26 0 52 1.5t48 3.5
v-47v0z" />
    <glyph glyph-name="dollar.inferior" horiz-adv-x="443" 
d="M57 -158q20 -2 54.5 -5t75.5 -3q99 0 99 70q0 29 -17 44.5t-58 32.5l-62 27q-46 20 -75 46t-29 76q0 53 35 78t90 30v75h54v-74q35 -1 65.5 -4.5t43.5 -6.5v-47q-26 3 -63 6t-66 3q-41 0 -69.5 -12.5t-28.5 -46.5q0 -26 17 -42.5t53 -30.5l63 -24q54 -20 81 -48.5
t27 -78.5q0 -57 -34.5 -86t-88.5 -35v-77h-54v74q-32 1 -63.5 5t-49.5 8v46z" />
    <glyph glyph-name="period.inferior" horiz-adv-x="216" 
d="M112 -76v-88h-57v58q1 8 5 15q4 5 11 10t21 5h20z" />
    <glyph glyph-name="comma.inferior" horiz-adv-x="258" 
d="M95 -219h-51l51 143h62z" />
    <glyph glyph-name="Delta" unicode="&#x2206;" horiz-adv-x="724" 
d="M37 0l252 743h94l254 -743h-600zM379 556q-12 36 -22 70.5l-19 68.5h-2q-10 -33 -19.5 -68t-21.5 -71l-167 -497h417z" />
    <glyph glyph-name="uni03A9" unicode="&#x3a9;" horiz-adv-x="713" 
d="M611 389q0 -95 -40.5 -168t-132.5 -110v-55h164v-56h-226v144q87 26 127.5 88.5t40.5 156.5v59q0 69 -16.5 116.5t-45 77t-67 42t-83.5 12.5t-84 -12.5t-67.5 -42t-44.5 -77t-16 -116.5v-59q0 -94 40.5 -156.5t127.5 -88.5v-144h-226v56h164v55q-92 37 -132.5 110
t-40.5 168v59q0 76 19.5 134t56 96t88 57.5t115.5 19.5t115.5 -19.5t88 -57.5t56 -96t19.5 -134v-59v0z" />
    <glyph glyph-name="uni03BC" unicode="&#x3bc;" horiz-adv-x="677" 
d="M460 0v44q-50 -26 -97.5 -41.5t-96.5 -15.5q-35 0 -59.5 9t-39.5 29v-234h-66v752h65v-344q0 -44 5.5 -73.5t18.5 -48t34.5 -26.5t54.5 -8q41 0 85.5 14.5t95.5 38.5v447h65v-543h-65z" />
    <glyph glyph-name="pi" unicode="&#x3c0;" horiz-adv-x="664" 
d="M577 -9q-25 -5 -53 -5q-32 0 -52.5 8.5t-32 25.5t-16 42.5t-4.5 59.5v360h-214v-482h-66v482h-94v61h532v-61h-93v-360q0 -23 2 -38.5t8 -25t16.5 -13.5t27.5 -4h39v-50v0z" />
    <glyph glyph-name="uni037E" unicode="&#x37e;" horiz-adv-x="286" 
d="M153 404v-138h-66v108q0 8 4 15q3 5 10.5 10t21.5 5h30z" />
    <glyph glyph-name="exclamdbl" unicode="&#x203c;" horiz-adv-x="481" 
d="M145 191h-58l-7 574h71zM282 0v127h67v-127h-67zM345 191h-58l-7 574h71zM149 127v-127h-15t-22.5 3.5t-20.5 11t-9 22.5v90h67z" />
    <glyph glyph-name="franc" unicode="&#x20a3;" horiz-adv-x="626" 
d="M99 0v176h-58v61h58v506h428v-60h-362v-265h338v-61h-338v-120h193v-61h-193v-176h-66z" />
    <glyph glyph-name="lira" unicode="&#x20a4;" horiz-adv-x="663" 
d="M545 681q-19 3 -42 5l-46.5 4t-46.5 3t-42 1q-51 0 -82.5 -9.5t-49 -31t-23 -57.5t-5.5 -89v-55h260v-56h-260v-91h260v-56h-260v-55q0 -42 -9.5 -73.5t-34.5 -63.5h381v-57h-455v52q31 33 41 67.5t10 74.5v55h-82v56h82v91h-82v56h82v55q0 63 9 109t34 76.5t68 45.5
t112 15q60 0 107 -6t74 -11v-55z" />
    <glyph glyph-name="peseta" unicode="&#x20a7;" horiz-adv-x="704" 
d="M107 743q41 1 87.5 2.5t97.5 1.5q63 0 113.5 -9t87.5 -30.5t59 -58t27 -91.5h61v-59h-61q-4 -57 -26 -95t-59 -60.5t-88.5 -32t-114.5 -9.5h-56t-61 1v-303h-67v499h-69v59h69v185zM513 533q0 46 -13.5 76t-40.5 47t-68.5 24t-98.5 7q-34 0 -63.5 -1t-54.5 -2v-322
q32 -1 61 -1h56q56 0 98 7.5t69.5 26t41 49t13.5 76.5v13z" />
    <glyph glyph-name="Euro" unicode="&#x20ac;" horiz-adv-x="687" 
d="M404 695q-44 0 -80 -9t-64 -32.5t-46.5 -64t-27.5 -103.5h343l-15 -53h-335q-2 -29 -1.5 -60t2.5 -63h299l-14 -52h-278q9 -64 28 -105t46.5 -64.5t63.5 -32.5t79 -9q19 0 42 1t45.5 3l44 4t39.5 4v-56q-25 -5 -72.5 -10.5t-101.5 -5.5q-53 0 -100 12t-84.5 43
t-63.5 83.5t-36 132.5h-68v52h63q-2 32 -2.5 63t1.5 60h-62v53h68q9 81 35 133t63.5 82t85 42t100.5 12q54 0 101.5 -6t72.5 -11v-55q-18 1 -39.5 3.5t-44 4l-45.5 3t-42 1.5z" />
    <glyph glyph-name="litre" unicode="&#x2113;" horiz-adv-x="510" 
d="M411 39q-68 -56 -135 -56t-97.5 37.5t-30.5 115.5v129l-37 -34l-39 -35l-30 35l55.5 51l50.5 48v267q0 91 28.5 140t102.5 49q34 0 57.5 -10.5t38 -28t20.5 -40.5t6 -49q0 -45 -13 -85.5t-37 -80t-58.5 -80t-78.5 -84.5v-184q0 -62 16.5 -84.5t57.5 -22.5q23 0 46.5 11
t45.5 29zM348 658q0 34 -13 56t-51 22q-24 0 -37.5 -9.5t-21 -27t-9.5 -43.5t-2 -59v-200q34 37 59 69t41.5 63t25 62.5t8.5 66.5z" />
    <glyph glyph-name="Omega" unicode="&#x2126;" horiz-adv-x="713" 
d="M611 389q0 -95 -40.5 -168t-132.5 -110v-55h164v-56h-226v144q87 26 127.5 88.5t40.5 156.5v59q0 69 -16.5 116.5t-45 77t-67 42t-83.5 12.5t-84 -12.5t-67.5 -42t-44.5 -77t-16 -116.5v-59q0 -94 40.5 -156.5t127.5 -88.5v-144h-226v56h164v55q-92 37 -132.5 110
t-40.5 168v59q0 76 19.5 134t56 96t88 57.5t115.5 19.5t115.5 -19.5t88 -57.5t56 -96t19.5 -134v-59v0z" />
    <glyph glyph-name="estimated" unicode="&#x212e;" horiz-adv-x="696" 
d="M161 282v-193q34 -30 73 -46.5t87 -16.5q44 0 77.5 10.5t59.5 27.5t46 40t38 49l33 -19q-21 -30 -44.5 -56t-53.5 -45t-68.5 -29.5t-87.5 -10.5q-65 0 -117.5 23t-90 63t-58 92.5t-20.5 111.5q0 60 20 112.5t57.5 92t91 62.5t121.5 23q67 0 120.5 -23.5t90.5 -63
t57 -92.5t20 -112h-452zM487 478q-29 25 -72.5 43.5t-89.5 18.5q-48 0 -90 -15.5t-74 -46.5v-163h326v163z" />
    <glyph glyph-name="partialdiff" unicode="&#x2202;" horiz-adv-x="654" 
d="M543 460q0 -49 -5.5 -106.5t-15.5 -113.5q-24 -130 -87.5 -192t-172.5 -62q-103 0 -151.5 50.5t-48.5 144.5q0 28 3 57.5t11 55.5q17 90 77 142t164 52q28 0 54.5 -5.5t47.5 -16.5t35.5 -27.5t20.5 -37.5q2 25 2.5 48.5t-0.5 41.5q-2 52 -12.5 95t-35 73.5t-64 47
t-99.5 16.5q-32 0 -67 -3.5t-69 -11.5v53q65 17 138 17t125.5 -21.5t85.5 -62.5t48.5 -100t15.5 -134zM462 300q0 61 -34.5 96t-110.5 35q-77 0 -120 -39t-57 -109q-8 -23 -11 -50t-3 -52q0 -71 33.5 -104t108.5 -33q87 0 131.5 51.5t57.5 142.5q2 18 3.5 34.5t1.5 27.5z
" />
    <glyph glyph-name="product" unicode="&#x220f;" horiz-adv-x="763" 
d="M573 682v-748h-67v748h-297v-748h-67v748h-104v61h639v-61h-104z" />
    <glyph glyph-name="summation" unicode="&#x2211;" horiz-adv-x="638" 
d="M79 -66v60l238 339l-238 350v60h434v-61h-352l225 -332v-36l-225 -319h352v-61h-434z" />
    <glyph glyph-name="uni2219" unicode="&#x2219;" horiz-adv-x="263" 
d="M140 438v-138h-67v108q1 8 5 15q4 5 11 10t21 5h30z" />
    <glyph glyph-name="radical" unicode="&#x221a;" horiz-adv-x="839" 
d="M425 -74h-83l-166 495h-119v60h165l162 -496l144.5 444l144.5 444h65z" />
    <glyph glyph-name="infinity" unicode="&#x221e;" horiz-adv-x="807" 
d="M633 364q0 -27 -3 -66t-17 -75t-42.5 -62t-78.5 -26h-6q-35 0 -65 16.5t-54 46.5q-16 -29 -40 -46.5t-59 -17.5h-7q-51 0 -79 26t-42 62.5t-17 76t-3 65.5v19q0 26 3 65t17 75.5t42.5 62.5t79.5 26h6q35 0 64.5 -17t52.5 -48q16 32 40 48.5t62 16.5h6q50 0 78.5 -26
t42 -62.5t16.5 -75.5t3 -66v-18zM576 382q0 27 -2 57.5t-10.5 56.5t-25 43.5t-45.5 17.5h-6q-23 0 -37 -12.5t-22.5 -36.5t-13.5 -58.5t-9 -79.5q-4 -34 -8 -64.5t-10 -53.5q22 -32 47.5 -47.5t51.5 -15.5h6q29 0 46 17.5t25.5 43.5t10.5 56.5t2 57.5v18zM367 492
q-44 65 -99 65h-6q-30 0 -47 -17t-25.5 -43t-10.5 -56.5t-2 -57.5v-19q0 -27 2 -57.5t10.5 -56.5t25 -43.5t46.5 -17.5h7q21 0 35 12t23 36t14.5 59t10.5 80q3 32 7 61.5t9 54.5z" />
    <glyph glyph-name="integral" unicode="&#x222b;" horiz-adv-x="565" 
d="M459 703q-6 0 -16.5 1t-23 1.5l-25.5 1t-25 0.5q-26 0 -41.5 -5t-23.5 -17t-10.5 -33t-2.5 -52v-646q0 -35 -4 -64.5t-18.5 -50.5t-41.5 -32.5t-72 -11.5q-27 0 -55 4t-42 7v46q6 0 16.5 -1t23.5 -1.5l26 -1t25 -0.5q25 0 40.5 5t23.5 17t10.5 32.5t2.5 51.5v646
q0 36 4 65.5t18.5 50.5t41.5 32.5t73 11.5q26 0 54.5 -4t41.5 -7v-46v0z" />
    <glyph glyph-name="approxequal" unicode="&#x2248;" horiz-adv-x="746" 
d="M573 567q0 -67 -21.5 -106t-83.5 -39q-35 0 -62 13t-53 36l-53 46q-22 19 -38 29.5t-34 10.5q-32 0 -40.5 -23t-8.5 -66v-36h-57v36q0 66 23 105.5t83 39.5q31 0 54 -13.5t52 -38.5l52 -45q20 -17 35 -28t35 -11t32 5t18 15.5t8 27.5t2 42v36h57v-36zM573 312
q0 -67 -21.5 -106t-83.5 -39q-35 0 -62 13t-53 36l-53 47q-22 19 -37 29.5t-35 10.5q-32 0 -40.5 -23.5t-8.5 -66.5v-36h-57v36q0 66 23 105.5t83 39.5q30 0 54 -13.5t52 -37.5l52 -46q23 -20 41 -29.5t41 -9.5q32 0 40 24t8 66v36h57v-36z" />
    <glyph glyph-name="notequal" unicode="&#x2260;" horiz-adv-x="746" 
d="M329 252l-89 -252h-58l89 252h-141v55h162l60 169h-222v56h242l76 213h57l-75 -213h138v-56h-159l-59 -169h218v-55h-239z" />
    <glyph glyph-name="lessequal" unicode="&#x2264;" horiz-adv-x="746" 
d="M106 0v55h482v-55h-482zM416 149l-279 246l279 246h89l-278 -246l278 -246h-89z" />
    <glyph glyph-name="greaterequal" unicode="&#x2265;" horiz-adv-x="746" 
d="M106 0v55h482v-55h-482zM279 149h-90l279 246l-279 246h90l278 -246z" />
    <glyph glyph-name="lozenge" unicode="&#x25ca;" horiz-adv-x="735" 
d="M339 62l-240 295l243 300l242 -297zM342 572l-174 -215l171 -210l176 213z" />
    <glyph glyph-name="uni00A0" unicode="&#xa0;" horiz-adv-x="226" 
 />
    <glyph glyph-name="uni00AD" unicode="&#xad;" horiz-adv-x="445" 
d="M75 262v56h245v-56h-245z" />
    <glyph glyph-name="uni02C9" unicode="&#x2c9;" horiz-adv-x="501" 
d="M54 664v52h343v-52h-343z" />
    <glyph glyph-name="Dotaccent" horiz-adv-x="481" 
d="M253 946v-121h-65v91q1 8 5 15q4 5 11 10t21 5h28z" />
    <glyph glyph-name="Breve" horiz-adv-x="495" 
d="M385 951q-3 -33 -12 -61.5t-28 -49.5t-48.5 -33t-73.5 -12t-74 12t-48.5 33t-27.5 49.5t-12 61.5h50q5 -54 29.5 -83t82.5 -29q57 0 81.5 29t30.5 83h50v0z" />
    <glyph glyph-name="Ogonek" horiz-adv-x="495" 
d="M344 -207q-9 -3 -32 -6.5t-52 -3.5q-63 0 -92.5 25.5t-29.5 68.5q0 21 10.5 39t29.5 34.5t44.5 31.5l55.5 32l70 -5q-45 -24 -75 -42t-47 -32.5t-24 -27.5t-7 -27q0 -25 15 -39.5t55 -14.5q21 0 41.5 2t37.5 4v-39v0z" />
    <glyph glyph-name="Cedilla" horiz-adv-x="485" 
d="M144 -209h-68l121 141h81z" />
    <glyph glyph-name="Ring" horiz-adv-x="496" 
d="M339 850q0 -56 -33 -81.5t-82 -25.5t-82.5 25.5t-33.5 81.5q0 57 33.5 82.5t82.5 25.5t82 -25.5t33 -82.5zM293 850q0 39 -21.5 53t-47.5 14q-27 0 -48 -14t-21 -53q0 -38 21 -52t48 -14q13 0 25.5 3t22 10.5t15.5 20.5t6 32z" />
    <glyph glyph-name="Tilde" horiz-adv-x="498" 
d="M414 924q0 -57 -18.5 -90.5t-70.5 -33.5q-27 0 -49 10.5t-47 33.5l-41 38q-19 18 -32 26t-30 8q-28 0 -35.5 -21t-7.5 -56v-34h-49v34q0 57 20.5 90.5t71.5 33.5q28 0 47.5 -9.5t44.5 -32.5l42 -39q18 -17 32 -25.5t32 -8.5q28 0 35 20.5t7 55.5v33h48v-33v0z" />
    <glyph glyph-name="Circumflex" horiz-adv-x="503" 
d="M339 795l-113 117l-112 -117h-68l139 154h83l139 -154h-68z" />
    <glyph glyph-name="Acute" horiz-adv-x="493" 
d="M223 795h-67l135 154h79z" />
    <glyph glyph-name="Caron" horiz-adv-x="503" 
d="M114 949l112 -117l114 117h67l-138 -154h-84l-138 154h67z" />
    <glyph glyph-name="Dieresis" horiz-adv-x="491" 
d="M306 817v119h59v-119h-59zM136 936v-119h-60v89q1 8 5 15q4 5 11 10t21 5h23z" />
    <glyph glyph-name="Grave" horiz-adv-x="481" 
d="M205 797l-148 154h80l134 -154h-66z" />
    <glyph glyph-name="Hungarumlaut" horiz-adv-x="499" 
d="M364 795h-67l135 154h79zM299 949l-147 -154h-68l135 154h80z" />
    <glyph glyph-name="Macron" horiz-adv-x="501" 
d="M54 850v52h343v-52h-343z" />
    <glyph glyph-name="commaaccent.cap" horiz-adv-x="547" 
d="M200 -209h-61l80 141h76z" />
    <glyph glyph-name="h.superior" horiz-adv-x="462" 
d="M123 773v-157q20 10 49 19.5t63 9.5q62 0 87 -32t25 -101v-210h-58v209q0 52 -15.5 70t-52.5 18q-28 0 -54.5 -8.5t-43.5 -16.5v-272h-58v471h58z" />
    <glyph glyph-name="zero.slash" 
d="M575 313q0 -85 -17.5 -146.5t-50 -101.5t-79.5 -59t-106 -19q-57 0 -102 17t-77 55l-40 -59h-66l72 107q-40 77 -40 206v116q0 169 67 247.5t186 78.5q55 0 100 -17t77 -53l39 58h66l-71 -105q20 -38 31 -90t11 -119v-116zM508 429q0 45 -5 80t-15 62l-308 -457
q26 -38 61.5 -54t80.5 -16q40 0 74 13.5t59 44.5t39 82.5t14 128.5v116zM136 313q0 -45 5 -79t14 -60l306 455q-25 37 -60.5 52.5t-78.5 15.5q-40 0 -74 -13.5t-59 -44.5t-39 -82.5t-14 -127.5v-116z" />
    <glyph glyph-name="percent.oldstyle" unicode="&#xfe6a;" horiz-adv-x="922" 
d="M812 164q0 -89 -36 -132t-104 -43q-139 0 -139 175v10q0 175 139 175q68 0 104 -42.5t36 -132.5v-10zM755 174q0 37 -6 61.5t-17 39.5t-26 21t-34 6q-38 0 -60.5 -27.5t-22.5 -100.5v-10q0 -37 6 -61.5t17 -39t26 -20.5t34 -6t34 6t26 20.5t17 39t6 61.5v10zM295 0h-61
l347 555h61zM343 381q0 -88 -35.5 -131.5t-103.5 -43.5q-69 0 -104.5 43.5t-35.5 131.5v10q0 90 35.5 133t104.5 43q68 0 103.5 -43t35.5 -133v-10zM288 391q0 37 -6 61.5t-17 39.5t-26.5 21t-34.5 6q-38 0 -60.5 -27t-22.5 -101v-10q0 -37 6 -61.5t17 -39t26 -20.5t34 -6
t34.5 6t26.5 20.5t17 39t6 61.5v10z" />
    <glyph glyph-name="perthousand.oldstyle" horiz-adv-x="1262" 
d="M1151 164q0 -89 -36 -132t-103 -43q-140 0 -140 175v10q0 175 140 175q67 0 103 -42.5t36 -132.5v-10zM1095 174q0 73 -23 100.5t-60 27.5q-19 0 -34.5 -6t-26.5 -21t-17 -39.5t-6 -61.5v-10q0 -37 6 -61.5t17 -39t26.5 -20.5t34.5 -6q18 0 33.5 6t26.5 20.5t17 39
t6 61.5v10zM812 164q0 -89 -36 -132t-104 -43q-139 0 -139 175v10q0 175 139 175q68 0 104 -42.5t36 -132.5v-10zM755 174q0 37 -6 61.5t-17 39.5t-26 21t-34 6q-38 0 -60.5 -27.5t-22.5 -100.5v-10q0 -37 6 -61.5t17 -39t26 -20.5t34 -6t34 6t26 20.5t17 39t6 61.5v10z
M295 0h-61l347 555h61zM343 381q0 -88 -35.5 -131.5t-103.5 -43.5q-69 0 -104.5 43.5t-35.5 131.5v10q0 90 35.5 133t104.5 43q68 0 103.5 -43t35.5 -133v-10zM288 391q0 37 -6 61.5t-17 39.5t-26.5 21t-34.5 6q-38 0 -60.5 -27t-22.5 -101v-10q0 -37 6 -61.5t17 -39
t26 -20.5t34 -6t34.5 6t26.5 20.5t17 39t6 61.5v10z" />
    <glyph glyph-name="zero.taboldstyle" 
d="M573 257q0 -132 -67 -201t-186 -69t-185.5 69t-66.5 201v41q0 131 66.5 200t185.5 69t186 -69t67 -200v-41zM506 298q0 58 -14 98t-38.5 65t-59 36.5t-74.5 11.5t-74 -11.5t-58.5 -36.5t-38.5 -65t-14 -98v-41q0 -57 14 -97.5t38.5 -66t58.5 -37t74 -11.5t74.5 11.5
t59 37t38.5 66t14 97.5v41z" />
    <glyph glyph-name="one.taboldstyle" 
d="M128 0v56l161 3v433l-162 -56v64l178 63h51v-504l158 -3v-56h-386z" />
    <glyph glyph-name="two.taboldstyle" 
d="M101 546q19 5 44 9t51.5 6.5t53.5 4t51 1.5q68 0 115.5 -10t77 -29.5t43 -49t13.5 -68.5q0 -38 -12.5 -70t-42 -64.5t-78.5 -69t-121 -82.5l-99 -64h348v-60h-454v60l165 105q67 42 110.5 74.5t69.5 60.5t36.5 54t10.5 56q0 55 -44.5 77t-141.5 22q-21 0 -47 -1.5
t-52.5 -3.5t-52 -5t-44.5 -6v53z" />
    <glyph glyph-name="three.taboldstyle" 
d="M545 9q0 -111 -63.5 -160.5t-190.5 -49.5q-29 0 -59 2.5t-57 6t-48 7t-32 5.5v51q13 -2 35.5 -4.5t48.5 -4.5t55 -3.5t56 -1.5q100 0 144 34t44 118v28q0 25 -4 49t-18 43t-41 30.5t-73 11.5h-220v56h220q46 0 73 11.5t41 30.5t18 43.5t4 50.5v14q0 36 -9 61t-30.5 40.5
t-57.5 23t-91 7.5q-53 0 -106 -4t-87 -8v52l27 4t47.5 6t59 5.5t60.5 2.5q67 0 115 -10.5t79 -33t45.5 -59t14.5 -87.5v-14q0 -26 -5 -51t-16.5 -46.5t-30.5 -39t-48 -27.5q30 -11 49 -28t30.5 -38.5t16 -46t4.5 -49.5v-28v0z" />
    <glyph glyph-name="four.taboldstyle" 
d="M474 20v-207h-67v207h-360v68l350 469h77v-479h119v-58h-119zM407 468l-292 -390h292v390z" />
    <glyph glyph-name="five.taboldstyle" 
d="M552 20q0 -114 -63 -166t-199 -52q-34 0 -66.5 2.5t-59.5 6t-47 7t-29 5.5v54q31 -5 86 -11t115 -6q56 0 94 9t61 28.5t32.5 50t9.5 72.5v27q0 43 -11 72.5t-35.5 46.5t-63.5 24.5t-95 7.5h-177l32 359h387v-60h-330l-22 -241h113q67 0 117.5 -11t84 -36t50 -64.5
t16.5 -97.5v-27v0z" />
    <glyph glyph-name="six.taboldstyle" 
d="M572 221q0 -71 -23.5 -116.5t-59.5 -71.5t-79.5 -36t-83.5 -10q-52 0 -98.5 11.5t-82 43.5t-56 90.5t-20.5 151.5v192q0 67 13 119t44.5 87.5t83.5 54t130 18.5q31 0 62.5 -2.5t59 -6t48.5 -7t32 -5.5v-52q-15 2 -38 4.5t-50 5t-56.5 4t-56.5 1.5q-66 0 -106.5 -15.5
t-62.5 -44t-29 -69t-7 -91.5v-47q22 6 47.5 11t51 8t49 5t43.5 2q46 0 90 -7.5t78.5 -29t55.5 -60.5t21 -102v-36zM505 255q0 47 -13.5 75.5t-37.5 44.5t-57 21t-72 5q-36 0 -87 -4.5t-102 -18.5v-99q0 -69 13.5 -114t38.5 -71.5t60 -37.5t78 -11q38 0 71 10t57 31.5
t37.5 54.5t13.5 80v34z" />
    <glyph glyph-name="seven.taboldstyle" 
d="M225 -186h-74l339 683h-402v60h466v-70z" />
    <glyph glyph-name="eight.taboldstyle" 
d="M578 211q0 -74 -20 -118t-54.5 -67.5t-81 -31t-100.5 -7.5h-5q-54 0 -101 7.5t-81.5 31.5t-54 68t-19.5 118v7q0 66 22.5 107t71.5 61q-47 19 -69 60t-22 100v10q0 59 19.5 97t53.5 60.5t80 31t100 8.5h5q54 0 100 -8.5t80 -31t53.5 -60.5t19.5 -97v-10q0 -60 -22 -100.5
t-69 -59.5q49 -20 71.5 -61t22.5 -106v-9zM511 220q0 32 -5.5 57.5t-19 43.5t-37 27.5t-58.5 9.5h-143q-35 0 -58.5 -9.5t-37 -27.5t-19 -44t-5.5 -58v-7q0 -53 12.5 -85.5t37 -51t59.5 -25t80 -6.5h5q45 0 80 6.5t59.5 25t37 51t12.5 84.5v9zM509 557q0 42 -12.5 69
t-36.5 43t-59 22t-79 6h-5q-44 0 -79 -6t-59 -22t-36.5 -43t-12.5 -69v-10q0 -28 5 -52t18.5 -41.5t36.5 -27.5t58 -10h143q35 0 58 10t36.5 27.5t18.5 41.5t5 52v10z" />
    <glyph glyph-name="nine.taboldstyle" 
d="M572 78q0 -68 -13 -120t-44.5 -87t-83.5 -53.5t-130 -18.5q-31 0 -62.5 2.5t-59 5.5t-49 6.5t-31.5 5.5v53q15 -2 38 -4.5t50 -5t56 -4t56 -1.5q67 0 107.5 15.5t62.5 44t29 69t7 90.5v48q-22 -6 -47.5 -11t-51 -8.5t-49.5 -5t-44 -1.5q-46 0 -89.5 7.5t-78 29
t-55.5 60.5t-21 102v36q0 70 23.5 115.5t59.5 72t79.5 36.5t83.5 10q51 0 98 -11.5t82 -43.5t56 -90.5t21 -151.5v-192zM505 275q0 69 -13.5 114t-38.5 71.5t-60 37.5t-78 11q-38 0 -71 -10t-57 -31.5t-38 -55t-14 -79.5v-34q0 -47 14 -75.5t38 -44.5t57 -21t72 -5
q36 0 86.5 4.5t102.5 18.5v99z" />
    <glyph glyph-name="colonmonetary.taboldstyle" horiz-adv-x="598" 
d="M459 496q-28 5 -61 7.5t-70 2.5q-86 0 -126 -42t-40 -145v-84q0 -52 9.5 -87.5t30 -57.5t51.5 -32t75 -10q60 0 131 9v-53q-16 -4 -32 -6l-32 -4v-105h-54v100h-20q-15 0 -28.5 1t-26.5 3v-104h-54v121q-59 24 -87.5 79t-28.5 146v84q0 175 116 225v119h54v-103
q12 3 27.5 4.5t29.5 1.5h18v97h54v-102q18 -2 33 -4.5t31 -5.5v-55z" />
    <glyph glyph-name="Euro.taboldstyle" horiz-adv-x="611" 
d="M347 507q-36 0 -63.5 -6.5t-47 -22t-31.5 -43t-17 -69.5h254l-14 -48h-242q-1 -44 0 -86h221l-13 -48h-206q4 -41 16 -67.5t32 -43t48 -23t65 -6.5q31 0 67.5 2t65.5 6v-52q-27 -5 -65 -9t-71 -4q-50 0 -89 9.5t-67 32t-44.5 60.5t-22.5 95h-52v48h50q-1 42 0 86h-50v48
h52q6 58 22.5 97t44.5 61.5t66.5 32t87.5 9.5q35 0 73 -4.5t65 -9.5v-54q-36 4 -71 6.5t-64 2.5z" />
    <glyph glyph-name="florin.taboldstyle" horiz-adv-x="651" 
d="M513 528q-17 2 -34 3t-34 1q-20 0 -34 -3t-24 -12.5t-16.5 -27t-10.5 -45.5l-16 -120h149l-7 -51h-149l-29 -224q-5 -40 -15.5 -66.5t-27 -43t-40.5 -23.5t-57 -7q-23 0 -44.5 2.5t-37.5 5.5l7 49q20 -2 35.5 -3t34.5 -1q42 0 58 20t24 71l28 220h-128l7 51h129l16 125
q5 39 16.5 65t29 41.5t41.5 22t55 6.5q22 0 43 -2.5t36 -5.5z" />
    <glyph glyph-name="numbersign.taboldstyle" horiz-adv-x="656" 
d="M414 157l-16 -157h-57l17 157h-140l-16 -157h-56l16 157h-71v51h77l17 161h-94v51h100l18 163h55l-17 -163h139l18 163h56l-18 -163h78v-51h-84l-17 -161h101v-51h-106zM241 369l-18 -161h141l16 161h-139z" />
    <glyph glyph-name="sterling.taboldstyle" horiz-adv-x="611" 
d="M474 497q-41 5 -76 7t-58 2q-37 0 -61.5 -6.5t-38.5 -22t-20 -42t-6 -66.5v-57h198v-55h-198v-99q0 -34 -6.5 -56.5t-23.5 -43.5h290v-58h-364v50q24 26 32 51t8 57v99h-64v55h64v57q0 51 9 88t30 61t56 35.5t87 11.5q37 0 73 -3.5t69 -9.5v-55z" />
    <glyph glyph-name="yen.taboldstyle" horiz-adv-x="619" 
d="M252 0v181h-196v49h192l-46 84h-146v48h121l-100 192h72l99 -193q20 -38 35 -76h2q8 20 17 39t19 38l99 192h70l-100 -192h124v-48h-148l-46 -84h194v-49h-198v-181h-64z" />
    <glyph glyph-name="dollar.taboldstyle" horiz-adv-x="604" 
d="M102 57q26 -3 70 -7t99 -4q64 0 95.5 23.5t31.5 67.5q0 19 -5 33.5t-17.5 27t-33 24t-51.5 24.5l-66 29q-67 28 -100.5 62t-33.5 93q0 120 160 133v101h59v-99q42 -2 79 -7t57 -10v-51q-21 2 -64 7t-95 5q-62 0 -96.5 -16.5t-34.5 -61.5q0 -35 22 -57t78 -45l67 -29
q37 -15 63.5 -30.5t43.5 -34t25.5 -42.5t8.5 -55q0 -59 -38 -98.5t-119 -47.5v-101h-59v98q-44 2 -84 7t-62 11v50z" />
    <glyph glyph-name="cent.taboldstyle" horiz-adv-x="599" 
d="M458 500q-40 4 -69 6t-64 2q-86 0 -126 -43t-40 -145v-86q0 -103 39.5 -145.5t126.5 -42.5q32 0 65 2.5t68 7.5v-52q-59 -12 -116 -14v-110h-59v111q-97 11 -143 70t-46 173v86q0 112 46 172t143 71v110h60v-109q27 -1 56.5 -4.5t58.5 -8.5v-51z" />
    <glyph glyph-name="zero.denominator" horiz-adv-x="497" 
d="M392 191q0 -103 -45 -151.5t-124 -48.5t-123.5 48.5t-44.5 151.5v58q0 103 44.5 151t123.5 48t124 -48t45 -151v-58zM332 249q0 44 -8.5 73t-23 46t-34.5 24t-43 7t-42.5 -7t-34 -24t-23 -46t-8.5 -73v-59q0 -44 8.5 -72.5t23 -45.5t34 -24t42.5 -7t43 7t34.5 24t23 45.5
t8.5 72.5v59z" />
    <glyph glyph-name="one.denominator" horiz-adv-x="429" 
d="M54 0v44l105 2v340l-106 -34v49l122 42h44v-397l107 -2v-44h-272z" />
    <glyph glyph-name="two.denominator" horiz-adv-x="471" 
d="M65 435q17 4 56.5 8.5t80.5 4.5q80 0 120 -24t40 -82q0 -22 -5.5 -40.5t-20 -35t-38.5 -32.5t-60 -34q-39 -19 -62.5 -34t-36 -30.5t-17 -35t-4.5 -47.5v-5h238v-48h-298v44q0 39 7 66.5t23.5 49t44 39.5t69.5 39q33 16 53 28.5t30.5 24t13.5 23.5t3 27q0 35 -25 48.5
t-81 13.5q-17 0 -35.5 -1t-36.5 -2.5t-33.5 -3l-25.5 -2.5v41z" />
    <glyph glyph-name="three.denominator" horiz-adv-x="466" 
d="M60 436q6 1 20 3t32 4t38.5 3.5t39.5 1.5q85 0 126.5 -24.5t41.5 -88.5v-6q0 -31 -14 -59.5t-50 -42.5q38 -12 51 -39.5t13 -58.5v-8q0 -69 -41 -99.5t-127 -30.5q-20 0 -41 1.5t-39 3.5t-31.5 4t-18.5 4v41q9 -1 23 -2t30.5 -2.5t35 -2.5t36.5 -1q58 0 85.5 18t27.5 68
v8q0 15 -2.5 28.5t-11.5 23.5t-26 16t-45 6h-135v45h136q28 0 44.5 6.5t25.5 17.5t11.5 24.5t2.5 28.5v6q0 38 -24.5 53.5t-87.5 15.5q-17 0 -35.5 -1t-35.5 -2.5t-31.5 -2.5t-23.5 -2v42z" />
    <glyph glyph-name="four.denominator" horiz-adv-x="497" 
d="M269 0v117h-225v49l227 275h58v-279h72v-45h-72v-117h-60zM271 372l-170 -210h170v210z" />
    <glyph glyph-name="five.denominator" horiz-adv-x="472" 
d="M137 394l-13 -129h69q87 0 129 -27.5t42 -99.5v-9q0 -74 -43.5 -106t-130.5 -32q-44 0 -80 5t-52 9v42q28 -4 59.5 -7t66.5 -3q67 0 93 21t26 70v10q0 24 -6 40t-20 25.5t-36.5 13t-55.5 3.5h-119l21 221h259v-47h-209z" />
    <glyph glyph-name="six.denominator" horiz-adv-x="493" 
d="M366 392q-24 3 -60 6t-71 3q-38 0 -61.5 -8t-36.5 -24t-18 -38.5t-5 -50.5v-22q28 7 59 10.5t54 3.5q31 0 60 -4.5t51 -17.5t35.5 -36.5t13.5 -61.5v-21q0 -41 -14 -67.5t-37 -43t-52 -23t-59 -6.5q-38 0 -69 8t-53.5 28.5t-35 55.5t-12.5 88v104q0 42 8.5 74.5t29 54
t54.5 33t84 11.5q42 0 79 -4.5t56 -8.5v-43zM327 151q0 25 -8 41t-21.5 24t-33 11t-41.5 3q-20 0 -48.5 -2t-60.5 -10v-53q0 -39 8 -64t23 -39.5t35.5 -20t44.5 -5.5q44 0 73 22t29 73v20z" />
    <glyph glyph-name="seven.denominator" horiz-adv-x="462" 
d="M57 441h303v-54l-208 -387h-66l215 394h-244v47z" />
    <glyph glyph-name="eight.denominator" horiz-adv-x="505" 
d="M401 123q0 -44 -14 -70t-37.5 -39.5t-55.5 -18t-68 -4.5q-35 0 -66 4.5t-54.5 18t-37.5 39.5t-14 70v7q0 73 59 99q-57 26 -57 97v6q0 36 13.5 58.5t37 35t55 17.5t67.5 5q35 0 66 -5t54 -17.5t36.5 -35t13.5 -58.5v-6q0 -71 -56 -97q28 -13 43 -37.5t15 -61.5v-7z
M341 130q0 36 -15 57t-56 21h-84q-42 0 -57 -21t-15 -57v-6q0 -28 8 -45.5t23 -27t36 -13t48 -3.5q25 0 46 3.5t35.5 13t22.5 27t8 45.5v6zM340 331q0 44 -31 58.5t-83 14.5q-50 0 -80.5 -14.5t-30.5 -58.5v-6q0 -32 15 -53t56 -21h84q41 0 55.5 21.5t14.5 52.5v6z" />
    <glyph glyph-name="nine.denominator" horiz-adv-x="493" 
d="M76 47q9 -1 24 -2.5t33 -3t37 -2.5t37 -1q38 0 62 8.5t37 24t17.5 38t4.5 50.5v23q-27 -7 -58.5 -10.5t-54.5 -3.5q-31 0 -59.5 4.5t-51 17.5t-36 36.5t-13.5 61.5v21q0 40 14.5 67t37.5 43t52.5 22.5t59.5 6.5q37 0 68 -8t53 -28.5t34.5 -55t12.5 -87.5v-104
q0 -42 -8.5 -74t-29 -54.5t-54.5 -34t-84 -11.5q-42 0 -79.5 5t-55.5 8v43zM328 275q0 39 -8 64t-22.5 39.5t-35 20t-44.5 5.5q-44 0 -73.5 -22t-29.5 -73v-20q0 -26 8 -41.5t21.5 -23.5t32.5 -11t42 -3q20 0 49 2t60 10v53z" />
    <glyph glyph-name="comma.denominator" horiz-adv-x="258" 
d="M95 -55h-51l51 143h62z" />
    <glyph glyph-name="period.denominator" horiz-adv-x="216" 
d="M112 88v-88h-57v58q1 8 5 15q4 5 11 10t21 5h20z" />
    <glyph glyph-name="cent.denominator" horiz-adv-x="418" 
d="M222 397q-32 0 -54.5 -8t-36.5 -25.5t-20 -45.5t-6 -68v-56q0 -40 6 -68t19.5 -46t36 -26t55.5 -8q26 0 52 1.5t48 3.5v-47q-19 -4 -42.5 -6.5t-46.5 -3.5v-76h-52v79q-63 9 -99 53.5t-36 143.5v56q0 178 135 196v74h52v-72q23 -1 46.5 -3.5t42.5 -5.5v-48l-51.5 4
t-48.5 2z" />
    <glyph glyph-name="dollar.denominator" horiz-adv-x="443" 
d="M57 52l54.5 -5.5t75.5 -3.5q99 0 99 70q0 29 -17 44.5t-58 33.5l-62 27q-46 19 -75 45t-29 76q0 54 35 78.5t90 29.5v75h54v-73q35 -2 65.5 -5.5t43.5 -6.5v-47q-26 3 -63 6t-66 3q-42 0 -70 -12t-28 -46q0 -26 17.5 -42.5t52.5 -30.5l63 -25q53 -21 80.5 -49t27.5 -77
q0 -57 -34.5 -86.5t-88.5 -35.5v-76h-54v74q-32 1 -63.5 4.5t-49.5 7.5v47z" />
    <glyph glyph-name="hyphen.denominator" horiz-adv-x="312" 
d="M55 169v46h152v-46h-152z" />
    <glyph glyph-name="parenleft.denominator" horiz-adv-x="300" 
d="M146 -78q-14 17 -29.5 42.5t-28.5 58.5t-21 73t-8 87v4q0 46 8.5 86.5t21.5 74t28.5 59t29.5 43.5h59q-35 -47 -60.5 -111t-25.5 -152v-4q0 -87 24.5 -150.5t59.5 -110.5h-58z" />
    <glyph glyph-name="parenright.denominator" horiz-adv-x="300" 
d="M190 183q0 -47 -8.5 -87t-21 -73t-28 -58.5t-29.5 -42.5h-59q35 48 60 110.5t25 150.5v4q0 88 -25.5 152t-60.5 111h59q14 -18 29.5 -43.5t28.5 -59t21.5 -74t8.5 -86.5v-4v0z" />
    <glyph glyph-name="zero.numerator" horiz-adv-x="501" 
d="M396 498q0 -103 -45 -151.5t-124 -48.5t-123.5 48.5t-44.5 151.5v58q0 103 44.5 151t123.5 48t124 -48t45 -151v-58zM336 556q0 44 -8.5 73t-23 46t-34.5 24t-43 7t-42.5 -7t-34 -24t-23 -46t-8.5 -73v-59q0 -44 8.5 -72.5t23 -45.5t34 -24t42.5 -7t43 7t34.5 24t23 45.5
t8.5 72.5v59z" />
    <glyph glyph-name="one.numerator" horiz-adv-x="437" 
d="M61 307v44l106 2v340l-107 -34v49l122 42h45v-397l107 -2v-44h-273z" />
    <glyph glyph-name="two.numerator" horiz-adv-x="471" 
d="M66 742q8 1 22.5 3.5t33.5 4.5t40 3.5t41 1.5q80 0 120 -24.5t40 -81.5q0 -23 -5.5 -41t-20 -34.5t-38.5 -32.5t-60 -34q-39 -19 -62.5 -34t-36.5 -30.5t-17.5 -35t-4.5 -47.5v-6h239v-47h-298v44q0 39 7 66t23.5 48.5t44 40t69.5 38.5q33 16 53 28.5t30.5 24t13.5 23.5
t3 28q0 35 -25.5 48t-80.5 13q-17 0 -36 -1l-36.5 -2t-33 -2.5l-25.5 -2.5v41z" />
    <glyph glyph-name="three.numerator" horiz-adv-x="467" 
d="M191 298q-20 0 -40.5 1.5t-38.5 3.5t-31.5 4t-19.5 3v42q18 -2 54 -5t71 -3q60 0 86.5 17.5t26.5 67.5v8q0 15 -2.5 29t-11.5 24t-26 16t-45 6h-135v45h136q28 0 44.5 6.5t25.5 17.5t11.5 24.5t2.5 28.5v5q0 39 -24 54.5t-88 15.5q-17 0 -35 -1t-35 -2.5t-32 -2.5t-24 -2
v41l20 3.5t32 4.5t38.5 3.5t39.5 1.5q85 0 126.5 -24.5t41.5 -88.5v-6q0 -32 -14 -60t-49 -42q37 -13 50 -40t13 -58v-8q0 -69 -40.5 -99.5t-127.5 -30.5z" />
    <glyph glyph-name="four.numerator" horiz-adv-x="499" 
d="M269 307v117h-225v49l227 275h58v-279h72v-45h-72v-117h-60zM271 679l-170 -210h170v210z" />
    <glyph glyph-name="five.numerator" horiz-adv-x="473" 
d="M138 701l-12 -129h68q87 0 129 -27.5t42 -99.5v-9q0 -74 -43 -106t-130 -32q-45 0 -81 5t-51 9v42q28 -4 59 -7t66 -3q67 0 93 21t26 70v10q0 24 -6 40t-20 25.5t-36.5 13t-54.5 3.5h-119l20 221h259v-47h-209z" />
    <glyph glyph-name="six.numerator" horiz-adv-x="497" 
d="M366 699q-24 3 -60 6t-71 3q-38 0 -61.5 -8t-36.5 -24t-18 -38.5t-5 -50.5v-22q28 7 59 10.5t54 3.5q31 0 60 -4.5t51 -17.5t35.5 -36.5t13.5 -61.5v-21q0 -41 -14 -67.5t-37 -43t-52 -23t-59 -6.5q-38 0 -69 8t-53.5 28.5t-35 55.5t-12.5 88v104q0 42 8.5 74.5t29 54
t54.5 33t84 11.5q42 0 79 -4.5t56 -8.5v-43zM327 458q0 25 -8 41t-21.5 24t-33 11t-41.5 3q-20 0 -48.5 -2t-60.5 -10v-53q0 -39 8 -64t23 -39.5t35.5 -20t44.5 -5.5q44 0 73 22t29 73v20z" />
    <glyph glyph-name="seven.numerator" horiz-adv-x="464" 
d="M59 748h303v-54l-208 -387h-66l215 394h-244v47z" />
    <glyph glyph-name="eight.numerator" horiz-adv-x="512" 
d="M401 429q0 -44 -14 -70t-37.5 -39.5t-55.5 -18t-68 -4.5q-35 0 -66 4.5t-54.5 18t-37.5 39.5t-14 70v7q0 73 59 99q-57 26 -57 97v6q0 36 13.5 58.5t37 35t55 17.5t67.5 5q35 0 66 -5t54 -17.5t36.5 -35t13.5 -58.5v-6q0 -71 -56 -97q28 -13 43 -37.5t15 -61.5v-7z
M341 436q0 36 -15 57t-56 21h-84q-42 0 -57 -21t-15 -57v-6q0 -28 8 -45.5t23 -27t36 -13t48 -3.5q25 0 46 3.5t35.5 13t22.5 27t8 45.5v6zM340 637q0 44 -31 58.5t-83 14.5q-50 0 -80.5 -14.5t-30.5 -58.5v-6q0 -32 15 -53t56 -21h84q41 0 55.5 21.5t14.5 52.5v6z" />
    <glyph glyph-name="nine.numerator" horiz-adv-x="497" 
d="M76 354q9 -1 24 -2.5t33 -3t37 -2.5t37 -1q38 0 62 8.5t37 24t17.5 38t4.5 50.5v23q-27 -7 -58.5 -10.5t-54.5 -3.5q-31 0 -59.5 4.5t-51 17.5t-36 36.5t-13.5 61.5v21q0 40 14.5 67t37.5 43t52.5 22.5t59.5 6.5q37 0 68 -8t53 -28.5t34.5 -55t12.5 -87.5v-104
q0 -42 -8.5 -74t-29 -54.5t-54.5 -34t-84 -11.5q-42 0 -79.5 5t-55.5 8v43zM328 582q0 39 -8 64t-22.5 39.5t-35 20t-44.5 5.5q-44 0 -73.5 -22t-29.5 -73v-20q0 -26 8 -41.5t21.5 -23.5t32.5 -11t42 -3q20 0 49 2t60 10v53z" />
    <glyph glyph-name="comma.numerator" horiz-adv-x="258" 
d="M95 250h-51l51 143h62z" />
    <glyph glyph-name="period.numerator" horiz-adv-x="216" 
d="M112 393v-89h-57v59q1 8 5 15q4 5 11 10t21 5h20z" />
    <glyph glyph-name="cent.numerator" horiz-adv-x="418" 
d="M322 308q-20 -4 -43.5 -6.5t-46.5 -3.5v-76h-51v79q-64 9 -100 53.5t-36 143.5v56q0 178 136 196v74h51v-72q23 -1 46.5 -3.5t43.5 -5.5v-48l-52 4t-49 2q-64 0 -90.5 -33.5t-26.5 -113.5v-56q0 -80 25.5 -114t91.5 -34q26 0 52.5 1.5t48.5 3.5v-47v0z" />
    <glyph glyph-name="dollar.numerator" horiz-adv-x="443" 
d="M56 358q20 -2 54.5 -5t75.5 -3q99 0 99 70q0 29 -17 44t-58 33l-62 27q-46 20 -75 46t-29 76q0 53 35 78t90 30v75h54v-74q35 -1 65.5 -4.5t43.5 -6.5v-47q-26 3 -63 6t-66 3q-41 0 -69.5 -12.5t-28.5 -46.5q0 -26 17 -42.5t53 -30.5l63 -24q54 -20 81 -48.5t27 -78.5
q0 -57 -34.5 -86t-88.5 -35v-77h-54v74q-32 1 -63.5 5t-49.5 8v46z" />
    <glyph glyph-name="hyphen.numerator" horiz-adv-x="312" 
d="M55 474v46h152v-46h-152z" />
    <glyph glyph-name="parenleft.numerator" horiz-adv-x="300" 
d="M146 234q-14 17 -29.5 42.5t-28 59t-21 74.5t-8.5 89q0 46 8.5 86.5t21.5 74t28.5 59t29.5 43.5h59q-35 -48 -60.5 -111.5t-25.5 -151.5q0 -90 25 -154t60 -111h-59z" />
    <glyph glyph-name="parenright.numerator" horiz-adv-x="300" 
d="M190 494q0 -46 -8.5 -86t-21 -73t-28 -58.5t-29.5 -42.5h-58q35 48 59.5 110.5t24.5 149.5v5q0 88 -25.5 151.5t-60.5 111.5h59q14 -18 29.5 -43.5t28.5 -59t21.5 -74t8.5 -86.5v-5v0z" />
    <glyph glyph-name="parenleft.cap" horiz-adv-x="328" 
d="M175 0q-21 27 -41.5 66.5t-37 88t-26.5 104t-10 115.5v5q0 60 10 115t26.5 102.5t37 87t41.5 67.5h59q-51 -72 -82 -166t-31 -206v-5q0 -114 31 -208t82 -166h-59z" />
    <glyph glyph-name="parenright.cap" horiz-adv-x="328" 
d="M227 374q0 -60 -10 -115.5t-26.5 -104t-37 -88t-41.5 -66.5h-58q50 72 81 166t31 208v5q0 112 -31 206t-81 166h58q21 -28 41.5 -67.5t37 -87t26.5 -102.5t10 -115v-5v0z" />
    <glyph glyph-name="bracketleft.cap" horiz-adv-x="381" 
d="M94 0v743h179v-53h-118v-638h118v-52h-179z" />
    <glyph glyph-name="bracketright.cap" horiz-adv-x="381" 
d="M66 0v52h118v638h-118v53h178v-743h-178z" />
    <glyph glyph-name="braceleft.cap" horiz-adv-x="404" 
d="M259 0q-47 0 -75.5 9t-43.5 26t-20 40.5t-5 53.5v97q0 25 -2.5 42.5t-9.5 31t-19 25t-31 24.5v45q19 13 31 24.5t19 25t9.5 31t2.5 42.5v96q0 30 5 54.5t20 41t43.5 25.5t75.5 9h43v-54h-43q-28 0 -44.5 -4t-25 -13t-11 -23.5t-2.5 -35.5v-96q0 -54 -14.5 -86.5
t-52.5 -59.5q38 -27 53 -59t15 -86v-97q0 -21 2.5 -35.5t10.5 -23.5t24.5 -13t44.5 -4h43v-53h-43z" />
    <glyph glyph-name="braceright.cap" horiz-adv-x="404" 
d="M297 349q-18 -13 -30 -24.5t-19 -25t-9.5 -31t-2.5 -42.5v-97q0 -30 -5 -53.5t-20.5 -40.5t-44 -26t-75.5 -9h-42v53h42q28 0 44.5 4t24.5 13t10.5 23.5t2.5 35.5v97q0 54 15.5 86t52.5 59q-38 27 -52.5 59.5t-14.5 86.5v96q0 21 -2.5 35.5t-11 23.5t-25 13t-44.5 4h-42
v54h42q47 0 75.5 -9t44 -25.5t20.5 -41t5 -54.5v-96q0 -25 2.5 -42.5t9.5 -31t19 -25t30 -24.5v-45v0z" />
    <glyph glyph-name="exclamdown.cap" horiz-adv-x="281" 
d="M151 -22h-71l7 574h58zM149 743v-127h-67v97q1 8 5 15q4 5 11 10t21 5h30z" />
    <glyph glyph-name="questiondown.cap" horiz-adv-x="503" 
d="M267 -33q-46 0 -83.5 7.5t-63.5 25.5t-40.5 47.5t-14.5 73.5v6q0 25 4.5 47.5t16.5 45t32 47t50 54.5q35 34 55 58.5t30.5 44.5t13 40t2.5 47v39h64v-39q0 -30 -3 -55t-14 -49.5t-32 -51.5t-56 -61q-30 -28 -48.5 -49.5t-29 -40.5t-14.5 -37t-4 -40v-6q0 -29 9.5 -48
t27.5 -29.5t44 -14.5t59 -4t72.5 3.5t79.5 8.5v-50q-37 -9 -78 -14.5t-79 -5.5zM333 743v-130h-66v100q1 8 5 15q4 5 11 10t21 5h29z" />
    <glyph glyph-name="guillemotleft.cap" horiz-adv-x="663" 
d="M56 393l159 206h78l-156 -206l156 -207h-78zM479 599h78l-158 -206l158 -207h-78l-161 207z" />
    <glyph glyph-name="guillemotright.cap" horiz-adv-x="663" 
d="M398 186h-78l156 207l-156 206h78l159 -206zM295 393l-161 -207h-78l158 207l-158 206h78z" />
    <glyph glyph-name="guilsinglleft.cap" horiz-adv-x="400" 
d="M216 186l-160 207l160 206h78l-157 -206l157 -207h-78z" />
    <glyph glyph-name="guilsinglright.cap" horiz-adv-x="400" 
d="M134 186h-78l158 207l-158 206h78l161 -206z" />
    <glyph glyph-name="hyphen.cap" horiz-adv-x="415" 
d="M69 367v56h226v-56h-226z" />
    <glyph glyph-name="endash.cap" horiz-adv-x="522" 
d="M67 333v56h337v-56h-337z" />
    <glyph glyph-name="emdash.cap" horiz-adv-x="678" 
d="M67 333v56h495v-56h-495z" />
    <glyph glyph-name="periodcentered.cap" horiz-adv-x="274" 
d="M145 459v-130h-66v100q1 8 5 15q4 5 11 10t21 5h29z" />
    <glyph glyph-name="at.cap" horiz-adv-x="873" 
d="M771 478q0 -66 -16.5 -124t-56.5 -101.5t-107.5 -68.5t-168.5 -25q-102 0 -147.5 36.5t-45.5 116.5q0 14 1 35.5t3 38.5q6 58 22 96.5t41 60.5t57.5 31t71.5 9q35 0 73 -4.5t73 -13.5l-35 -343q50 10 85 33.5t56.5 57t31.5 75.5t10 90q0 111 -64.5 171t-203.5 60
q-137 0 -216 -64t-109 -208q-17 -73 -17 -158q0 -58 15.5 -103t48.5 -76t84.5 -47.5t123.5 -16.5q26 0 53 1t50 2.5t40 3.5t24 3v-39q-10 -2 -27.5 -4l-40 -4.5t-48 -4t-51.5 -1.5q-166 0 -245 75t-79 212q0 89 17 163q31 160 123 235.5t254 75.5q82 0 142.5 -19.5
t100 -55.5t58.5 -87t19 -114zM504 523q-15 2 -37.5 4t-40.5 2q-26 0 -48 -5t-39 -20.5t-28.5 -44t-16.5 -74.5q-2 -26 -3.5 -43t-1.5 -30q0 -58 30.5 -80t101.5 -22q17 0 28 0.5t24 1.5z" />
    <glyph glyph-name="T_h" horiz-adv-x="1119" 
d="M927 0v342q0 46 -6.5 76.5t-21 48.5t-37 25.5t-55.5 7.5q-48 0 -94.5 -15t-78.5 -31v-454h-65v683h-232v-683h-67v683h-240v60h604v-236q31 16 78.5 33t106.5 17q93 0 133 -51.5t40 -161.5v-344h-65z" />
    <glyph glyph-name="A.alt" horiz-adv-x="693" 
d="M256 685l-62 4v54h174l251 -743h-71l-87 263h-282l-88 -263h-68zM356 573q-10 29 -17 56l-15 59h-7q-15 -60 -32 -115l-86 -249h241z" />
    <glyph glyph-name="B.alt" horiz-adv-x="674" 
d="M85 683l-57 5v55q33 0 62 0.5l58 1l60 1t68 0.5q69 0 123 -8t91 -29t56 -57.5t19 -93.5v-9q0 -24 -6 -49t-19.5 -47t-36 -39.5t-56.5 -27.5q34 -10 57.5 -27.5t37.5 -40t20.5 -48.5t6.5 -54v-14q0 -62 -21 -101.5t-59 -63t-93 -32.5t-122 -9q-33 0 -57.5 0.5t-45.5 1
t-41.5 1.5t-44.5 1v683zM502 216q0 28 -7.5 54t-27.5 45.5t-55.5 31t-91.5 11.5h-168v-300l56.5 -2t65.5 -1q57 0 99.5 6.5t71 23t43 45t14.5 72.5v14zM498 558q0 41 -14 66.5t-42 39t-69.5 18t-96.5 4.5q-37 0 -65 -0.5t-59 -1.5v-268h168q56 0 90.5 11t54 29.5t26.5 42.5
t7 50v9z" />
    <glyph glyph-name="C.alt" horiz-adv-x="600" 
d="M520 2q-19 -3 -67 -9t-106 -6q-66 0 -120 16.5t-92.5 56t-59 105.5t-20.5 164v85q0 98 20.5 163.5t59 105t92.5 56t120 16.5q28 0 55.5 -2t50.5 -4.5t40.5 -5t26.5 -4.5v-129h-53l-7 80q-23 2 -52 3.5t-61 1.5q-57 0 -99.5 -15t-70.5 -48t-41.5 -86.5t-13.5 -131.5v-85
q0 -78 13.5 -131.5t41.5 -87t70.5 -48.5t99.5 -15q50 0 96 4t77 7v-56z" />
    <glyph glyph-name="D.alt" horiz-adv-x="709" 
d="M85 683l-57 5v55q34 0 64 0.5l60 1l62.5 1t70.5 0.5q167 0 243 -84.5t76 -245.5v-88q0 -81 -18 -143t-56 -104t-99 -63.5t-146 -21.5q-32 0 -57 0.5t-47.5 1l-45 1t-50.5 0.5v684zM537 416q0 75 -16.5 127t-48.5 83.5t-80.5 45.5t-111.5 14q-34 0 -66 -0.5t-62 -1.5v-625
q28 -2 62 -3t66 -1q63 0 111.5 14.5t80.5 46.5t48.5 84.5t16.5 127.5v88z" />
    <glyph glyph-name="E.alt" horiz-adv-x="618" 
d="M152 683v-265h337v-61h-337v-298h361v-59h-428v685l-57 3v55h485v-60h-361z" />
    <glyph glyph-name="F.alt" horiz-adv-x="608" 
d="M85 685l-57 3v55h485v-60h-361v-265h337v-61h-337v-357h-67v685z" />
    <glyph glyph-name="G.alt" horiz-adv-x="669" 
d="M554 5q-33 -5 -88 -11.5t-118 -6.5q-64 0 -117.5 17t-92.5 57t-61 104.5t-22 160.5v91q0 100 23.5 165t63.5 103.5t93 54t113 15.5q36 0 70 -2t61.5 -5t47 -6t27.5 -4v-130h-53l-7 80q-26 2 -63 4.5t-74 2.5q-53 0 -96.5 -12t-74.5 -43t-47.5 -85t-16.5 -138v-91
q0 -80 16 -133.5t46 -85.5t73.5 -45.5t98.5 -13.5q32 0 67 1t64 4v272l-115 5v53h182v-378v0z" />
    <glyph glyph-name="H.alt" horiz-adv-x="758" 
d="M556 0v365h-404v-365h-67v685l-57 3v55h124v-317h404v317h67v-743h-67z" />
    <glyph glyph-name="I.alt" horiz-adv-x="290" 
d="M30 0v54l57 3v628l-57 3v55h180v-55l-56 -3v-628l56 -3v-54h-180z" />
    <glyph glyph-name="J.alt" horiz-adv-x="290" 
d="M153 685v-741q0 -38 -6 -67t-21.5 -49t-42.5 -30.5t-69 -10.5q-17 0 -37.5 2.5t-31.5 4.5v51q17 -1 32.5 -1h32.5q27 0 42 6t23 18.5t10 31.5t2 44v741l-57 3v55h180v-55z" />
    <glyph glyph-name="K.alt" horiz-adv-x="651" 
d="M494 0l-337 364v-364h-67v685l-57 3v55h124v-353l341 353h87l-353 -365l354 -378h-92z" />
    <glyph glyph-name="M.alt" horiz-adv-x="841" 
d="M640 0v539q0 33 1 58.5t3 57.5h-2q-12 -26 -24.5 -50l-25.5 -49l-155 -292h-84l-153 292l-24.5 49.5l-25.5 49.5h-2q2 -32 2.5 -57t0.5 -59v-539h-66v685l-57 3v55h145l177 -341l22 -44.5l22 -44.5h2l22 45.5l22 44.5l179 340h87v-743h-66z" />
    <glyph glyph-name="N.alt" horiz-adv-x="742" 
d="M512 -1l-313 577l-26.5 50.5l-26.5 53.5h-1q3 -62 3 -128v-552h-63v685l-57 3v55h152l314 -571l25.5 -50l25.5 -52h1q-2 35 -2.5 68t-0.5 62v543h64v-744h-95z" />
    <glyph glyph-name="P.alt" horiz-adv-x="640" 
d="M83 0v685l-56 3v55q60 0 115.5 2t119.5 2q66 0 119 -9.5t90.5 -33.5t58 -65.5t20.5 -105.5v-13q0 -64 -20.5 -106t-58.5 -67t-91.5 -35t-119.5 -10h-24.5h-24t-27.5 0.5t-34 0.5v-303h-67zM150 362q25 -1 54 -1h56q57 0 98.5 7.5t69.5 26t41.5 49t13.5 76.5v13
q0 46 -13.5 76t-41 47t-69 24t-97.5 7q-35 0 -65.5 -1t-46.5 -2v-322z" />
    <glyph glyph-name="Q.alt" horiz-adv-x="721" 
d="M616 332q0 -166 -65.5 -249.5t-181.5 -93.5v-173h-66v173q-59 5 -105 28t-77.5 65.5t-48.5 104.5t-17 145v78q0 176 73.5 260.5t207.5 84.5q133 0 206.5 -84.5t73.5 -260.5v-78zM549 410q0 81 -16 135.5t-44 87.5t-67.5 47.5t-85.5 14.5q-47 0 -86 -14.5t-67.5 -47.5
t-44.5 -87.5t-16 -135.5v-78q0 -81 16 -135.5t44.5 -87.5t67.5 -47.5t86 -14.5q46 0 85.5 14.5t67.5 47.5t44 87.5t16 135.5v78z" />
    <glyph glyph-name="R.alt" horiz-adv-x="672" 
d="M516 0l-185 303q-17 -1 -36 -1h-34h-57t-52 1v-303h-67v685l-57 3v55q54 0 108.5 2t122.5 2q66 0 120 -10t92.5 -34.5t59.5 -66t21 -104.5v-8q0 -90 -38.5 -138.5t-111.5 -68.5l193 -317h-79zM484 532q0 46 -14 76t-42 47.5t-70 24.5t-99 7q-29 0 -52 -1t-55 -2v-322
q25 -1 52.5 -1h56.5q57 0 99 8.5t69.5 27.5t41 50t13.5 77v8z" />
    <glyph glyph-name="S.alt" horiz-adv-x="622" 
d="M71 59q32 -4 88 -9t118 -5q82 0 127 31t45 107q0 28 -7 49t-22.5 38.5t-40.5 33t-62 33.5l-101 47q-38 18 -67.5 37t-50.5 42.5t-32 52.5t-11 67q0 90 60 131t176 41q31 0 61.5 -2t57 -4.5t48 -5.5t34.5 -6v-128h-52l-9 81q-29 3 -66 4.5t-72 1.5q-80 0 -125.5 -24.5
t-45.5 -88.5q0 -26 7.5 -45.5t22.5 -36t38.5 -31.5t55.5 -30l101 -46q43 -21 75 -41.5t53 -45t31.5 -54.5t10.5 -70q0 -196 -240 -196q-33 0 -64.5 2t-59 4.5t-49 5.5t-33.5 6v54z" />
    <glyph glyph-name="U.alt" horiz-adv-x="733" 
d="M603 319q0 -166 -62.5 -248.5t-198.5 -82.5q-137 0 -199.5 82.5t-62.5 248.5v367l-59 3v54h126v-417q0 -74 9.5 -126.5t32 -86t60 -49.5t93.5 -16q55 0 92.5 16t60 50t32.5 86.5t10 125.5v417h66v-424v0z" />
    <glyph glyph-name="Z.alt" horiz-adv-x="654" 
d="M557 0h-510v73l423 610h-348l-6 -74h-53v134h479v-73l-422 -611h437v-59z" />
    <glyph glyph-name="a.alt" horiz-adv-x="581" 
d="M395 0v39q-29 -17 -74.5 -34.5t-106.5 -17.5q-80 0 -121 37.5t-41 118.5v15q0 52 16.5 84.5t48 50.5t77.5 24.5t106 6.5h92v46q0 40 -5.5 65.5t-21 40t-44 20t-73.5 5.5q-21 0 -45.5 -1t-56.5 -3l-6 -61h-51v102q28 5 71 12t93 7q65 0 105 -11t62.5 -34.5t30 -58.5
t7.5 -83v-370h-63zM392 273h-92q-49 0 -84 -4.5t-57 -17t-32 -35t-10 -58.5v-19q0 -57 29.5 -79t80.5 -22q25 0 50 5t46.5 12.5t39.5 16t29 15.5v186z" />
    <glyph glyph-name="b.alt" horiz-adv-x="609" 
d="M504 244q0 -69 -14.5 -118t-43.5 -80t-73.5 -45t-105.5 -14q-20 0 -39.5 0.5t-41.5 2t-47.5 3.5t-58.5 6v716l-56 4v54h121v-248q38 18 77.5 25.5t71.5 7.5q108 0 159 -57t51 -187v-70zM438 314q0 53 -8.5 88.5t-26.5 57.5t-47 31t-69 9q-12 0 -29 -1.5t-36.5 -4.5
t-39.5 -8.5t-37 -13.5v-421q29 -3 60.5 -4.5t62.5 -1.5q44 0 76 9.5t53 32.5t31 61.5t10 95.5v70z" />
    <glyph glyph-name="c.alt" horiz-adv-x="516" 
d="M421 4q-27 -6 -64 -11.5t-85 -5.5q-112 0 -164.5 61t-52.5 194v60q0 132 53 193.5t164 61.5q45 0 83.5 -5t65.5 -12v-106h-52l-6 61q-25 3 -46.5 4t-35.5 1q-39 0 -68.5 -8.5t-50 -31t-31 -60.5t-10.5 -98v-60q0 -61 10.5 -99.5t30.5 -60.5t50 -30.5t69 -8.5q21 0 55 2.5
t85 8.5v-50v0z" />
    <glyph glyph-name="d.alt" horiz-adv-x="609" 
d="M416 0v31q-29 -16 -69.5 -30t-91.5 -14q-99 0 -149.5 58t-50.5 189v67q0 74 16 123t45.5 78.5t71 42t93.5 12.5q29 0 60.5 -2.5t72.5 -9.5v170l-63 3v55h128v-773h-63zM414 490q-39 5 -73.5 8t-55.5 3q-41 0 -71.5 -8.5t-51 -31t-31 -61t-10.5 -99.5v-67q0 -103 34 -147
t111 -44q43 0 80 12.5t68 27.5v407z" />
    <glyph glyph-name="g.alt" horiz-adv-x="600" 
d="M506 -45q0 -39 -12 -71.5t-40 -55t-72.5 -35t-108.5 -12.5q-65 0 -109 12t-70.5 34.5t-38 55t-11.5 72.5q0 38 14.5 69.5t38.5 54.5q-47 25 -47 77q0 30 14.5 53t40.5 40q-23 23 -32.5 54.5t-9.5 71.5q0 37 8 70t31.5 58t65 39.5t108.5 14.5h224v-46l-71 -6
q23 -14 39.5 -46t16.5 -84q0 -39 -10.5 -72t-35.5 -56.5t-65 -36.5t-100 -13q-45 0 -76.5 6.5t-53.5 18.5q-36 -25 -36 -60q0 -22 12.5 -32.5t41.5 -10.5h109q57 0 101 -6t73.5 -24t45 -50t15.5 -84zM442 -44q0 32 -7.5 53t-27 33.5t-52.5 17.5t-84 5h-119
q-19 -17 -31 -42.5t-12 -66.5q0 -29 6.5 -51t24.5 -38t50 -24t83 -8q50 0 82.5 8t52 24t27 38t7.5 51zM423 375q0 28 -5.5 51.5t-21 40.5t-45 27t-77.5 10q-50 0 -79.5 -10t-44.5 -27.5t-19.5 -41t-4.5 -50.5t5.5 -50.5t21 -40t44.5 -26t77 -9.5t77 9.5t45 26t21.5 40
t5.5 50.5z" />
    <glyph glyph-name="h.alt" horiz-adv-x="639" 
d="M438 0v342q0 46 -6.5 76.5t-21 48.5t-37 25.5t-55.5 7.5q-49 0 -95 -15t-78 -31v-454h-65v715l-56 3v55h121v-266q31 16 78 33t107 17q92 0 133 -51.5t41 -161.5v-344h-66z" />
    <glyph glyph-name="i.alt" horiz-adv-x="286" 
d="M85 0v485l-55 3v55h121v-543h-66zM152 773v-124h-67v94q1 8 5 15q4 5 11 10t21 5h30z" />
    <glyph glyph-name="j.alt" horiz-adv-x="286" 
d="M151 -74q0 -39 -6 -66.5t-20 -45t-37.5 -25.5t-59.5 -8q-15 0 -34 1t-31 3v49q15 -1 30 -1.5t29 -0.5q20 0 32.5 5t19 16t9 29t2.5 44v559l-55 3v55h121v-617zM152 773v-125h-67v95q1 8 5 15q4 5 11 10t21 5h30z" />
    <glyph glyph-name="k.alt" horiz-adv-x="537" 
d="M386 0l-241 275v-275h-65v715l-55 3v55h120v-478l240 248h86l-253 -257l255 -286h-87z" />
    <glyph glyph-name="l.alt" horiz-adv-x="282" 
d="M84 0v715l-56 3v55h121v-773h-65z" />
    <glyph glyph-name="m.alt" horiz-adv-x="885" 
d="M693 0v363q0 32 -2.5 57.5t-12 43t-28.5 27t-52 9.5q-32 0 -71.5 -13t-81.5 -38q7 -35 7 -86v-363h-66v363q0 33 -2 58.5t-11 43t-27 26.5t-50 9q-35 0 -75 -15t-76 -36v-449h-65v485l-56 3v55h121v-43q38 26 80 41.5t85 15.5q49 0 77.5 -16t43.5 -45q48 32 92.5 46.5
t82.5 14.5q55 0 85.5 -17.5t45.5 -45.5t18.5 -62.5t3.5 -68.5v-363h-66z" />
    <glyph glyph-name="n.alt" horiz-adv-x="630" 
d="M438 0v344q0 43 -5.5 73t-18 48.5t-34 26.5t-54.5 8q-39 0 -84.5 -14t-96.5 -38v-448h-65v485l-55 3v55h120v-44q45 24 91.5 41t95.5 17q52 0 85.5 -13.5t53 -40.5t26.5 -67t7 -92v-344h-66z" />
    <glyph glyph-name="p.alt" horiz-adv-x="610" 
d="M80 -209v694l-56 3v55h118v-39q35 23 79.5 38t89.5 15q97 0 145 -60t48 -201v-40q0 -77 -16.5 -128.5t-46.5 -82.5t-72.5 -44.5t-95.5 -13.5q-25 0 -59 3.5t-70 9.5v-209h-64zM439 296q0 57 -8 96t-24.5 62.5t-42.5 34t-62 10.5q-39 0 -77 -12.5t-81 -33.5v-398
q79 -12 129 -12q40 0 71 9.5t52 33.5t32 65.5t11 104.5v40z" />
    <glyph glyph-name="r.alt" horiz-adv-x="411" 
d="M80 0v485l-55 3v55h119v-44q48 34 102.5 46t101.5 12v-59q-23 0 -49 -3t-53 -9t-53.5 -15.5t-48.5 -22.5v-448h-64z" />
    <glyph glyph-name="s.alt" horiz-adv-x="519" 
d="M56 59q31 -5 76.5 -10.5t96.5 -5.5q38 0 63.5 6.5t41 18t22 28t6.5 36.5q0 21 -5.5 36t-19 27.5t-37 24.5t-60.5 27l-38 16q-78 32 -115.5 68t-37.5 94q0 132 194 132q25 0 50.5 -2t47.5 -4.5t39.5 -6t27.5 -6.5v-103h-52l-7 59q-22 2 -51.5 4t-51.5 2q-68 0 -99.5 -15
t-31.5 -60q0 -19 6 -33.5t19 -26.5t34.5 -23.5t53.5 -24.5l38 -16q45 -20 76 -37t50 -36t27.5 -41.5t8.5 -53.5q0 -28 -9.5 -54.5t-32 -46.5t-60.5 -32.5t-95 -12.5q-27 0 -54 2t-50.5 5t-42 6.5t-28.5 6.5v52z" />
    <glyph glyph-name="u.alt" horiz-adv-x="630" 
d="M500 543v-543h-65v44q-50 -26 -97 -41.5t-96 -15.5q-50 0 -82 15t-50.5 42.5t-25.5 67t-7 87.5v286l-56 3v55h120v-344q0 -44 5.5 -73.5t18.5 -48t34.5 -26.5t54.5 -8q41 0 85.5 14.5t95.5 38.5v447h65z" />
    <glyph glyph-name="y.alt" horiz-adv-x="632" 
d="M502 -20q0 -48 -9 -85.5t-32.5 -62.5t-64 -38t-103.5 -13q-28 0 -56 2t-53.5 4.5t-46 5t-33.5 4.5v49q44 -4 92.5 -6.5t96.5 -2.5q45 0 72.5 8t43.5 25t21.5 44t5.5 66v27q-9 -3 -23 -6.5t-31 -6.5t-36.5 -5t-38.5 -2q-57 0 -100 13t-72 43t-43.5 77.5t-14.5 116.5v306
h65v-306q0 -55 9.5 -92t29.5 -59.5t51.5 -32.5t75.5 -10q19 0 38 2t36 5t31.5 6t23.5 6v481h65v-563v0z" />
    <glyph glyph-name="z.alt" horiz-adv-x="529" 
d="M433 0h-391v72l319 416h-249l-6 -53h-52v108h378v-67l-323 -422h324v-54z" />
    <glyph glyph-name="a.alt2" horiz-adv-x="609" 
d="M416 0v31q-29 -16 -69.5 -30t-91.5 -14q-100 0 -150 62t-50 184v69q0 73 16 122.5t45.5 78.5t72 41.5t95.5 12.5q35 0 87.5 -2.5t107.5 -10.5v-544h-63zM414 495q-38 3 -74.5 4.5t-54.5 1.5q-41 0 -71.5 -8.5t-51.5 -30.5t-31.5 -61t-10.5 -99v-69q0 -94 34.5 -142
t111.5 -48q42 0 79.5 12t68.5 28v412z" />
    <glyph glyph-name="u.alt2" horiz-adv-x="627" 
d="M500 259q0 -66 -10.5 -116.5t-35.5 -85t-65.5 -52.5t-100.5 -18q-59 0 -99.5 18t-65.5 52.5t-36 85t-11 116.5v284h65v-284q0 -55 7 -95.5t24.5 -67t45.5 -39.5t70 -13t70 13t45.5 39.5t24.5 67t7 95.5v284h65v-284v0z" />
    <glyph glyph-name="Aacute.alt" horiz-adv-x="693" 
d="M331 789h-67l135 154h79zM256 685l-62 4v54h174l251 -743h-71l-87 263h-282l-88 -263h-68zM356 573q-10 29 -17 56l-15 59h-7q-15 -60 -32 -115l-86 -249h241z" />
    <glyph glyph-name="Acircumflex.alt" horiz-adv-x="693" 
d="M433 789l-113 116l-113 -116h-67l138 154h84l138 -154h-67zM256 685l-62 4v54h174l251 -743h-71l-87 263h-282l-88 -263h-68zM356 573q-10 29 -17 56l-15 59h-7q-15 -60 -32 -115l-86 -249h241z" />
    <glyph glyph-name="Adieresis.alt" horiz-adv-x="693" 
d="M405 809v119h60v-119h-60zM256 685l-62 4v54h174l251 -743h-71l-87 263h-282l-88 -263h-68zM356 573q-10 29 -17 56l-15 59h-7q-15 -60 -32 -115l-86 -249h241zM236 928v-119h-61v89q1 8 5 15q4 5 11 10t21 5h24z" />
    <glyph glyph-name="Agrave.alt" horiz-adv-x="693" 
d="M318 789l-148 154h80l135 -154h-67zM256 685l-62 4v54h174l251 -743h-71l-87 263h-282l-88 -263h-68zM356 573q-10 29 -17 56l-15 59h-7q-15 -60 -32 -115l-86 -249h241z" />
    <glyph glyph-name="Aring.alt" horiz-adv-x="693" 
d="M435 890q0 -57 -32.5 -82.5t-80.5 -25.5q-50 0 -83 26t-33 82t33 82t83 26q48 0 80.5 -25.5t32.5 -82.5zM390 890q0 38 -20.5 52.5t-47.5 14.5q-29 0 -49.5 -14.5t-20.5 -52.5t20.5 -52.5t49.5 -14.5q27 0 47.5 14.5t20.5 52.5zM256 685l-62 4v54h174l251 -743h-71
l-87 263h-282l-88 -263h-68zM356 573q-10 29 -17 56l-15 59h-7q-15 -60 -32 -115l-86 -249h241z" />
    <glyph glyph-name="Atilde.alt" horiz-adv-x="693" 
d="M510 908q0 -57 -18.5 -90.5t-70.5 -33.5q-27 0 -49 11t-47 33l-41 39q-19 17 -32 25t-30 8q-28 0 -35.5 -21t-7.5 -55v-34h-49v34q0 57 20.5 90t71.5 33q28 0 47.5 -9.5t44.5 -31.5l42 -39q18 -17 32 -26t32 -9q28 0 35 21t7 55v34h48v-34zM256 685l-62 4v54h174
l251 -743h-71l-87 263h-282l-88 -263h-68zM356 573q-10 29 -17 56l-15 59h-7q-15 -60 -32 -115l-86 -249h241z" />
    <glyph glyph-name="Ccedilla.alt" horiz-adv-x="600" 
d="M245 -209h-69l121 141h82zM520 2q-19 -3 -67 -9t-106 -6q-66 0 -120 16.5t-92.5 56t-59 105.5t-20.5 164v85q0 98 20.5 163.5t59 105t92.5 56t120 16.5q28 0 55.5 -2t50.5 -4.5t40.5 -5t26.5 -4.5v-129h-53l-7 80q-23 2 -52 3.5t-61 1.5q-57 0 -99.5 -15t-70.5 -48
t-41.5 -86.5t-13.5 -131.5v-85q0 -78 13.5 -131.5t41.5 -87t70.5 -48.5t99.5 -15q50 0 96 4t77 7v-56z" />
    <glyph glyph-name="Eacute.alt" horiz-adv-x="618" 
d="M308 789h-67l134 154h80zM152 683v-265h337v-61h-337v-298h361v-59h-428v685l-57 3v55h485v-60h-361z" />
    <glyph glyph-name="Ecircumflex.alt" horiz-adv-x="618" 
d="M404 789l-113 116l-113 -116h-67l138 154h84l138 -154h-67zM152 683v-265h337v-61h-337v-298h361v-59h-428v685l-57 3v55h485v-60h-361z" />
    <glyph glyph-name="Edieresis.alt" horiz-adv-x="618" 
d="M367 808v119h59v-119h-59zM152 683v-265h337v-61h-337v-298h361v-59h-428v685l-57 3v55h485v-60h-361zM197 927v-119h-60v89q1 8 5 15q4 5 11 10t21 5h23z" />
    <glyph glyph-name="Egrave.alt" horiz-adv-x="618" 
d="M273 789l-147 154h80l134 -154h-67zM152 683v-265h337v-61h-337v-298h361v-59h-428v685l-57 3v55h485v-60h-361z" />
    <glyph glyph-name="Eth.alt" horiz-adv-x="709" 
d="M604 328q0 -81 -18 -143t-56 -104t-99 -63.5t-146 -21.5q-57 0 -104.5 1l-95.5 2v358h-57v59h57v267l-57 5v55q34 0 65 0.5l61.5 1l62 1t68.5 0.5q167 0 243 -84.5t76 -245.5v-88zM152 59q28 -2 62 -3t66 -1q63 0 111.5 14.5t80.5 46.5t48.5 84.5t16.5 127.5v88
q0 75 -16.5 127t-48.5 83.5t-80.5 45.5t-111.5 14q-34 0 -66 -0.5t-62 -1.5v-268h165v-59h-165v-298z" />
    <glyph glyph-name="Iacute.alt" horiz-adv-x="290" 
d="M116 789h-67l135 154h79zM30 0v54l57 3v628l-57 3v55h180v-55l-56 -3v-628l56 -3v-54h-180z" />
    <glyph glyph-name="Icircumflex.alt" horiz-adv-x="290" 
d="M233 789l-113 116l-113 -116h-67l138 154h84l138 -154h-67zM30 0v54l57 3v628l-57 3v55h180v-55l-56 -3v-628l56 -3v-54h-180z" />
    <glyph glyph-name="Idieresis.alt" horiz-adv-x="290" 
d="M204 809v119h60v-119h-60zM30 0v54l57 3v628l-57 3v55h180v-55l-56 -3v-628l56 -3v-54h-180zM35 928v-119h-61v89q1 8 5 15q4 5 11 10t21 5h24z" />
    <glyph glyph-name="Igrave.alt" horiz-adv-x="290" 
d="M128 789l-147 154h79l135 -154h-67zM30 0v54l57 3v628l-57 3v55h180v-55l-56 -3v-628l56 -3v-54h-180z" />
    <glyph glyph-name="Ntilde.alt" horiz-adv-x="742" 
d="M535 907q0 -57 -18.5 -90t-70.5 -33q-27 0 -49 10.5t-47 33.5l-41 38q-19 18 -32 26t-30 8q-28 0 -35.5 -21.5t-7.5 -55.5v-34h-49v34q0 57 20.5 90.5t71.5 33.5q28 0 47.5 -10t44.5 -32l42 -39q18 -17 32 -26t32 -9q28 0 35 21t7 55v34h48v-34zM512 -1l-313 577
l-26.5 50.5l-26.5 53.5h-1q3 -62 3 -128v-552h-63v685l-57 3v55h152l314 -571l25.5 -50l25.5 -52h1q-2 35 -2.5 68t-0.5 62v543h64v-744h-95z" />
    <glyph glyph-name="Scaron.alt" horiz-adv-x="622" 
d="M174 943l113 -117l113 117h67l-138 -154h-84l-138 154h67zM277 -13q-33 0 -64.5 2t-59 4.5t-49 5.5t-33.5 6v54q32 -4 88 -9t118 -5q82 0 127 31t45 107q0 28 -7 49t-22.5 38.5t-40.5 33t-62 33.5l-101 47q-38 18 -67.5 37t-50.5 42.5t-32 52.5t-11 67q0 90 60 131
t176 41q31 0 61.5 -2t57 -4.5t48 -5.5t34.5 -6v-128h-52l-9 81q-29 3 -66 4.5t-72 1.5q-80 0 -125.5 -24.5t-45.5 -88.5q0 -26 7.5 -45.5t22.5 -36t38.5 -31.5t55.5 -30l101 -46q43 -21 75 -41.5t53 -45t31.5 -54.5t10.5 -70q0 -196 -240 -196z" />
    <glyph glyph-name="Uacute.alt" horiz-adv-x="733" 
d="M353 789h-67l135 154h79zM603 319q0 -166 -62.5 -248.5t-198.5 -82.5q-137 0 -199.5 82.5t-62.5 248.5v367l-59 3v54h126v-417q0 -74 9.5 -126.5t32 -86t60 -49.5t93.5 -16q55 0 92.5 16t60 50t32.5 86.5t10 125.5v417h66v-424z" />
    <glyph glyph-name="Ucircumflex.alt" horiz-adv-x="733" 
d="M452 789l-113 116l-113 -116h-67l138 154h84l138 -154h-67zM603 319q0 -166 -62.5 -248.5t-198.5 -82.5q-137 0 -199.5 82.5t-62.5 248.5v367l-59 3v54h126v-417q0 -74 9.5 -126.5t32 -86t60 -49.5t93.5 -16q55 0 92.5 16t60 50t32.5 86.5t10 125.5v417h66v-424z" />
    <glyph glyph-name="Udieresis.alt" horiz-adv-x="733" 
d="M425 809v119h59v-119h-59zM603 319q0 -166 -62.5 -248.5t-198.5 -82.5q-137 0 -199.5 82.5t-62.5 248.5v367l-59 3v54h126v-417q0 -74 9.5 -126.5t32 -86t60 -49.5t93.5 -16q55 0 92.5 16t60 50t32.5 86.5t10 125.5v417h66v-424zM255 928v-26v-93h-22h-38v89q1 8 5 15
q4 5 11 10t21 5h23z" />
    <glyph glyph-name="Ugrave.alt" horiz-adv-x="733" 
d="M321 789l-148 154h80l135 -154h-67zM603 319q0 -166 -62.5 -248.5t-198.5 -82.5q-137 0 -199.5 82.5t-62.5 248.5v367l-59 3v54h126v-417q0 -74 9.5 -126.5t32 -86t60 -49.5t93.5 -16q55 0 92.5 16t60 50t32.5 86.5t10 125.5v417h66v-424z" />
    <glyph glyph-name="Zcaron.alt" horiz-adv-x="654" 
d="M196 943l112 -117l114 117h67l-138 -154h-84l-138 154h67zM557 0h-510v73l423 610h-348l-6 -74h-53v134h479v-73l-422 -611h437v-59z" />
    <glyph glyph-name="aacute.alt" horiz-adv-x="581" 
d="M278 616h-66l134 154h80zM395 0v39q-29 -17 -74.5 -34.5t-106.5 -17.5q-80 0 -121 37.5t-41 118.5v15q0 52 16.5 84.5t48 50.5t77.5 24.5t106 6.5h92v46q0 40 -5.5 65.5t-21 40t-44 20t-73.5 5.5q-21 0 -45.5 -1t-56.5 -3l-6 -61h-51v102q28 5 71 12t93 7q65 0 105 -11
t62.5 -34.5t30 -58.5t7.5 -83v-370h-63zM392 273h-92q-49 0 -84 -4.5t-57 -17t-32 -35t-10 -58.5v-19q0 -57 29.5 -79t80.5 -22q25 0 50 5t46.5 12.5t39.5 16t29 15.5v186z" />
    <glyph glyph-name="acircumflex.alt" horiz-adv-x="581" 
d="M387 616l-113 116l-113 -116h-67l138 154h84l138 -154h-67zM395 0v39q-29 -17 -74.5 -34.5t-106.5 -17.5q-80 0 -121 37.5t-41 118.5v15q0 52 16.5 84.5t48 50.5t77.5 24.5t106 6.5h92v46q0 40 -5.5 65.5t-21 40t-44 20t-73.5 5.5q-21 0 -45.5 -1t-56.5 -3l-6 -61h-51
v102q28 5 71 12t93 7q65 0 105 -11t62.5 -34.5t30 -58.5t7.5 -83v-370h-63zM392 273h-92q-49 0 -84 -4.5t-57 -17t-32 -35t-10 -58.5v-19q0 -57 29.5 -79t80.5 -22q25 0 50 5t46.5 12.5t39.5 16t29 15.5v186z" />
    <glyph glyph-name="adieresis.alt" horiz-adv-x="581" 
d="M357 642v119h59v-119h-59zM395 0v39q-29 -17 -74.5 -34.5t-106.5 -17.5q-80 0 -121 37.5t-41 118.5v15q0 52 16.5 84.5t48 50.5t77.5 24.5t106 6.5h92v46q0 40 -5.5 65.5t-21 40t-44 20t-73.5 5.5q-21 0 -45.5 -1t-56.5 -3l-6 -61h-51v102q28 5 71 12t93 7q65 0 105 -11
t62.5 -34.5t30 -58.5t7.5 -83v-370h-63zM392 273h-92q-49 0 -84 -4.5t-57 -17t-32 -35t-10 -58.5v-19q0 -57 29.5 -79t80.5 -22q25 0 50 5t46.5 12.5t39.5 16t29 15.5v186zM187 761v-119h-60v89q1 8 5 15q4 5 11 10t21 5h23z" />
    <glyph glyph-name="agrave.alt" horiz-adv-x="581" 
d="M265 616l-148 154h80l135 -154h-67zM395 0v39q-29 -17 -74.5 -34.5t-106.5 -17.5q-80 0 -121 37.5t-41 118.5v15q0 52 16.5 84.5t48 50.5t77.5 24.5t106 6.5h92v46q0 40 -5.5 65.5t-21 40t-44 20t-73.5 5.5q-21 0 -45.5 -1t-56.5 -3l-6 -61h-51v102q28 5 71 12t93 7
q65 0 105 -11t62.5 -34.5t30 -58.5t7.5 -83v-370h-63zM392 273h-92q-49 0 -84 -4.5t-57 -17t-32 -35t-10 -58.5v-19q0 -57 29.5 -79t80.5 -22q25 0 50 5t46.5 12.5t39.5 16t29 15.5v186z" />
    <glyph glyph-name="ampersand.alt" horiz-adv-x="779" 
d="M583 0l-62 62q-37 -35 -90.5 -55t-131.5 -20q-47 0 -89.5 9t-75 30t-52 56.5t-19.5 88.5v6q0 33 8 61t25 52.5t44 46t66 42.5l-10 10q-25 25 -44.5 47t-33 45t-20.5 48.5t-7 57.5v9q0 43 15 73.5t42.5 49.5t66.5 27.5t86 8.5q96 0 150 -36t54 -123v-9q0 -36 -11 -63.5
t-34.5 -52.5t-60.5 -49.5t-90 -53.5l209 -209q26 45 36.5 102.5t10.5 121.5v19h59v-19q0 -30 -2 -64t-8 -69.5t-18 -70.5t-32 -66l104 -103v-10h-85zM250 336q-59 -30 -88.5 -66t-30.5 -93v-6q0 -36 13.5 -60.5t37 -39t54 -21t63.5 -6.5q61 0 105 16.5t74 45.5zM439 596
q0 31 -10 50.5t-28 31t-43.5 15.5t-56.5 4q-30 0 -56.5 -4t-45.5 -15.5t-30 -31t-11 -50.5v-9q0 -25 5 -44t16.5 -37t30.5 -38.5l47 -48.5l8 -8q46 24 79 43.5t54 39.5t31 42t10 52v8z" />
    <glyph glyph-name="aring.alt" horiz-adv-x="581" 
d="M389 711q0 -57 -32.5 -82.5t-81.5 -25.5t-82.5 26t-33.5 82t33.5 82t82.5 26t81.5 -25.5t32.5 -82.5zM343 711q0 38 -20.5 52.5t-47.5 14.5q-29 0 -49 -14.5t-20 -52.5t20 -52.5t49 -14.5q27 0 47.5 14.5t20.5 52.5zM395 0v39q-29 -17 -74.5 -34.5t-106.5 -17.5
q-80 0 -121 37.5t-41 118.5v15q0 52 16.5 84.5t48 50.5t77.5 24.5t106 6.5h92v46q0 40 -5.5 65.5t-21 40t-44 20t-73.5 5.5q-21 0 -45.5 -1t-56.5 -3l-6 -61h-51v102q28 5 71 12t93 7q65 0 105 -11t62.5 -34.5t30 -58.5t7.5 -83v-370h-63zM392 273h-92q-49 0 -84 -4.5
t-57 -17t-32 -35t-10 -58.5v-19q0 -57 29.5 -79t80.5 -22q25 0 50 5t46.5 12.5t39.5 16t29 15.5v186z" />
    <glyph glyph-name="atilde.alt" horiz-adv-x="581" 
d="M462 737q0 -57 -18.5 -90t-70.5 -33q-27 0 -49 10.5t-47 33.5l-41 38q-19 18 -32 26t-30 8q-28 0 -35.5 -21.5t-7.5 -55.5v-34h-49v34q0 57 20.5 90.5t71.5 33.5q28 0 47.5 -10t44.5 -32l42 -39q18 -17 32 -26t32 -9q28 0 35 21t7 55v34h48v-34zM395 0v39
q-29 -17 -74.5 -34.5t-106.5 -17.5q-80 0 -121 37.5t-41 118.5v15q0 52 16.5 84.5t48 50.5t77.5 24.5t106 6.5h92v46q0 40 -5.5 65.5t-21 40t-44 20t-73.5 5.5q-21 0 -45.5 -1t-56.5 -3l-6 -61h-51v102q28 5 71 12t93 7q65 0 105 -11t62.5 -34.5t30 -58.5t7.5 -83v-370h-63z
M392 273h-92q-49 0 -84 -4.5t-57 -17t-32 -35t-10 -58.5v-19q0 -57 29.5 -79t80.5 -22q25 0 50 5t46.5 12.5t39.5 16t29 15.5v186z" />
    <glyph glyph-name="ccedilla.alt" horiz-adv-x="516" 
d="M197 -209h-68l121 141h81zM421 4q-27 -6 -64 -11.5t-85 -5.5q-112 0 -164.5 61t-52.5 194v60q0 132 53 193.5t164 61.5q45 0 83.5 -5t65.5 -12v-106h-52l-6 61q-25 3 -46.5 4t-35.5 1q-39 0 -68.5 -8.5t-50 -31t-31 -60.5t-10.5 -98v-60q0 -61 10.5 -99.5t30.5 -60.5
t50 -30.5t69 -8.5q21 0 55 2.5t85 8.5v-50z" />
    <glyph glyph-name="dotlessi.alt" horiz-adv-x="286" 
d="M85 0v485l-55 3v55h121v-543h-66z" />
    <glyph glyph-name="iacute.alt" horiz-adv-x="286" 
d="M85 0v485l-55 3v55h121v-543h-66zM119 616h-67l135 154h79z" />
    <glyph glyph-name="icircumflex.alt" horiz-adv-x="286" 
d="M85 0v485l-55 3v55h121v-543h-66zM231 616l-113 116l-113 -116h-67l138 154h84l138 -154h-67z" />
    <glyph glyph-name="idieresis.alt" horiz-adv-x="286" 
d="M85 0v485l-55 3v55h121v-543h-66zM205 642v119h59v-119h-59zM35 761v-119h-60v89q1 8 5 15q4 5 11 10t21 5h23z" />
    <glyph glyph-name="igrave.alt" horiz-adv-x="286" 
d="M85 0v485l-55 3v55h121v-543h-66zM113 616l-147 154h79l135 -154h-67z" />
    <glyph glyph-name="lslash.alt" horiz-adv-x="282" 
d="M149 392v-392h-65v327l-72 -69v80l72 70v307l-56 3v55h121v-301l72 71v-80z" />
    <glyph glyph-name="ntilde.alt" horiz-adv-x="630" 
d="M484 737q0 -57 -18.5 -90t-70.5 -33q-28 0 -50 10.5t-46 33.5l-42 38q-18 18 -31 26t-31 8q-27 0 -34.5 -21.5t-7.5 -55.5v-34h-49v34q0 57 20 90.5t71 33.5q28 0 48 -10t44 -32l43 -39q18 -17 31.5 -26t31.5 -9q28 0 35.5 21t7.5 55v34h48v-34zM438 0v344q0 43 -5.5 73
t-18 48.5t-34 26.5t-54.5 8q-39 0 -84.5 -14t-96.5 -38v-448h-65v485l-55 3v55h120v-44q45 24 91.5 41t95.5 17q52 0 85.5 -13.5t53 -40.5t26.5 -67t7 -92v-344h-66z" />
    <glyph glyph-name="scaron.alt" horiz-adv-x="519" 
d="M122 770l113 -117l113 117h67l-138 -154h-84l-138 154h67zM56 59q31 -5 76.5 -10.5t96.5 -5.5q38 0 63.5 6.5t41 18t22 28t6.5 36.5q0 21 -5.5 36t-19 27.5t-37 24.5t-60.5 27l-38 16q-78 32 -115.5 68t-37.5 94q0 132 194 132q25 0 50.5 -2t47.5 -4.5t39.5 -6t27.5 -6.5
v-103h-52l-7 59q-22 2 -51.5 4t-51.5 2q-68 0 -99.5 -15t-31.5 -60q0 -19 6 -33.5t19 -26.5t34.5 -23.5t53.5 -24.5l38 -16q45 -20 76 -37t50 -36t27.5 -41.5t8.5 -53.5q0 -28 -9.5 -54.5t-32 -46.5t-60.5 -32.5t-95 -12.5q-27 0 -54 2t-50.5 5t-42 6.5t-28.5 6.5v52z" />
    <glyph glyph-name="uacute.alt" horiz-adv-x="630" 
d="M307 616h-66l134 154h80zM500 543v-543h-65v44q-50 -26 -97 -41.5t-96 -15.5q-50 0 -82 15t-50.5 42.5t-25.5 67t-7 87.5v286l-56 3v55h120v-344q0 -44 5.5 -73.5t18.5 -48t34.5 -26.5t54.5 -8q41 0 85.5 14.5t95.5 38.5v447h65z" />
    <glyph glyph-name="ucircumflex.alt" horiz-adv-x="630" 
d="M403 616l-114 116l-112 -116h-67l138 154h84l138 -154h-67zM500 543v-543h-65v44q-50 -26 -97 -41.5t-96 -15.5q-50 0 -82 15t-50.5 42.5t-25.5 67t-7 87.5v286l-56 3v55h120v-344q0 -44 5.5 -73.5t18.5 -48t34.5 -26.5t54.5 -8q41 0 85.5 14.5t95.5 38.5v447h65z" />
    <glyph glyph-name="udieresis.alt" horiz-adv-x="630" 
d="M371 642v119h59v-119h-59zM500 543v-543h-65v44q-50 -26 -97 -41.5t-96 -15.5q-50 0 -82 15t-50.5 42.5t-25.5 67t-7 87.5v286l-56 3v55h120v-344q0 -44 5.5 -73.5t18.5 -48t34.5 -26.5t54.5 -8q41 0 85.5 14.5t95.5 38.5v447h65zM201 761v-119h-60v89q1 8 5 15
q4 5 11 10t21 5h23z" />
    <glyph glyph-name="ugrave.alt" horiz-adv-x="630" 
d="M279 616l-147 154h79l135 -154h-67zM500 543v-543h-65v44q-50 -26 -97 -41.5t-96 -15.5q-50 0 -82 15t-50.5 42.5t-25.5 67t-7 87.5v286l-56 3v55h120v-344q0 -44 5.5 -73.5t18.5 -48t34.5 -26.5t54.5 -8q41 0 85.5 14.5t95.5 38.5v447h65z" />
    <glyph glyph-name="yacute.alt" horiz-adv-x="632" 
d="M502 -20q0 -48 -9 -85.5t-32.5 -62.5t-64 -38t-103.5 -13q-28 0 -56 2t-53.5 4.5t-46 5t-33.5 4.5v49q44 -4 92.5 -6.5t96.5 -2.5q45 0 72.5 8t43.5 25t21.5 44t5.5 66v27q-9 -3 -23 -6.5t-31 -6.5t-36.5 -5t-38.5 -2q-57 0 -100 13t-72 43t-43.5 77.5t-14.5 116.5v306
h65v-306q0 -55 9.5 -92t29.5 -59.5t51.5 -32.5t75.5 -10q19 0 38 2t36 5t31.5 6t23.5 6v481h65v-563zM311 616h-67l134 154h80z" />
    <glyph glyph-name="ydieresis.alt" horiz-adv-x="632" 
d="M502 -20q0 -48 -9 -85.5t-32.5 -62.5t-64 -38t-103.5 -13q-28 0 -56 2t-53.5 4.5t-46 5t-33.5 4.5v49q44 -4 92.5 -6.5t96.5 -2.5q45 0 72.5 8t43.5 25t21.5 44t5.5 66v27q-9 -3 -23 -6.5t-31 -6.5t-36.5 -5t-38.5 -2q-57 0 -100 13t-72 43t-43.5 77.5t-14.5 116.5v306
h65v-306q0 -55 9.5 -92t29.5 -59.5t51.5 -32.5t75.5 -10q19 0 38 2t36 5t31.5 6t23.5 6v481h65v-563zM381 642v119h60v-119h-60zM212 761v-119h-61v89q1 8 5 15q4 5 11 10t21 5h24z" />
    <glyph glyph-name="zcaron.alt" horiz-adv-x="529" 
d="M133 770l112 -117l114 117h67l-138 -154h-84l-138 154h67zM433 0h-391v72l319 416h-249l-6 -53h-52v108h378v-67l-323 -422h324v-54z" />
    <glyph glyph-name="two.alt" horiz-adv-x="634" 
d="M516 0h-450v72q0 66 12 112t39 81.5t71 65.5t107 65q50 27 81.5 49t49.5 42.5t24.5 42.5t6.5 51q0 64 -44 90t-144 26q-30 0 -68.5 -3t-67.5 -6l-7 -84h-51v130q5 1 24.5 4l47.5 7t61 7t64 3q129 0 190.5 -41.5t61.5 -132.5q0 -35 -8.5 -64.5t-30.5 -57t-59 -55
t-94 -58.5q-62 -33 -100.5 -59.5t-61 -56t-30.5 -66.5t-8 -91v-14h384v-59z" />
    <glyph glyph-name="three.alt" horiz-adv-x="634" 
d="M522 196q0 -111 -63.5 -160t-190.5 -49q-69 0 -120 7.5t-76 12.5v52q28 -2 81 -8.5t114 -6.5q100 0 144 34t44 118v29q0 25 -4 49t-18 42.5t-41 30t-73 11.5h-220v57h220q46 0 73 11.5t41 30t18 43t4 50.5v14q0 36 -9 61.5t-30.5 41t-57.5 23t-91 7.5q-33 0 -70.5 -2
t-63.5 -4l-7 -85h-52v130q7 1 27 4.5t47.5 6.5t59 5.5t60.5 2.5q133 0 193.5 -44t60.5 -147v-14q0 -26 -5 -51t-16.5 -46.5t-30.5 -39t-48 -27.5q30 -11 49 -28t30.5 -38t16 -45.5t4.5 -49.5v-29v0z" />
    <glyph glyph-name="five.alt" horiz-adv-x="631" 
d="M520 206q0 -114 -63 -166.5t-199 -52.5q-33 0 -64.5 2.5t-58.5 6.5t-47.5 7.5t-31.5 6.5v52q14 -2 36 -4.5l49 -5.5t57 -5t59 -2q56 0 94 9.5t61 29t32.5 50t9.5 72.5v27q0 43 -11 72t-35.5 46t-63.5 24.5t-95 7.5h-177l32 360h387v-137h-52l-7 77h-271l-22 -242h113
q67 0 117.5 -11t84 -35.5t50 -64.5t16.5 -97v-27v0z" />
    <glyph glyph-name="six.alt" horiz-adv-x="676" 
d="M564 221q0 -71 -23.5 -116.5t-59.5 -71.5t-79.5 -36t-83.5 -10q-52 0 -98.5 11.5t-82 43.5t-56 90.5t-20.5 151.5v192q0 67 13 119t44.5 87.5t83.5 54t130 18.5q31 0 62.5 -2.5t59 -6t48.5 -7t32 -5.5v-128h-53l-7 84q-28 2 -66.5 4.5t-74.5 2.5q-66 0 -106.5 -15.5
t-62.5 -44t-29 -69t-7 -91.5v-47q22 6 47.5 11t51 8t49 5t43.5 2q46 0 90 -7.5t78.5 -29t55.5 -60.5t21 -102v-36zM497 255q0 47 -13.5 75.5t-37.5 44.5t-57 21t-72 5q-36 0 -87 -4.5t-102 -18.5v-99q0 -69 13.5 -114t38.5 -71.5t60 -37.5t78 -11q38 0 71 10t57 31.5
t37.5 54.5t13.5 80v34z" />
    <glyph glyph-name="seven.alt" horiz-adv-x="612" 
d="M192 0h-75l340 683h-344l-6 -77h-53v137h466v-71z" />
    <glyph glyph-name="dotlessj" horiz-adv-x="286" 
d="M151 -74q0 -39 -6 -66.5t-20 -45t-37.5 -25.5t-59.5 -8q-15 0 -34 1t-31 3v49q15 -1 30 -1.5t29 -0.5q20 0 32.5 5t19 16t9 29t2.5 44v617h66v-617v0z" />
    <glyph glyph-name="zero.tab" 
d="M574 313q0 -85 -17.5 -146.5t-50 -101.5t-79.5 -59t-106 -19q-60 0 -107 19t-79.5 59t-49.5 101.5t-17 146.5v116q0 85 17 146.5t49.5 101.5t79.5 59t107 19q59 0 106 -19t79.5 -59t50 -101.5t17.5 -146.5v-116zM507 429q0 76 -14 127.5t-39 82.5t-59 44.5t-74 13.5
t-74 -13.5t-59 -44.5t-39 -82.5t-14 -127.5v-116q0 -77 14 -128.5t39 -82.5t59 -44.5t74 -13.5t74 13.5t59 44.5t39 82.5t14 128.5v116z" />
    <glyph glyph-name="one.tab" 
d="M115 0v55l185 4v620l-185 -55v59l201 65h50v-689l184 -4v-55h-435z" />
    <glyph glyph-name="two.tab" 
d="M91 0v72q0 66 12 112t39 81.5t70.5 65.5t106.5 65q50 27 81.5 49t49.5 42.5t25 42.5t7 51q0 64 -44.5 90t-144.5 26q-23 0 -48.5 -1.5t-50.5 -3.5t-48 -5t-41 -6v53q12 3 33 6.5t46.5 6.5t54.5 5.5t58 2.5q128 0 190 -41.5t62 -132.5q0 -35 -9 -64.5t-30.5 -57t-59 -55
t-94.5 -58.5q-61 -33 -100 -59.5t-61 -56t-30.5 -66.5t-8.5 -91v-14h384v-59h-449z" />
    <glyph glyph-name="three.tab" 
d="M548 196q0 -111 -63 -160t-191 -49q-29 0 -59 2.5t-57 5.5t-48 6.5t-32 5.5v51q13 -2 35.5 -4l49 -4.5t55.5 -4t56 -1.5q100 0 144 34t44 118v29q0 25 -4 49t-18.5 42.5t-41.5 30t-73 11.5h-219v57h219q46 0 73 11.5t41 30t18.5 43t4.5 50.5v14q0 36 -9 61.5t-31 41
t-58 23t-91 7.5q-53 0 -106 -4.5t-87 -8.5v52q7 1 27 4.5t47.5 6.5t59 5.5t60.5 2.5q133 0 194 -44t61 -147v-14q0 -26 -5 -51t-16.5 -46.5t-31 -39t-48.5 -27.5q30 -11 49 -28t30.5 -38t16 -45.5t4.5 -49.5v-29v0z" />
    <glyph glyph-name="four.tab" 
d="M473 207v-207h-67v207h-360v68l350 469h77v-479h119v-58h-119zM406 655l-292 -390h292v390z" />
    <glyph glyph-name="five.tab" 
d="M552 206q0 -114 -63 -166.5t-199 -52.5q-34 0 -66.5 2.5t-59.5 6t-47 7.5t-29 6v53q31 -4 86 -10.5t115 -6.5q56 0 94 9.5t61 29t32.5 50t9.5 72.5v27q0 43 -11 72t-35.5 46t-63.5 24.5t-95 7.5h-177l32 360h387v-60h-330l-22 -242h113q67 0 117.5 -11t84 -35.5t50 -64.5
t16.5 -97v-27v0z" />
    <glyph glyph-name="seven.tab" 
d="M229 0h-75l340 683h-403v60h466v-71z" />
    <glyph glyph-name="six.tab" 
d="M572 221q0 -71 -23.5 -116.5t-60 -71.5t-80 -36t-83.5 -10q-51 0 -98 11.5t-82 43.5t-56 90.5t-21 151.5v192q0 67 13 119t44.5 87.5t83.5 54t130 18.5q31 0 62.5 -2.5t59 -6t48.5 -7t32 -5.5v-52q-15 2 -38 4.5t-50 5t-56 4t-56 1.5q-67 0 -107.5 -15.5t-62.5 -44
t-29 -69t-7 -91.5v-47q22 6 47.5 11t51 8t49.5 5t44 2q46 0 90 -7.5t78.5 -29t55.5 -60.5t21 -102v-36zM505 255q0 47 -14 75.5t-38 44.5t-57 21t-72 5q-36 0 -86.5 -4.5t-102.5 -18.5v-99q0 -69 13.5 -114t38.5 -71.5t60 -37.5t78 -11q38 0 71 10t57 31.5t38 54.5t14 80v34
z" />
    <glyph glyph-name="eight.tab" 
d="M578 211q0 -74 -20 -118t-54.5 -67.5t-81 -31t-100.5 -7.5h-5q-54 0 -101 7.5t-81.5 31.5t-54 68t-19.5 118v7q0 66 22.5 107t71.5 61q-47 19 -69 60t-22 100v10q0 59 19.5 97t53.5 60.5t80 31t100 8.5h5q54 0 100 -8.5t80 -31t53.5 -60.5t19.5 -97v-10q0 -60 -22 -100.5
t-69 -59.5q49 -20 71.5 -61t22.5 -106v-9zM511 220q0 32 -5.5 57.5t-19 43.5t-37 27.5t-58.5 9.5h-143q-35 0 -58.5 -9.5t-37 -27.5t-19 -44t-5.5 -58v-7q0 -53 12.5 -85.5t37 -51t59.5 -25t80 -6.5h5q45 0 80 6.5t59.5 25t37 51t12.5 84.5v9zM509 557q0 42 -12.5 69
t-36.5 43t-59 22t-79 6h-5q-44 0 -79 -6t-59 -22t-36.5 -43t-12.5 -69v-10q0 -28 5 -52t18.5 -41.5t36.5 -27.5t58 -10h143q35 0 58 10t36.5 27.5t18.5 41.5t5 52v10z" />
    <glyph glyph-name="nine.tab" 
d="M564 265q0 -67 -13 -119t-44.5 -87.5t-83.5 -54t-130 -18.5q-31 0 -62.5 2.5t-59 6t-49 7t-31.5 5.5v53q15 -2 38 -4.5t50 -5t56 -4.5t56 -2q67 0 107.5 15.5t62.5 44t29 69t7 91.5v47q-22 -6 -47.5 -10.5t-51 -8t-49.5 -5t-44 -1.5q-46 0 -89.5 7t-78 28.5t-55.5 60.5
t-21 102v37q0 70 23.5 115.5t59.5 72t79.5 36.5t83.5 10q51 0 98 -11.5t82 -43.5t56 -90.5t21 -151.5v-193zM497 462q0 69 -13.5 114t-38.5 72t-60 38t-78 11q-38 0 -71 -10t-57 -31.5t-38 -55t-14 -79.5v-35q0 -47 14 -75.5t38 -44.5t57 -21t72 -5q36 0 86.5 5t102.5 18v99
z" />
    <glyph glyph-name="uni2215" unicode="&#x2215;" horiz-adv-x="441" 
d="M-9 0h-67l474 743h66z" />
    <glyph glyph-name="periodcentered" horiz-adv-x="311" 
d="M165 438v-138h-67v108q1 8 5 15q4 5 11 10t21 5h30z" />
    <glyph glyph-name="threequartersemdash" horiz-adv-x="905" 
d="M75 264v56h717v-56h-717z" />
    <glyph glyph-name="macron" horiz-adv-x="625" 
d="M-5 824v44h585v-44h-585z" />
    <glyph glyph-name="franc.taboldstyle" horiz-adv-x="609" 
d="M141 0v123h-47v52h47v379h331v-61h-265v-176h249v-58h-249v-84h131v-52h-131v-123h-66z" />
    <glyph glyph-name="lira.taboldstyle" horiz-adv-x="613" 
d="M474 493q-32 4 -69.5 6t-64.5 2q-38 0 -62 -6t-38 -21.5t-19.5 -42t-5.5 -66.5v-22h197v-48h-197v-70h197v-48h-197v-21q0 -32 -7.5 -55t-23.5 -43h290v-58h-364v50q23 26 31 50.5t8 55.5v21h-63v48h63v70h-63v48h63v22q0 52 9 89t30.5 61t56.5 35t87 11q44 0 79.5 -3.5
t62.5 -8.5v-56z" />
    <glyph glyph-name="currency.taboldstyle" horiz-adv-x="665" 
d="M505 78l-77 76q-26 -20 -57.5 -29.5t-62.5 -9.5q-32 0 -63 9.5t-59 30.5l-77 -77l-46 47l76 76q-20 27 -29.5 58.5t-9.5 62.5q0 32 9.5 63t29.5 58l-76 77l46 46l78 -76q26 20 57.5 30t62.5 10q67 0 122 -40l75 76l48 -46l-77 -77q40 -55 40 -121q0 -32 -9.5 -63
t-29.5 -58l76 -76zM459 322q0 31 -12 59t-32.5 49t-48.5 33t-59 12q-30 0 -57.5 -12t-48 -32.5t-32.5 -48.5t-12 -60q0 -31 12 -58.5t32.5 -48.5t47.5 -33t58 -12t58.5 12t48 32.5t32.5 48t13 59.5z" />
    <glyph glyph-name="peseta.taboldstyle" horiz-adv-x="582" 
d="M83 0v367h-49v52h49v134q22 2 40.5 3.5t36.5 2.5t37 1.5t42 0.5q47 0 84.5 -7t64.5 -23.5t43 -44t20 -67.5h49v-52h-49q-8 -80 -63.5 -114.5t-151.5 -34.5q-18 0 -42 1t-47 3v-222h-64zM388 399q0 63 -38.5 84t-113.5 21q-20 0 -46 -0.5t-43 -2.5v-223q20 -2 46 -2.5
t41 -0.5q76 0 115 25t39 88v11z" />
    <glyph glyph-name="T_h.caron" horiz-adv-x="1119" 
d="M265 788l-138 154h67l113 -117l113 117h67l-138 -154h-84zM927 0v342q0 46 -6.5 76.5t-21 48.5t-37 25.5t-55.5 7.5q-48 0 -94.5 -15t-78.5 -31v-454h-65v683h-232v-683h-67v683h-240v60h604v-236q31 16 78.5 33t106.5 17q93 0 133 -51.5t40 -161.5v-344h-65z" />
    <glyph glyph-name="AE.alt" horiz-adv-x="992" 
d="M460 0v263h-275l-87 -263h-68l231 685l-68 3v55h694v-60h-361v-265h338v-61h-338v-298h361v-59h-427zM460 684h-135l-34 -108l-86 -253h255v361z" />
    <glyph glyph-name="ae.alt" horiz-adv-x="946" 
d="M458 249v-56q0 -36 8 -64t29 -47.5t56 -29.5t89 -10q53 0 100.5 5.5t86.5 12.5v-53q-30 -7 -80.5 -13.5t-107.5 -6.5q-84 0 -134.5 17t-76.5 55q-48 -35 -100 -53.5t-117 -18.5q-75 0 -117.5 37t-42.5 116v21q0 51 16.5 82.5t48 49.5t77.5 24.5t106 6.5h93v46
q0 39 -5.5 64.5t-21 40.5t-44 20.5t-73.5 5.5q-23 0 -49 -1t-55 -3l-6 -61h-51v102l29 5.5t40 6.5t47 5t49 2q47 0 79.5 -5.5t53.5 -16t33 -26t20 -35.5q24 38 68 60t113 22q60 0 102.5 -18.5t70 -52t40.5 -82t13 -108.5v-46h-387zM778 319q0 33 -6.5 65.5t-24 58
t-48.5 41.5t-80 16q-50 0 -81 -16t-48.5 -41t-24 -55.5t-6.5 -60.5v-23h319v15zM392 273h-93q-49 0 -83.5 -4t-56.5 -16t-32 -34t-10 -58v-26q0 -54 29 -75.5t77 -21.5q26 0 51.5 5.5t47.5 13.5t40 17.5t30 18.5v180z" />
    <glyph glyph-name="agrave.alt2" horiz-adv-x="597" 
d="M286 616l-147 154h79l135 -154h-67zM416 0v31q-29 -16 -69.5 -30t-91.5 -14q-100 0 -150 62t-50 184v69q0 73 16 122.5t45.5 78.5t72 41.5t95.5 12.5q35 0 87.5 -2.5t107.5 -10.5v-544h-63zM414 495q-38 3 -74.5 4.5t-54.5 1.5q-41 0 -71.5 -8.5t-51.5 -30.5t-31.5 -61
t-10.5 -99v-69q0 -94 34.5 -142t111.5 -48q42 0 79.5 12t68.5 28v412z" />
    <glyph glyph-name="aacute.alt2" horiz-adv-x="597" 
d="M294 616h-67l135 154h79zM416 0v31q-29 -16 -69.5 -30t-91.5 -14q-100 0 -150 62t-50 184v69q0 73 16 122.5t45.5 78.5t72 41.5t95.5 12.5q35 0 87.5 -2.5t107.5 -10.5v-544h-63zM414 495q-38 3 -74.5 4.5t-54.5 1.5q-41 0 -71.5 -8.5t-51.5 -30.5t-31.5 -61t-10.5 -99
v-69q0 -94 34.5 -142t111.5 -48q42 0 79.5 12t68.5 28v412z" />
    <glyph glyph-name="acircumflex.alt2" horiz-adv-x="597" 
d="M391 616l-114 116l-112 -116h-67l138 154h84l138 -154h-67zM416 0v31q-29 -16 -69.5 -30t-91.5 -14q-100 0 -150 62t-50 184v69q0 73 16 122.5t45.5 78.5t72 41.5t95.5 12.5q35 0 87.5 -2.5t107.5 -10.5v-544h-63zM414 495q-38 3 -74.5 4.5t-54.5 1.5q-41 0 -71.5 -8.5
t-51.5 -30.5t-31.5 -61t-10.5 -99v-69q0 -94 34.5 -142t111.5 -48q42 0 79.5 12t68.5 28v412z" />
    <glyph glyph-name="atilde.alt2" horiz-adv-x="597" 
d="M466 737q0 -57 -19 -90t-71 -33q-27 0 -49 10.5t-47 33.5l-41 38q-18 18 -31 26t-31 8q-28 0 -35.5 -21.5t-7.5 -55.5v-34h-48v34q0 57 20 90.5t71 33.5q28 0 47.5 -10t44.5 -32l42 -39q18 -17 32 -26t32 -9q28 0 35.5 21t7.5 55v34h48v-34zM416 0v31q-29 -16 -69.5 -30
t-91.5 -14q-100 0 -150 62t-50 184v69q0 73 16 122.5t45.5 78.5t72 41.5t95.5 12.5q35 0 87.5 -2.5t107.5 -10.5v-544h-63zM414 495q-38 3 -74.5 4.5t-54.5 1.5q-41 0 -71.5 -8.5t-51.5 -30.5t-31.5 -61t-10.5 -99v-69q0 -94 34.5 -142t111.5 -48q42 0 79.5 12t68.5 28v412z
" />
    <glyph glyph-name="adieresis.alt2" horiz-adv-x="597" 
d="M367 642v119h60v-119h-60zM416 0v31q-29 -16 -69.5 -30t-91.5 -14q-100 0 -150 62t-50 184v69q0 73 16 122.5t45.5 78.5t72 41.5t95.5 12.5q35 0 87.5 -2.5t107.5 -10.5v-544h-63zM414 495q-38 3 -74.5 4.5t-54.5 1.5q-41 0 -71.5 -8.5t-51.5 -30.5t-31.5 -61t-10.5 -99
v-69q0 -94 34.5 -142t111.5 -48q42 0 79.5 12t68.5 28v412zM198 761v-119h-61v89q1 8 5 15q4 5 11 10t21 5h24z" />
    <glyph glyph-name="aring.alt2" horiz-adv-x="597" 
d="M399 711q0 -57 -32.5 -82.5t-81.5 -25.5t-82.5 26t-33.5 82t33.5 82t82.5 26t81.5 -25.5t32.5 -82.5zM353 711q0 38 -20.5 52.5t-47.5 14.5q-29 0 -49 -14.5t-20 -52.5t20 -52.5t49 -14.5q27 0 47.5 14.5t20.5 52.5zM416 0v31q-29 -16 -69.5 -30t-91.5 -14
q-100 0 -150 62t-50 184v69q0 73 16 122.5t45.5 78.5t72 41.5t95.5 12.5q35 0 87.5 -2.5t107.5 -10.5v-544h-63zM414 495q-38 3 -74.5 4.5t-54.5 1.5q-41 0 -71.5 -8.5t-51.5 -30.5t-31.5 -61t-10.5 -99v-69q0 -94 34.5 -142t111.5 -48q42 0 79.5 12t68.5 28v412z" />
    <glyph glyph-name="ugrave.alt2" horiz-adv-x="637" 
d="M281 616l-147 154h79l135 -154h-67zM500 259q0 -66 -10.5 -116.5t-35.5 -85t-65.5 -52.5t-100.5 -18q-59 0 -99.5 18t-65.5 52.5t-36 85t-11 116.5v284h65v-284q0 -55 7 -95.5t24.5 -67t45.5 -39.5t70 -13t70 13t45.5 39.5t24.5 67t7 95.5v284h65v-284z" />
    <glyph glyph-name="uacute.alt2" horiz-adv-x="637" 
d="M304 616h-67l134 154h80zM500 259q0 -66 -10.5 -116.5t-35.5 -85t-65.5 -52.5t-100.5 -18q-59 0 -99.5 18t-65.5 52.5t-36 85t-11 116.5v284h65v-284q0 -55 7 -95.5t24.5 -67t45.5 -39.5t70 -13t70 13t45.5 39.5t24.5 67t7 95.5v284h65v-284z" />
    <glyph glyph-name="ucircumflex.alt2" horiz-adv-x="637" 
d="M401 616l-113 116l-113 -116h-67l138 154h84l138 -154h-67zM500 259q0 -66 -10.5 -116.5t-35.5 -85t-65.5 -52.5t-100.5 -18q-59 0 -99.5 18t-65.5 52.5t-36 85t-11 116.5v284h65v-284q0 -55 7 -95.5t24.5 -67t45.5 -39.5t70 -13t70 13t45.5 39.5t24.5 67t7 95.5v284h65
v-284z" />
    <glyph glyph-name="udieresis.alt2" horiz-adv-x="637" 
d="M374 642v119h60v-119h-60zM500 259q0 -66 -10.5 -116.5t-35.5 -85t-65.5 -52.5t-100.5 -18q-59 0 -99.5 18t-65.5 52.5t-36 85t-11 116.5v284h65v-284q0 -55 7 -95.5t24.5 -67t45.5 -39.5t70 -13t70 13t45.5 39.5t24.5 67t7 95.5v284h65v-284zM205 761v-119h-60v89
q0 8 4 15q3 5 10.5 10t21.5 5h24z" />
    <glyph glyph-name="quotedbl" unicode="&#x22;" horiz-adv-x="364" 
d="M39 759h66l-35 -240h-50zM259 519h-50l19 240h66z" />
    <glyph glyph-name="exclam" unicode="!" horiz-adv-x="281" 
d="M145 191h-58l-7 574h71zM149 0h-37q-9 1 -15 5t-10.5 11t-4.5 21v90h67v-127z" />
    </font>
</defs>
</svg>
