<?xml version="1.0" standalone="no"?>
<!DOCTYPE svg PUBLIC "-//W3C//DTD SVG 1.1//EN" "http://www.w3.org/Graphics/SVG/1.1/DTD/svg11.dtd" >
<svg>
<metadata>
Created by FontForge 20090622 at Mon Apr  6 16:47:10 2015
 By deploy user
Copyright (c) 2010 by Kreativagentur Thomas GmbH. All rights reserved.
</metadata>
<defs>
<font id="KlimmerGothicStd-MediumXt" horiz-adv-x="701" >
  <font-face 
    font-family="Klimmer Gothic Std MediumXt"
    font-weight="500"
    font-stretch="normal"
    units-per-em="1000"
    panose-1="2 11 6 3 3 5 4 2 2 4"
    ascent="787"
    descent="-213"
    x-height="563"
    cap-height="743"
    bbox="-73 -293 1664 1013"
    underline-thickness="50"
    underline-position="-50"
    unicode-range="U+0020-U+FE6A"
  />
<missing-glyph horiz-adv-x="514" 
d="M12 665h475v-665h-475v665zM250 375l161 243h-323zM60 91l7 10l18 27l25.5 39l29.5 45l81 121l-161 242v-484zM278 333l162 -243v485zM250 290l-162 -242h323z" />
    <glyph glyph-name="f_i" unicode="fi" horiz-adv-x="696" 
d="M121 0v457l-100 10v96h100v54q0 40 6.5 72.5t24 55.5t48 35t78.5 12q36 0 70 -5.5t52 -10.5v-84q-16 2 -41.5 2.5t-48.5 0.5q-20 0 -31.5 -4.5t-17 -14t-7 -24.5t-1.5 -37v-52h351v-563h-132v457h-219v-457h-132zM606 777v-127h-136v97q1 8 5 15q4 5 11 10t21 5h99z" />
    <glyph glyph-name="f_l" unicode="fl" horiz-adv-x="700" 
d="M121 0v457l-100 10v96h100v52q0 52 12 86t35 54t58 28.5t80 8.5q24 0 49 -1.5t48.5 -4t42.5 -5t31 -4.5h132v-777h-132v690q-10 1 -26.5 1.5t-35.5 1.5t-39.5 1.5t-39.5 0.5q-23 0 -39 -2.5t-25.5 -11t-14 -24t-4.5 -42.5v-52h144v-106h-144v-457h-132z" />
    <glyph glyph-name="f_f" unicode="ff" horiz-adv-x="795" 
d="M473 0v457h-219v-457h-133v457l-99 10v96h99v54q0 39 6.5 71t24 55t48.5 36t79 13q35 0 69.5 -5.5t51.5 -10.5v-84q-15 2 -40.5 2.5t-48.5 0.5q-20 0 -31.5 -4.5t-17 -14.5t-7 -25t-1.5 -36v-52h219v54q0 39 6.5 71t24 55t48 36t78.5 13q35 0 69.5 -5.5t51.5 -10.5v-84
q-15 2 -40.5 2.5t-48.5 0.5q-20 0 -31.5 -4.5t-17 -14t-7 -24.5t-1.5 -37v-52h144v-106h-144v-457h-132z" />
    <glyph glyph-name="f_f_i" unicode="ffi" horiz-adv-x="1045" 
d="M822 0v457h-218v-457h-131v457h-219v-457h-133v457l-99 10v96h99v54q0 39 6.5 71.5t24 55.5t48.5 35.5t79 12.5q35 0 69.5 -5.5t51.5 -10.5v-84q-15 2 -40.5 2.5t-48.5 0.5q-20 0 -31.5 -4.5t-17 -14t-7 -24.5t-1.5 -37v-52h219v54q0 39 6.5 71.5t24 55.5t48 35.5
t78.5 12.5q35 0 69.5 -5.5t51.5 -10.5v-84q-16 2 -41.5 2.5t-48.5 0.5q-20 0 -31 -4.5t-17 -14t-7.5 -24.5t-1.5 -37v-52h350v-563h-132zM957 777v-127h-137v97q1 8 5 15q4 5 11 10t21 5h100z" />
    <glyph glyph-name="f_f_l" unicode="ffl" horiz-adv-x="1050" 
d="M827 0v690q-10 1 -26 1.5t-35 1.5t-39.5 1.5t-39.5 0.5q-23 0 -39 -2.5t-25.5 -11t-14 -24t-4.5 -42.5v-52h145v-106h-145v-457h-132v457h-218v-457h-133v457l-99 10v96h99v54q0 39 6.5 71.5t24.5 55.5t48.5 35.5t78.5 12.5q35 0 69.5 -5.5t51.5 -10.5v-84
q-15 2 -40.5 2.5t-48.5 0.5q-20 0 -31.5 -4.5t-17 -14t-7 -24.5t-1.5 -37v-52h218v52q0 52 11.5 86t35 54t58 28.5t80.5 8.5q23 0 48 -1.5t48.5 -4t42.5 -5t31 -4.5h132v-777h-132z" />
    <glyph glyph-name="f_b" unicode="fb" horiz-adv-x="1028" 
d="M121 0v457l-100 10v96h100v52q0 51 11.5 85t35 54.5t58 29t79.5 8.5q42 0 83 -4t83 -11h131v-226q33 15 68 21t66 6q118 0 172.5 -60.5t54.5 -189.5v-78q0 -71 -16.5 -121.5t-50 -82.5t-83 -46.5t-115.5 -14.5q-27 0 -51 1t-49.5 2.5t-56 4.5l-70.5 7v689q-28 2 -63.5 4
t-75.5 2q-21 0 -36 -2.5t-24.5 -11t-14 -24t-4.5 -42.5v-52h144v-106h-144v-457h-132zM603 102l41.5 -2.5t56.5 -1.5q34 0 58.5 7t40.5 24.5t23.5 47t7.5 73.5v79q0 38 -5.5 64.5t-19 42.5t-35 23t-53.5 7q-9 0 -23 -1t-30 -3t-32.5 -6.5t-29.5 -10.5v-343z" />
    <glyph glyph-name="f_f_b" unicode="ffb" horiz-adv-x="1383" 
d="M476 0v457h-222v-457h-133v457l-99 9v97h99v54q0 39 6.5 71t24 55t48 36t79.5 13q35 0 66.5 -5t53.5 -11v-84l-43 2t-44 1q-21 0 -32.5 -4.5t-17 -14t-7 -24.5t-1.5 -37v-52h222v52q0 51 11.5 85t34.5 54.5t57 29t79 8.5q23 0 47 -1.5t46.5 -4t42 -5t32.5 -4.5h131v-226
q31 15 66 21t67 6q118 0 173 -60.5t55 -189.5v-78q0 -71 -17 -121.5t-50 -82.5t-83 -46.5t-116 -14.5q-27 0 -52 1t-51.5 3t-56.5 4.5t-66 6.5v690q-20 2 -59.5 3.5t-79.5 1.5q-21 0 -36.5 -2.5t-25 -11t-14 -24t-4.5 -42.5v-52h145v-106h-145v-457h-131zM1186 329
q0 38 -5.5 64.5t-19 42.5t-35 23t-53.5 7q-9 0 -23 -1t-30.5 -3t-33 -6.5t-29.5 -10.5v-343q14 -1 40 -2.5t58 -1.5q34 0 59 7t41 24.5t23.5 47t7.5 73.5v79z" />
    <glyph glyph-name="f_f_h" unicode="ffh" horiz-adv-x="1399" 
d="M1182 0v355q0 65 -20 88t-69 23q-40 0 -77.5 -10t-59.5 -21v-435h-133v690q-21 2 -59 3.5t-76 1.5q-23 0 -39 -2.5t-26 -11t-14.5 -24t-4.5 -42.5v-52h144v-106h-144v-457h-131v457h-219v-457h-133v457l-99 10v96h99v54q0 39 6.5 71t24 55t48 36t79.5 13q35 0 69.5 -5.5
t51.5 -10.5v-84q-16 2 -41 2.5t-48 0.5q-20 0 -31.5 -4.5t-17 -14t-7 -24.5t-1.5 -37v-52h219v52q0 52 12 86t35.5 54t58.5 28.5t81 8.5q22 0 46 -1.5t46 -4t40.5 -5t30.5 -4.5h133v-242q29 16 74.5 29t99.5 13q52 0 87.5 -15t57 -43.5t30.5 -69.5t9 -92v-357h-132z" />
    <glyph glyph-name="f_f_k" unicode="ffk" horiz-adv-x="1338" 
d="M1154 0l-199 267v-267h-132v690q-22 2 -59.5 3.5t-75.5 1.5q-23 0 -39 -2.5t-26 -11t-14.5 -24t-4.5 -42.5v-52h145v-106h-145v-457h-132v457h-218v-457h-133v457l-99 10v96h99v54q0 39 6.5 71t24 55t48.5 36t79 13q35 0 69.5 -5.5t51.5 -10.5v-84q-15 2 -40.5 2.5
t-48.5 0.5q-20 0 -31.5 -4.5t-17 -14t-7 -24.5t-1.5 -37v-52h218v52q0 52 12 86t36 54t59 28.5t80 8.5q24 0 48 -1.5t45.5 -4t40 -5t30.5 -4.5h132v-465l200 251h151l-218 -270l224 -293h-158z" />
    <glyph glyph-name="f_h" unicode="fh" horiz-adv-x="1049" 
d="M831 0v355q0 65 -20 88t-69 23q-41 0 -78 -10t-60 -21v-435h-131v690q-22 2 -60 3.5t-76 1.5q-23 0 -39 -2.5t-25.5 -11t-14 -24t-4.5 -42.5v-52h144v-106h-144v-457h-133v457l-99 10v96h99v52q0 52 12 86t36 54t59 28.5t81 8.5q24 0 48 -1.5t45.5 -4t40 -5t30.5 -4.5
h131v-242q29 16 75 29t100 13q52 0 87.5 -15t57 -43.5t31 -69.5t9.5 -92v-357h-133z" />
    <glyph glyph-name="f_j" unicode="fj" horiz-adv-x="697" 
d="M121 0v457l-99 10v96h99v54q0 39 6.5 71t24.5 55t48.5 36t78.5 13q35 0 69.5 -5.5t51.5 -10.5v-84q-16 2 -41 2.5t-48 0.5q-20 0 -31.5 -4.5t-17 -14t-7 -24.5t-1.5 -37v-52h352v-610q0 -95 -36.5 -134t-122.5 -39q-29 0 -53 3t-32 5v93q12 -1 26 -1h31q18 0 28.5 3.5
t16.5 11.5t8 22.5t2 35.5v504h-220v-457h-133zM608 777v-127h-137v97q1 8 5 15q4 5 11 10t21 5h100z" />
    <glyph glyph-name="f_f_j" unicode="ffj" horiz-adv-x="1048" 
d="M472 0v457h-219v-457h-132v457l-100 10v96h100v54q0 39 6.5 71t24 55t48 36t78.5 13q35 0 69.5 -5.5t51.5 -10.5v-84q-15 2 -40.5 2.5t-48.5 0.5q-20 0 -31.5 -5t-17 -14.5t-7 -24.5t-1.5 -36v-52h219v54q0 39 6.5 71t24 55t48.5 36t79 13q35 0 69 -5.5t51 -10.5v-84
q-16 2 -41 2.5t-48 0.5q-20 0 -31.5 -4.5t-17 -14t-7 -24.5t-1.5 -37v-52h352v-610q0 -95 -36 -134t-122 -39q-29 0 -53 3t-32 5v93q11 -1 25.5 -1h31.5t27.5 3.5t16.5 11.5t8 22.5t2 35.5v504h-220v-457h-132zM959 777v-127h-137v97q1 8 5 15q4 5 11 10t21 5h100z" />
    <glyph glyph-name="f_k" unicode="fk" horiz-adv-x="987" 
d="M803 0l-199 267v-267h-131v690q-22 2 -60 3.5t-76 1.5q-23 0 -39 -2.5t-25.5 -11t-14 -24t-4.5 -42.5v-52h144v-106h-144v-457h-133v457l-99 10v96h99v52q0 52 12.5 86t36.5 54t59 28.5t80 8.5q24 0 48 -1.5t45.5 -4t40 -5t30.5 -4.5h131v-465l200 251h151l-218 -270
l224 -293h-158z" />
    <glyph glyph-name=".notdef" horiz-adv-x="514" 
d="M12 665h475v-665h-475v665zM250 375l161 243h-323zM60 91l7 10l18 27l25.5 39l29.5 45l81 121l-161 242v-484zM278 333l162 -243v485zM250 290l-162 -242h323z" />
    <glyph glyph-name=".null" horiz-adv-x="7" 
 />
    <glyph glyph-name="nonmarkingreturn" horiz-adv-x="203" 
 />
    <glyph glyph-name="space" unicode=" " horiz-adv-x="203" 
 />
    <glyph glyph-name="numbersign" unicode="#" horiz-adv-x="769" 
d="M543 185l-21 -185h-112l20 185h-152l-21 -185h-112l21 185h-92v97h102l18 169h-120v96h131l22 196h112l-21 -196h151l23 196h112l-21 -196h97v-96h-108l-19 -169h127v-97h-137zM307 451l-19 -169h153l18 169h-152z" />
    <glyph glyph-name="dollar" unicode="$" horiz-adv-x="660" 
d="M263 -14q-59 2 -108.5 8.5t-71.5 12.5v103q47 -5 100.5 -8.5t123.5 -3.5q68 0 100.5 22.5t32.5 73.5q0 35 -19.5 59t-74.5 48l-118 50q-39 16 -69 34.5t-51 43.5t-32 57t-11 76q0 88 49.5 134t148.5 58v105h118v-103q57 -2 104.5 -9.5t69.5 -12.5v-102q-56 6 -107 9.5
t-110 3.5q-66 0 -100 -17t-34 -62q0 -18 4 -31.5t14.5 -25.5t28 -22.5t45.5 -21.5l116 -48q43 -18 74.5 -38.5t52.5 -46t31 -58t10 -74.5q0 -94 -51 -146t-148 -65v-113h-118v110z" />
    <glyph glyph-name="percent" unicode="%" horiz-adv-x="1125" 
d="M1057 200q0 -103 -46.5 -157t-139.5 -54q-94 0 -140.5 54t-46.5 157v45q0 103 46.5 156.5t140.5 53.5q93 0 139.5 -53.5t46.5 -156.5v-45zM952 245q0 38 -6 62.5t-17 38.5t-25.5 19t-32.5 5t-33 -5t-26 -19t-17 -38.5t-6 -62.5v-45q0 -38 6 -62t17 -38t26 -19.5t33 -5.5
t32.5 5.5t25.5 19.5t17 38t6 62v45zM369 0h-118l485 744h119zM424 502q0 -48 -10 -87t-31.5 -67t-57 -43t-86.5 -15t-86.5 15.5t-57.5 44t-32 67t-10 85.5v43q0 47 10 86t32 67t57.5 43.5t86.5 15.5t86.5 -15t57 -42.5t31.5 -67t10 -87.5v-43zM320 545q0 37 -5 61.5
t-14.5 39t-25 20.5t-36.5 6q-42 0 -61.5 -28t-19.5 -99v-43q0 -37 5 -61t14.5 -38.5t25 -20.5t36.5 -6t36.5 6t25 20.5t14.5 38.5t5 61v43z" />
    <glyph glyph-name="ampersand" unicode="&#x26;" horiz-adv-x="792" 
d="M587 0l-50 46q-37 -27 -91 -44t-129 -17q-54 0 -102 10t-83.5 33t-56.5 61t-21 94v7q0 34 9 62t26.5 51t44 43.5t61.5 40.5l-8 8q-47 46 -74 89t-27 100v4q0 90 63.5 130t175.5 40q60 0 121.5 -7.5t106.5 -16.5v-99q-50 5 -108 8t-112 3q-51 0 -81.5 -14t-30.5 -58
q0 -17 4 -31t13 -27.5t23.5 -29t35.5 -35.5l248 -242q16 32 22 71.5t6 81.5l-51 8v78h213v-78l-51 -8q0 -66 -15 -126t-47 -108l103 -99v-29h-138zM275 302q-44 -23 -64 -46.5t-20 -65.5v-7q0 -26 11 -44.5t29 -30.5t42 -17.5t51 -5.5q47 0 81.5 9.5t59.5 26.5z" />
    <glyph glyph-name="quoteright" unicode="&#x2019;" horiz-adv-x="234" 
d="M115 532h-95l54 245h126z" />
    <glyph glyph-name="parenleft" unicode="(" horiz-adv-x="391" 
d="M217 -203q-26 33 -53.5 80.5t-50 106.5t-37 130t-14.5 152v7q0 81 14.5 152.5t37 130.5t50 106.5t53.5 80.5h123q-33 -49 -60.5 -101t-46.5 -109.5t-29.5 -122t-10.5 -137.5v-7q0 -74 10.5 -138.5t29.5 -121.5t46.5 -109t60.5 -100h-123z" />
    <glyph glyph-name="parenright" unicode=")" horiz-adv-x="391" 
d="M314 266q0 -81 -14.5 -152t-37 -130t-49.5 -106.5t-53 -80.5h-123q34 48 61 100t46 109t29.5 121.5t10.5 138.5v7q0 73 -10.5 137.5t-29.5 122t-46 109.5t-61 101h123q26 -33 53 -80.5t49.5 -106.5t37 -130.5t14.5 -152.5v-7v0z" />
    <glyph glyph-name="asterisk" unicode="*" horiz-adv-x="555" 
d="M414 565q-16 -5 -34.5 -9.5t-38.5 -6.5q14 -14 26 -28l23 -27l41 -53l-82 -62l-40 53q-21 28 -39 63q-9 -17 -19 -32.5t-20 -29.5l-40 -54l-82 62l41 54q21 29 49 54q-38 6 -73 17l-65 20l31 101l65 -21q17 -5 34.5 -12t34.5 -16l-4 37t-2 35v67h101v-67q0 -17 -2 -35.5
t-6 -38.5q18 10 36 17t34 12l66 22l31 -101z" />
    <glyph glyph-name="plus" unicode="+" horiz-adv-x="703" 
d="M396 333v-202h-102v202h-208v109h208v202h102v-202h206v-109h-206z" />
    <glyph glyph-name="comma" unicode="," horiz-adv-x="327" 
d="M138 -92h-112l94 247h143z" />
    <glyph glyph-name="hyphen" unicode="-" horiz-adv-x="400" 
d="M66 242v104h254v-104h-254z" />
    <glyph glyph-name="period" unicode="." horiz-adv-x="291" 
d="M205 154v-154h-133v124q1 8 5 15q4 5 11 10t21 5h96z" />
    <glyph glyph-name="slash" unicode="/" horiz-adv-x="467" 
d="M147 0h-133l293 743h131z" />
    <glyph glyph-name="zero" unicode="0" horiz-adv-x="686" 
d="M619 316q0 -163 -71 -247.5t-212 -84.5t-212 84.5t-71 247.5v110q0 163 71 247.5t212 84.5t212 -84.5t71 -247.5v-110zM479 426q0 63 -10.5 104t-29 66t-45 35t-58.5 10t-58 -10t-45 -35t-29.5 -66t-10.5 -104v-110q0 -63 10.5 -104t29.5 -66t45 -35t58 -10t58.5 10
t45 35t29 66t10.5 104v110z" />
    <glyph glyph-name="one" unicode="1" horiz-adv-x="597" 
d="M57 0v106l166 7v499l-167 -48v112l205 71h100v-634l166 -7v-106h-470z" />
    <glyph glyph-name="two" unicode="2" horiz-adv-x="634" 
d="M58 0v93q0 66 12 112.5t39 82.5t70 66.5t105 63.5q45 24 73 42t43.5 34.5t21 33t5.5 37.5q0 46 -33.5 63.5t-117.5 17.5q-25 0 -52.5 -1t-54.5 -3t-51.5 -4t-43.5 -5v97q20 6 45.5 11t54.5 8.5t59.5 6t60.5 2.5q142 0 208 -44.5t66 -142.5q0 -37 -9.5 -68t-33 -59.5
t-61.5 -56t-95 -56.5q-56 -29 -90 -51t-53 -43.5t-25 -47.5t-6 -62v-11h362v-116h-499z" />
    <glyph glyph-name="three" unicode="3" horiz-adv-x="638" 
d="M570 204q0 -61 -18 -103t-53 -68t-87 -37.5t-120 -11.5q-34 0 -68 3t-64.5 8t-55 10t-37.5 10v97l40.5 -5t53 -5t60 -3.5t61.5 -1.5q37 0 65 4.5t47 16.5t28 34t9 57v20q0 22 -4 40.5t-16 31.5t-35 20t-62 7h-209v106h209q39 0 62 8t35 21.5t16 32t4 40.5v12q0 28 -7 47
t-24 30t-46 15.5t-73 4.5q-59 0 -114.5 -4t-97.5 -9v98q9 3 32.5 7.5t54.5 9t66.5 8t69.5 3.5q68 0 120 -10t87 -34t53 -62.5t18 -95.5v-12q0 -49 -20 -93t-69 -69q50 -24 69.5 -66.5t19.5 -91.5v-20v0z" />
    <glyph glyph-name="four" unicode="4" horiz-adv-x="696" 
d="M530 179v-179h-139v179h-347v115l354 449h132v-454h106v-110h-106zM395 573l-231 -284h231v284z" />
    <glyph glyph-name="five" unicode="5" horiz-adv-x="627" 
d="M559 215q0 -63 -19 -107t-55.5 -71.5t-89.5 -40t-121 -12.5q-38 0 -74 3t-65.5 7.5t-52 9t-33.5 7.5v100q16 -2 39.5 -4.5t50.5 -4.5l56.5 -4t58.5 -2q46 0 77.5 6t51 19.5t28.5 36t9 56.5v23q0 31 -7 52t-25.5 34t-50.5 19t-81 6h-196l33 395h441v-115h-327l-16 -172h86
q78 0 131.5 -12.5t87 -39t48.5 -68t15 -98.5v-23v0z" />
    <glyph glyph-name="six" unicode="6" horiz-adv-x="674" 
d="M605 226q0 -73 -25.5 -120t-64.5 -74t-87 -37.5t-93 -10.5q-63 0 -115 14t-89 48.5t-57.5 93t-20.5 147.5v176q0 70 13.5 125t47 92.5t89.5 57.5t142 20q36 0 71 -3t65 -7t53.5 -8.5t36.5 -7.5v-100q-48 5 -101.5 9t-112.5 4q-57 0 -89.5 -11t-49.5 -32t-21.5 -52
t-4.5 -70v-29q16 4 35.5 7.5t40.5 5.5t41 3.5t36 1.5q52 0 99.5 -7.5t83 -30t56.5 -63t21 -106.5v-36zM467 258q0 36 -8.5 58t-25.5 34t-42 16t-58 4q-26 0 -64.5 -3t-76.5 -11v-90q0 -52 9.5 -85.5t28 -53t45.5 -27t61 -7.5q27 0 51 7.5t42 23.5t28 41.5t10 60.5v32z" />
    <glyph glyph-name="seven" unicode="7" horiz-adv-x="620" 
d="M239 0h-150l341 628h-384v115h519v-129z" />
    <glyph glyph-name="eight" unicode="8" horiz-adv-x="698" 
d="M627 213q0 -79 -24 -124.5t-63.5 -69t-90.5 -29.5t-105 -6h-4q-54 0 -105 6t-90.5 29.5t-63.5 69t-24 124.5v8q0 60 20 98.5t61 64.5q-37 23 -58 60.5t-21 96.5v10q0 65 23 105.5t62 63t89.5 30.5t106.5 8h4q55 0 105.5 -8t89.5 -30.5t62 -63t23 -105.5v-10
q0 -59 -21 -96.5t-58 -60.5q41 -26 61.5 -64.5t20.5 -98.5v-8zM489 222q-1 58 -20.5 85t-72.5 27h-109q-53 0 -73 -27t-20 -85v-7q0 -41 10.5 -65.5t30 -38t46 -17.5t59.5 -4h4q32 0 59 4t46 17.5t29.5 38t10.5 65.5v7zM487 548q0 32 -10.5 52t-29.5 31.5t-45.5 15.5
t-57.5 4h-4q-32 0 -58.5 -4t-45.5 -15.5t-29.5 -31.5t-10.5 -52v-10q0 -48 19 -75t72 -27h109q53 0 72 27t19 75v10z" />
    <glyph glyph-name="nine" unicode="9" horiz-adv-x="674" 
d="M605 280q0 -69 -13.5 -124t-46.5 -93.5t-89 -58.5t-142 -20q-36 0 -71 3t-65 7t-53.5 8.5t-36.5 7.5v100q18 -2 43 -4.5t53.5 -4.5t59 -3.5t60.5 -1.5q56 0 88.5 11.5t49 32.5t21 52t4.5 70v29q-16 -4 -35.5 -7.5t-40.5 -5.5t-41 -3.5t-36 -1.5q-53 0 -100 7.5t-83 30
t-57 63t-21 106.5v35q0 73 25.5 120t64.5 74.5t87 38t93 10.5q63 0 115 -14t89 -48t57.5 -92t20.5 -146v-178zM467 475q0 52 -9.5 86t-28 53.5t-45.5 27t-61 7.5q-27 0 -51 -7.5t-42 -24t-28.5 -41.5t-10.5 -60v-33q0 -35 9 -57t26 -34t42 -16t58 -4q26 0 64.5 3t76.5 11v89
z" />
    <glyph glyph-name="colon" unicode=":" horiz-adv-x="300" 
d="M76 0v155h133v-155h-133zM209 563v-155h-133v125q1 8 5 15q4 5 11 10t21 5h96z" />
    <glyph glyph-name="semicolon" unicode=";" horiz-adv-x="312" 
d="M112 -92h-110l87 247h145zM223 563v-155h-133v125q1 8 5 15q4 5 11 10t21 5h96z" />
    <glyph glyph-name="less" unicode="&#x3c;" horiz-adv-x="703" 
d="M408 127l-285 261l285 260h157l-284 -260l284 -261h-157z" />
    <glyph glyph-name="equal" unicode="=" horiz-adv-x="703" 
d="M578 206h-468v110h468v-110zM110 458v111h468v-111h-468z" />
    <glyph glyph-name="greater" unicode="&#x3e;" horiz-adv-x="703" 
d="M280 127h-157l284 261l-284 260h157l285 -260z" />
    <glyph glyph-name="question" unicode="?" horiz-adv-x="521" 
d="M31 762q40 13 89 20.5t102 7.5q109 0 166 -38.5t57 -126.5v-8q0 -25 -5 -47t-17 -44.5t-32 -47t-50 -53.5q-35 -34 -54.5 -58t-29.5 -43.5t-12.5 -38t-2.5 -41.5v-32h-120v32q0 32 2.5 58t11.5 50t26.5 49t47.5 55q26 26 43 46t26.5 36t13.5 30.5t4 30.5v7q0 41 -28 54.5
t-83 13.5q-35 0 -76 -3l-79 -6v97zM117 154h101h31v-28v-126h-102q-9 1 -15 5t-10.5 11t-4.5 21v117h101h31v-28v-126h-102q-9 1 -15 5t-10.5 11t-4.5 21v117z" />
    <glyph glyph-name="at" unicode="@" horiz-adv-x="848" 
d="M808 369q0 -70 -18.5 -129t-61.5 -101.5t-113.5 -66.5t-174.5 -24q-112 0 -163 37t-51 120q0 82 13.5 137t40 88t66 47t91.5 14q48 0 91.5 -6t81.5 -15l-33 -321q78 19 113 76t35 145q0 224 -260 224q-137 0 -215.5 -69.5t-105.5 -219.5q-12 -62 -12 -134q0 -53 13 -93.5
t43.5 -68.5t80.5 -42.5t123 -14.5q29 0 59 1t55.5 2.5t44 3t24.5 2.5v-56q-9 -2 -27.5 -4.5t-43.5 -5t-54 -4.5t-58 -2q-91 0 -155.5 19t-106 55t-61 88.5t-19.5 119.5q0 39 3.5 76.5t9.5 69.5q32 176 132.5 260.5t273.5 84.5q165 0 252 -75t87 -218zM493 400q-12 2 -28.5 2
h-30.5q-24 0 -43 -6.5t-32.5 -27.5t-20.5 -60t-7 -104q0 -42 22 -57.5t76 -15.5h19t19 1z" />
    <glyph glyph-name="A" unicode="A" horiz-adv-x="719" 
d="M535 0l-64 208h-239l-66 -208h-143l225 743h209l225 -743h-147zM382 528q-8 28 -14.5 57.5t-11.5 59.5h-9l-12 -59.5t-14 -57.5l-63 -205h186z" />
    <glyph glyph-name="B" unicode="B" horiz-adv-x="689" 
d="M624 215q0 -70 -24.5 -113t-68.5 -67t-104.5 -32.5t-132.5 -8.5q-32 0 -56.5 0.5l-48 1t-49.5 1.5t-61 3v743q37 1 63.5 2.5t50.5 2l48.5 1t56.5 0.5q75 0 134.5 -8t101 -30.5t64 -61.5t22.5 -102v-9q0 -48 -22 -90.5t-72 -65.5q53 -22 75.5 -65.5t22.5 -91.5v-10z
M487 226q0 24 -7 44t-23.5 33.5t-44 21t-70.5 7.5h-127v-223h38q57 0 100.5 2t73.5 12t45 31.5t15 60.5v11zM484 542q0 32 -12.5 50.5t-36 27.5t-58 11.5t-79.5 2.5h-83v-201h126q43 0 71 7t44 20t22 31.5t6 41.5v9z" />
    <glyph glyph-name="C" unicode="C" horiz-adv-x="601" 
d="M556 3q-13 -3 -34.5 -6.5t-47.5 -6t-53.5 -4.5t-51.5 -2q-72 0 -130.5 15.5t-100 54t-64 103.5t-22.5 165v99q0 100 22.5 165t64 103t100 53.5t130.5 15.5q24 0 51.5 -2t53.5 -5t47.5 -6.5t34.5 -6.5v-111q-37 3 -85.5 6t-92.5 3q-47 0 -82 -9.5t-58 -34t-34.5 -66
t-11.5 -105.5v-99q0 -64 11.5 -106t34.5 -66.5t58 -34t82 -9.5q44 0 92.5 3t85.5 6v-112v0z" />
    <glyph glyph-name="D" unicode="D" horiz-adv-x="720" 
d="M654 326q0 -82 -19 -144t-60 -104t-106 -63t-158 -21q-34 0 -62 0.5l-54.5 1t-54 1.5t-61.5 3v743q34 1 60.5 2.5t52.5 2l54 1t65 0.5q181 0 262 -83t81 -246v-94zM515 420q0 61 -12 101.5t-37.5 64.5t-64.5 34t-93 10h-92v-518h92q54 0 93 10.5t64.5 35.5t37.5 66
t12 102v94z" />
    <glyph glyph-name="E" unicode="E" horiz-adv-x="618" 
d="M79 0v743h473v-116h-333v-189h312v-112h-312v-211h333v-115h-473z" />
    <glyph glyph-name="F" unicode="F" horiz-adv-x="608" 
d="M219 626v-188h312v-112h-312v-326h-140v743h473v-117h-333z" />
    <glyph glyph-name="G" unicode="G" horiz-adv-x="683" 
d="M606 7q-31 -7 -96.5 -15t-146.5 -8q-64 0 -120.5 14.5t-99 52t-67 102.5t-24.5 166v105q0 71 12.5 123.5t34.5 89.5t52 60.5t65 37t73 18.5t77 5q41 0 80 -3t71.5 -7t55.5 -8t32 -7v-107q-18 1 -46.5 3t-59.5 3.5t-60.5 2.5t-48.5 1q-45 0 -82 -7t-63 -29.5t-40 -64.5
t-14 -111v-105q0 -64 11.5 -105t34.5 -65t57 -33.5t79 -9.5q28 0 54 0.5t46 2.5v287h133v-389v0z" />
    <glyph glyph-name="H" unicode="H" horiz-adv-x="777" 
d="M544 0v327h-325v-327h-140v743h140v-296h325v296h140v-743h-140z" />
    <glyph glyph-name="I" unicode="I" horiz-adv-x="312" 
d="M79 0v743h140v-743h-140z" />
    <glyph glyph-name="J" unicode="J" horiz-adv-x="311" 
d="M218 -37q0 -47 -9.5 -81t-30.5 -56t-54.5 -32t-81.5 -10q-21 0 -47 2t-39 6v97q16 -1 30 -1h31q21 0 33.5 4t18.5 12t8 21.5t2 33.5v784h139v-780v0z" />
    <glyph glyph-name="K" unicode="K" horiz-adv-x="700" 
d="M499 0l-276 350v-350h-140v743h140v-346l286 346h168l-307 -366l305 -377h-176z" />
    <glyph glyph-name="L" unicode="L" horiz-adv-x="574" 
d="M79 0v743h140v-625h315v-118h-455z" />
    <glyph glyph-name="M" unicode="M" horiz-adv-x="869" 
d="M640 0v412q0 35 1.5 64t3.5 64h-2q-12 -28 -25 -53l-26 -50l-110 -209h-111l-108 209q-13 24 -24.5 50.5t-25.5 52.5h-2q2 -35 3 -63.5t1 -64.5v-412h-136v743h152l149 -291l22.5 -46.5l22.5 -47.5h2l22.5 48.5t23.5 47.5l151 289h152v-743h-136z" />
    <glyph glyph-name="N" unicode="N" horiz-adv-x="755" 
d="M499 0l-238 441l-28.5 54.5l-27.5 56.5h-2q2 -32 3 -65.5t1 -67.5v-419h-128v743h162l237 -432l29.5 -56t27.5 -57h2q-2 33 -3 70t-1 71v404h129v-743h-163z" />
    <glyph glyph-name="O" unicode="O" horiz-adv-x="729" 
d="M663 328q0 -90 -21 -155t-61 -107t-96.5 -62t-127.5 -20t-127.5 20t-96 62t-60.5 107t-21 155v87q0 90 21 155t61 106.5t96 61.5t127 20q70 0 127 -20t96.5 -61.5t61 -106.5t21.5 -155v-87zM524 414q0 62 -12 104.5t-33.5 68.5t-52.5 37.5t-69 11.5t-68.5 -11.5
t-52.5 -37.5t-33.5 -68.5t-11.5 -104.5v-86q0 -63 12 -105.5t33.5 -68.5t52 -37.5t68.5 -11.5t69 11.5t52.5 37.5t33.5 68.5t12 105.5v86z" />
    <glyph glyph-name="P" unicode="P" horiz-adv-x="662" 
d="M615 504q0 -75 -25.5 -121.5t-69 -72t-101 -34.5t-122.5 -9h-40t-42 1v-268h-136v743q54 3 104.5 4t104.5 1q68 0 127.5 -8.5t104 -33.5t70 -71t25.5 -120v-11zM478 515q0 43 -15.5 66.5t-46 34t-76 12.5t-105.5 2h-20v-244q20 -1 40 -1h40q46 0 80 5t57 18t34.5 36
t11.5 60v11z" />
    <glyph glyph-name="Q" unicode="Q" horiz-adv-x="729" 
d="M663 326q0 -154 -64.5 -237t-176.5 -99v-42q0 -13 2 -21t8.5 -12.5t19 -6t32.5 -1.5h84v-87q-17 -5 -54.5 -10t-75.5 -5q-33 0 -60.5 5.5t-47 21.5t-30 43t-10.5 71v45q-113 17 -175.5 99.5t-62.5 235.5v90q0 90 21.5 154.5t61 106.5t96 61.5t126.5 19.5t126.5 -19.5
t96.5 -61.5t61.5 -106.5t21.5 -154.5v-90zM524 416q0 62 -12 104t-33.5 68t-52.5 37t-69 11t-68.5 -11t-52.5 -37t-33.5 -68t-11.5 -104v-90q0 -62 12 -104t33.5 -68t52 -37.5t68.5 -11.5t69 11.5t52.5 37.5t33.5 68t12 104v90z" />
    <glyph glyph-name="R" unicode="R" horiz-adv-x="691" 
d="M513 0l-164 275q-15 -1 -31.5 -1h-33.5h-69v-274h-136v743q50 2 100.5 3.5t107.5 1.5q67 0 126.5 -8.5t104 -34t70.5 -71t26 -118.5v-7q0 -85 -34 -132.5t-94 -73.5l175 -303h-148zM477 514q0 43 -15.5 66.5t-47.5 34.5t-81.5 13t-117.5 2v-244q20 -1 38.5 -1h38.5
q96 0 140.5 25.5t44.5 97.5v6z" />
    <glyph glyph-name="S" unicode="S" horiz-adv-x="630" 
d="M567 195q0 -102 -69 -156.5t-195 -54.5q-36 0 -72 2t-67.5 5.5t-56 7.5t-38.5 8v107q46 -5 99.5 -8.5t123.5 -3.5q68 0 100.5 20.5t32.5 71.5q0 18 -4 32.5t-14.5 27t-28.5 23.5t-46 23l-112 46q-83 34 -126 84.5t-43 131.5q0 108 67 152t199 44q35 0 68.5 -2.5t62 -6
t51 -8t35.5 -7.5v-106q-43 4 -97.5 8.5t-113.5 4.5q-66 0 -100 -15t-34 -60q0 -17 4.5 -30t15.5 -24.5t29 -22t46 -21.5l101 -41q49 -20 83.5 -41t56.5 -47.5t32 -61.5t10 -82z" />
    <glyph glyph-name="T" unicode="T" horiz-adv-x="654" 
d="M390 627v-627h-140v627h-222v116h584v-116h-222z" />
    <glyph glyph-name="U" unicode="U" horiz-adv-x="745" 
d="M657 304q0 -161 -74.5 -240.5t-216.5 -79.5q-143 0 -217.5 79.5t-74.5 240.5v439h138v-432q0 -56 7.5 -95.5t25 -64.5t47 -36t74.5 -11q44 0 73.5 11t47.5 36t25.5 64.5t7.5 95.5v432h137v-439v0z" />
    <glyph glyph-name="V" unicode="V" horiz-adv-x="725" 
d="M457 0h-204l-224 743h144l153 -515q10 -32 16 -68t14 -65h2l13 65.5t17 67.5l153 515h141z" />
    <glyph glyph-name="W" unicode="W" horiz-adv-x="962" 
d="M777 0h-187l-94 393q-6 25 -10.5 50.5t-10.5 48.5h-2q-6 -23 -10.5 -48.5t-10.5 -50.5l-93 -393h-189l-129 743h142l74 -450q6 -36 11 -73l10 -71h4l15.5 69.5l15.5 68.5l78 327h169l78 -330l15.5 -67l14.5 -68h4q5 35 9.5 70.5t11.5 73.5l75 450h139z" />
    <glyph glyph-name="X" unicode="X" horiz-adv-x="717" 
d="M520 0l-181 264l-174 -264h-138l244 379l-241 364h154l178 -256l170 256h138l-241 -370l247 -373h-156z" />
    <glyph glyph-name="Y" unicode="Y" horiz-adv-x="680" 
d="M401 278v-278h-136v278l-248 465h146l117 -215q14 -26 27.5 -56.5t24.5 -58.5h6q10 28 25 58.5l29 56.5l117 215h140z" />
    <glyph glyph-name="Z" unicode="Z" horiz-adv-x="655" 
d="M53 0v127l366 498h-354v118h511v-128l-365 -498h377v-117h-535z" />
    <glyph glyph-name="bracketleft" unicode="[" horiz-adv-x="435" 
d="M98 -204v947h270v-110h-139v-728h139v-109h-270z" />
    <glyph glyph-name="backslash" unicode="\" horiz-adv-x="490" 
d="M317 0l-291 743h131l292 -743h-132z" />
    <glyph glyph-name="bracketright" unicode="]" horiz-adv-x="435" 
d="M52 -204v109h139v729h-139v109h270v-947h-270z" />
    <glyph glyph-name="asciicircum" unicode="^" horiz-adv-x="703" 
d="M474 423l-130 263l-129 -263h-132l161 322h200l161 -322h-131z" />
    <glyph glyph-name="underscore" unicode="_" horiz-adv-x="607" 
d="M2 -126v78h588v-78h-588z" />
    <glyph glyph-name="quoteleft" unicode="&#x2018;" horiz-adv-x="234" 
d="M146 532h-126l85 245h95z" />
    <glyph glyph-name="a" unicode="a" horiz-adv-x="591" 
d="M389 0v37q-26 -18 -72 -35t-106 -17q-79 0 -122 39.5t-43 121.5v21q0 56 19.5 89.5t54.5 51.5t84 23.5t108 5.5h67v35q0 30 -4 48.5t-17 29t-36 14.5t-60 4q-42 0 -86 -3t-91 -8v89q9 4 28.5 9t46 10t58.5 8.5t66 3.5q67 0 111 -12t70 -36.5t36 -63.5t10 -93v-372h-122z
M382 256h-70q-36 0 -62.5 -3t-43 -12t-24.5 -25.5t-8 -44.5v-24q0 -39 22 -52.5t57 -13.5q20 0 40 3.5t37 9t30.5 11t21.5 10.5v141z" />
    <glyph glyph-name="b" unicode="b" horiz-adv-x="630" 
d="M565 250q0 -71 -17 -121.5t-50 -82.5t-83 -46.5t-116 -14.5q-28 0 -52.5 1t-50.5 2.5t-55.5 4.5t-67.5 8v776h132v-226q31 15 65.5 21t66.5 6q118 0 173 -60.5t55 -189.5v-78zM433 329q0 76 -25 106.5t-88 30.5q-9 0 -23.5 -1t-30.5 -3t-32.5 -6.5t-29.5 -10.5v-343
l41.5 -2.5t55.5 -1.5q34 0 59 7t41.5 24.5t24 47t7.5 73.5v79z" />
    <glyph glyph-name="c" unicode="c" horiz-adv-x="516" 
d="M462 6q-20 -5 -64.5 -13t-109.5 -8q-122 0 -179.5 66.5t-57.5 194.5v71q0 130 57.5 195t179.5 65q65 0 109.5 -7.5t64.5 -13.5v-100q-107 9 -151 9q-31 0 -54.5 -6t-40 -22.5t-25 -45t-8.5 -74.5v-71q0 -45 8.5 -74t25 -45.5t40 -23t54.5 -6.5q44 0 151 9v-100v0z" />
    <glyph glyph-name="d" unicode="d" horiz-adv-x="630" 
d="M419 0v29q-29 -18 -68.5 -31t-89.5 -13q-99 0 -154.5 61.5t-55.5 190.5v80q0 74 17.5 124t50 80t77 43t98.5 13q32 0 60 -3t57 -8v211h132v-777h-124zM412 457q-29 5 -57 7.5t-48 2.5q-30 0 -53 -5.5t-39 -22t-24 -45.5t-8 -77v-80q0 -76 26.5 -108t88.5 -32q31 0 59.5 7
t54.5 18v335z" />
    <glyph glyph-name="e" unicode="e" horiz-adv-x="622" 
d="M182 240v-10q0 -31 4 -56t19 -42.5t45 -27t82 -9.5q45 0 96 4t107 9v-99q-32 -8 -85 -16t-124 -8q-76 0 -128.5 15.5t-85 48.5t-47 85.5t-14.5 126.5v35q0 281 254 281q70 0 118.5 -21.5t78.5 -60.5t43.5 -93t13.5 -118v-44h-377zM427 335q0 24 -3.5 48.5t-16.5 44
t-37 31.5t-65 12q-40 0 -64 -12.5t-37 -32t-17 -43.5t-4 -48v-9h244v9z" />
    <glyph glyph-name="f" unicode="f" horiz-adv-x="444" 
d="M254 457v-457h-133v457l-99 9v97h99v54q0 39 6.5 71t24 55t48.5 36t79 13q35 0 66.5 -5t54.5 -11v-84l-43.5 2t-44.5 1q-21 0 -32.5 -4.5t-17 -14t-7 -24.5t-1.5 -37v-52h144v-106h-144z" />
    <glyph glyph-name="g" unicode="g" horiz-adv-x="630" 
d="M544 -21q0 -46 -10.5 -82.5t-37.5 -62t-73.5 -39.5t-118.5 -14q-36 0 -72.5 3t-67 6.5t-52 7t-28.5 5.5v90q48 -3 104 -6t108 -3q39 0 62 6t35 17.5t15.5 29.5t3.5 42v22q-14 -2 -44 -5t-57 -3q-62 0 -110 14t-81 45.5t-50.5 80.5t-17.5 120v63q0 133 65 197t211 64
q56 0 113 -4.5t103 -9.5v-584zM412 461q-8 2 -34 4t-58 2q-41 0 -67 -9t-41.5 -28t-21.5 -47.5t-6 -67.5v-62q0 -42 7 -71t23 -46.5t41.5 -25t62.5 -7.5q13 0 27.5 0.5t27.5 1.5t23.5 2.5t15.5 2.5v351z" />
    <glyph glyph-name="h" unicode="h" horiz-adv-x="649" 
d="M431 0v355q0 65 -20 88t-69 23q-41 0 -78 -10t-60 -21v-435h-131v777h131v-242q29 16 75 29t100 13q52 0 87.5 -15t57 -43.5t31 -69.5t9.5 -92v-357h-133z" />
    <glyph glyph-name="i" unicode="i" horiz-adv-x="301" 
d="M77 0v563h133v-563h-133zM212 777v-127h-136v97q1 8 5 15q4 5 11 10t21 5h99z" />
    <glyph glyph-name="j" unicode="j" horiz-adv-x="301" 
d="M210 -47q0 -49 -8.5 -82t-28 -53.5t-50.5 -29t-75 -8.5q-25 0 -49 2.5t-33 4.5v94q12 -1 26 -1h31q18 0 28.5 3.5t16 11.5t7.5 22.5t2 35.5v610h133v-610zM212 777v-127h-136v97q1 8 5 15q4 5 11 10t21 5h99z" />
    <glyph glyph-name="k" unicode="k" horiz-adv-x="587" 
d="M403 0l-199 267v-267h-131v777h131v-465l200 251h151l-218 -270l224 -293h-158z" />
    <glyph glyph-name="l" unicode="l" horiz-adv-x="300" 
d="M77 0v777h132v-777h-132z" />
    <glyph glyph-name="m" unicode="m" horiz-adv-x="923" 
d="M707 0v369q0 23 -1.5 41.5t-8 31t-21 19t-40.5 6.5q-24 0 -56 -9t-61 -25q2 -17 2.5 -33t0.5 -31v-369h-132v369q0 24 -1 42t-7.5 30.5t-19.5 19t-37 6.5q-31 0 -63 -11.5t-58 -24.5v-431h-131v563h126v-45q35 27 78 43t90 16q51 0 81 -16t47 -45q48 33 92 47t83 14
q60 0 93.5 -18t50.5 -47t21 -66t4 -75v-371h-132z" />
    <glyph glyph-name="n" unicode="n" horiz-adv-x="648" 
d="M431 0v357q0 30 -3 51t-12 34t-24.5 18.5t-39.5 5.5q-29 0 -66 -10t-82 -28v-428h-131v563h126v-45q46 26 91.5 42.5t93.5 16.5q60 0 95.5 -16.5t54 -45.5t24.5 -69.5t6 -88.5v-357h-133z" />
    <glyph glyph-name="o" unicode="o" horiz-adv-x="624" 
d="M559 247q0 -134 -65 -198t-189 -64t-189 64t-65 198v69q0 133 65.5 197t188.5 64t188.5 -64t65.5 -197v-69zM428 316q0 81 -29 114.5t-94 33.5q-64 0 -93.5 -33.5t-29.5 -114.5v-69q0 -81 29 -115t94 -34t94 34t29 115v69z" />
    <glyph glyph-name="p" unicode="p" horiz-adv-x="629" 
d="M564 260q0 -78 -18 -131t-51 -84.5t-78.5 -45t-100.5 -13.5q-26 0 -58 3.5t-54 8.5v-204h-131v769h123v-37q38 26 80.5 38.5t84.5 12.5q47 0 84.5 -14t64 -45.5t40.5 -82t14 -123.5v-52zM433 312q0 44 -6.5 73.5t-20 47t-34 24.5t-47.5 7t-54 -6t-68 -24v-327
q29 -5 55 -8t49 -3q30 0 53.5 6t39.5 24t24.5 50t8.5 84v52z" />
    <glyph glyph-name="q" unicode="q" horiz-adv-x="629" 
d="M412 -206v220q-39 -16 -75.5 -22.5t-70.5 -6.5q-110 0 -162.5 61.5t-52.5 205.5v50q0 81 17 134.5t51 84.5t84.5 43.5t118.5 12.5q27 0 51 -0.5t49 -2.5t54 -5t67 -8v-767h-131zM411 460q-17 2 -45 3t-48 1q-35 0 -60 -5t-42 -22t-25 -49t-8 -87v-49q0 -44 5 -73.5
t16.5 -47.5t31 -25.5t49.5 -7.5q20 0 52.5 4.5t73.5 19.5v338z" />
    <glyph glyph-name="r" unicode="r" horiz-adv-x="420" 
d="M390 456q-26 0 -52 -2.5t-50.5 -7t-46 -11t-37.5 -13.5v-422h-131v563h125v-46q40 35 89.5 47.5t102.5 12.5v-121v0z" />
    <glyph glyph-name="s" unicode="s" horiz-adv-x="526" 
d="M474 156q0 -80 -55 -125t-173 -45q-29 0 -59.5 2.5t-56.5 5.5t-46.5 7t-29.5 7v94q11 -1 31 -3l45.5 -4.5t54 -4t55.5 -1.5q61 0 82.5 14.5t21.5 44.5q0 15 -4 25t-15 18.5t-30.5 17.5t-50.5 21l-43 17q-80 31 -117.5 71.5t-37.5 105.5q0 85 56 119t169 34q24 0 50.5 -2
t51 -5.5t44 -7.5t30.5 -7v-92q-48 5 -92.5 7.5t-81.5 2.5q-51 0 -74 -8t-23 -38q0 -14 4 -23t14.5 -17t27.5 -15.5t43 -17.5l45 -18q45 -18 76.5 -35.5t50.5 -38t28 -46t9 -60.5z" />
    <glyph glyph-name="t" unicode="t" horiz-adv-x="441" 
d="M397 1q-6 -2 -17.5 -4.5t-26.5 -5t-33 -4.5t-37 -2q-42 0 -71 8.5t-48 28t-27.5 50.5t-8.5 75v310l-105 9v97h105v143h132v-143h137v-106h-137v-308q0 -20 1.5 -32t6.5 -18.5t15.5 -9t28.5 -2.5q22 0 47.5 1t37.5 3v-90v0z" />
    <glyph glyph-name="u" unicode="u" horiz-adv-x="649" 
d="M435 0v45q-51 -27 -98.5 -43.5t-96.5 -16.5q-55 0 -88.5 18t-51.5 48.5t-23.5 70t-5.5 83.5v358h131v-358q0 -30 3.5 -51t12.5 -33.5t24.5 -18.5t40.5 -6q29 0 65.5 10.5t81.5 27.5v429h132v-563h-127z" />
    <glyph glyph-name="v" unicode="v" horiz-adv-x="591" 
d="M382 0h-187l-175 563h138l92 -321q11 -40 20.5 -78.5t19.5 -74.5l18 74t20 79l91 321h138z" />
    <glyph glyph-name="w" unicode="w" horiz-adv-x="889" 
d="M729 0h-173l-87 276q-11 35 -18 62.5t-11 50.5h-4q-7 -45 -29 -113l-88 -276h-171l-123 563h134l63 -304q8 -38 12.5 -72.5t6.5 -66.5h5q9 33 17.5 68.5t19.5 69.5l74 235h162l74 -235q11 -34 19.5 -69.5t17.5 -68.5h5q2 32 7 66.5t13 72.5l62 304h133z" />
    <glyph glyph-name="x" unicode="x" horiz-adv-x="601" 
d="M306 381l110 182h145l-184 -286l190 -277h-154l-130 190l-119 -190h-144l193 294l-183 269h152z" />
    <glyph glyph-name="y" unicode="y" horiz-adv-x="599" 
d="M369 -21q-17 -50 -34.5 -87t-41.5 -62t-56.5 -37t-78.5 -12q-41 0 -76.5 3.5t-57.5 8.5v96q34 -2 57 -3t49 -1q18 0 30.5 4.5t22 14.5t17.5 26t17 39l13 35l-210 559h143l98 -299q12 -38 20.5 -73t20.5 -77q9 42 17.5 77t19.5 73l89 299h137z" />
    <glyph glyph-name="z" unicode="z" horiz-adv-x="532" 
d="M40 0v118l287 338h-276v107h422v-116l-289 -342h290v-105h-434z" />
    <glyph glyph-name="braceleft" unicode="{" horiz-adv-x="451" 
d="M319 -206q-63 0 -103 9.5t-63.5 29.5t-32 52.5t-8.5 78.5v151q0 24 -3 40.5t-10.5 29t-19.5 22t-29 20.5v83q17 11 29 21t19.5 22t10.5 28.5t3 40.5v152q0 46 8.5 78.5t32 52.5t63.5 29t103 9h63v-109h-62q-26 0 -41 -2t-23 -8.5t-10 -18.5t-2 -31v-152q0 -30 -4.5 -53
t-13.5 -41t-23 -32t-34 -27q20 -13 34 -27.5t23 -32.5t13.5 -41t4.5 -53v-151q0 -20 2 -32t10 -18.5t23 -8.5t41 -2h63v-109h-64z" />
    <glyph glyph-name="bar" unicode="|" horiz-adv-x="340" 
d="M97 -206v949h131v-949h-131z" />
    <glyph glyph-name="braceright" unicode="}" horiz-adv-x="451" 
d="M388 227q-18 -11 -30 -20.5t-19.5 -22t-10.5 -29t-3 -40.5v-151q0 -46 -8.5 -78.5t-32 -52.5t-63.5 -29.5t-103 -9.5h-64v109h63q26 0 41 2t23 8.5t10.5 18.5t2.5 32v151q0 30 4.5 53t13.5 41t23 32.5t34 27.5q-20 13 -34.5 27t-23.5 32t-13 41t-4 53v152q0 19 -2.5 31
t-10.5 18.5t-23 8.5t-41 2h-62v109h63q63 0 103 -9t63.5 -29t32 -52.5t8.5 -78.5v-152q0 -24 3 -40.5t10.5 -28.5t19.5 -22t30 -21v-83v0z" />
    <glyph glyph-name="asciitilde" unicode="~" horiz-adv-x="703" 
d="M593 485q0 -77 -27 -117t-95 -40q-35 0 -62 8t-57 28l-63 42l-29 18.5t-29 7.5q-25 0 -32.5 -15t-7.5 -44v-37h-96v37q0 157 129 157q31 0 55 -10t53 -30l60 -40q17 -11 32.5 -17.5t33.5 -6.5q27 0 33.5 15.5t6.5 43.5v37h95v-37v0z" />
    <glyph glyph-name="exclamdown" unicode="&#xa1;" horiz-adv-x="315" 
d="M78 -213l13 566h119l13 -566h-145zM218 564v-121v-31h-27h-109v122q1 8 5 15q4 5 11 10t21 5h99z" />
    <glyph glyph-name="cent" unicode="&#xa2;" horiz-adv-x="533" 
d="M465 457q-47 5 -85 6.5t-66 1.5q-31 0 -54.5 -6t-40 -22.5t-25 -45t-8.5 -74.5v-71q0 -45 8.5 -74t25 -45.5t40 -23t54.5 -6.5q26 0 64.5 2t86.5 6v-99q-14 -4 -45 -10t-76 -8v-109h-113v113q-91 16 -134 80.5t-43 173.5v71q0 109 43 173t134 81v110h113v-106
q45 -4 77 -9.5t44 -9.5v-99z" />
    <glyph glyph-name="sterling" unicode="&#xa3;" horiz-adv-x="655" 
d="M582 632q-12 1 -32.5 3t-46 3.5t-53.5 2.5t-54 1q-42 0 -66.5 -7t-37 -23.5t-16.5 -44t-4 -68.5v-63h229v-104h-229v-121q0 -54 -31 -99h341v-112h-493v94q26 26 36 57t10 60v121h-77v104h77v63q0 66 11.5 114.5t39.5 81t74.5 48t117.5 15.5q66 0 119.5 -6.5t84.5 -14.5
v-105z" />
    <glyph glyph-name="fraction" unicode="&#x2044;" horiz-adv-x="498" 
d="M59 0h-119l485 744h119z" />
    <glyph glyph-name="yen" unicode="&#xa5;" horiz-adv-x="713" 
d="M417 218v-218h-137v218h-232v89h219l-51 92h-168v89h121l-138 255h147l118 -215q14 -26 27.5 -56.5t24.5 -58.5h5q10 28 25.5 58.5l29.5 56.5l116 215h142l-138 -255h120v-89h-167l-52 -92h219v-89h-231z" />
    <glyph glyph-name="florin" unicode="&#x192;" horiz-adv-x="664" 
d="M586 658q-25 2 -41.5 2.5t-32.5 0.5q-18 0 -31.5 -2.5t-23 -10.5t-15.5 -22.5t-10 -39.5l-21 -142h160l-13 -104h-162l-45 -327q-7 -50 -23 -81.5t-39 -50.5t-53 -26t-64 -7q-37 0 -66 4t-52 10l11 86q23 -2 40.5 -3t36.5 -1q16 0 29 2t22.5 9.5t16.5 22.5t10 40l45 322
h-145l14 104h145l21 147q7 49 22.5 81.5t39 51.5t54 26.5t67.5 7.5q33 0 61.5 -4.5t51.5 -10.5z" />
    <glyph glyph-name="section" unicode="&#xa7;" horiz-adv-x="682" 
d="M94 -91q20 -2 46.5 -3.5t55.5 -3.5t59.5 -3t59.5 -1q39 0 64.5 6t41 18t21.5 29.5t6 40.5q0 18 -3 32.5t-14.5 27.5t-33 26.5t-58.5 29.5l-120 52q-74 32 -108.5 77.5t-34.5 116.5q0 26 6.5 55t21.5 55q-27 40 -27 107q0 94 63 139.5t201 45.5q36 0 70.5 -2.5t64 -6
t52.5 -7.5t36 -7v-103q-17 1 -41.5 3t-53 4t-60 3.5t-61.5 1.5q-38 0 -63.5 -4.5t-41 -14t-22 -24t-6.5 -34.5q0 -17 3.5 -30.5t13.5 -26t28.5 -24t47.5 -23.5l116 -49q49 -21 81 -43t51 -46.5t27 -53t8 -61.5q0 -24 -5.5 -51t-24.5 -58q30 -47 30 -107q0 -99 -64.5 -154.5
t-200.5 -55.5q-32 0 -66 2t-65 5t-57 7t-44 8v105zM472 188q0 24 -2.5 40.5t-12 30t-28.5 25.5t-52 26l-117 49q-32 13 -46.5 23t-27.5 24v-12q0 -33 1.5 -53.5t10 -34.5t26.5 -25t52 -25l119 -50q22 -9 41 -20.5l36 -22.5v25z" />
    <glyph glyph-name="currency" unicode="&#xa4;" horiz-adv-x="672" 
d="M521 116l-78 76q-26 -15 -55 -23.5t-58 -8.5q-30 0 -59 7.5t-56 24.5l-79 -76l-69 69l79 78q-16 25 -24.5 54.5t-8.5 58.5t8 57.5t25 54.5l-79 78l69 69l79 -77q26 17 56 24.5t59 7.5q30 0 59 -7.5t55 -24.5l77 75l70 -69l-77 -76q16 -26 24.5 -55t8.5 -58
q0 -61 -33 -113l77 -76zM457 376q0 26 -10.5 49t-27.5 40t-40.5 27t-48.5 10q-26 0 -49.5 -10t-41 -27t-27.5 -40t-10 -49q0 -27 10.5 -50t28 -40t40.5 -26.5t49 -9.5q25 0 48 10t40.5 27t28 40t10.5 49z" />
    <glyph glyph-name="quotesingle" unicode="'" horiz-adv-x="201" 
d="M115 512h-95l25 254h122z" />
    <glyph glyph-name="quotedblleft" unicode="&#x201c;" horiz-adv-x="448" 
d="M146 532h-126l85 245h95zM414 777l-54 -245h-126l85 245h95z" />
    <glyph glyph-name="guillemotleft" unicode="&#xab;" horiz-adv-x="739" 
d="M529 74l-159 217l159 215h143l-154 -215l154 -217h-143zM352 74h-143l-159 217l159 215h143l-154 -215z" />
    <glyph glyph-name="guilsinglleft" unicode="&#x2039;" horiz-adv-x="418" 
d="M208 74l-158 217l158 215h143l-153 -215l153 -217h-143z" />
    <glyph glyph-name="guilsinglright" unicode="&#x203a;" horiz-adv-x="418" 
d="M195 74h-143l153 217l-153 215h143l158 -215z" />
    <glyph glyph-name="endash" unicode="&#x2013;" horiz-adv-x="503" 
d="M66 242v104h357v-104h-357z" />
    <glyph glyph-name="dagger" unicode="&#x2020;" horiz-adv-x="538" 
d="M323 463v-593h-132v593h-123v112h123v202h132v-202h133v-112h-133z" />
    <glyph glyph-name="daggerdbl" unicode="&#x2021;" horiz-adv-x="538" 
d="M323 235v-365h-132v365h-123v111h123v121h-123v113h123v194h132v-194h133v-113h-133v-121h133v-111h-133z" />
    <glyph glyph-name="periodcentered" unicode="&#xb7;" horiz-adv-x="291" 
d="M202 446v-124v-31h-27h-101v125q1 8 5 15q4 5 11 10t21 5h91z" />
    <glyph glyph-name="paragraph" unicode="&#xb6;" horiz-adv-x="758" 
d="M422 -197v446h-48q-67 0 -124 10.5t-99 37.5t-66 74t-24 120v10q0 75 24 122t67 74t102 36.5t128 9.5h290v-940h-95v846h-60v-846h-95z" />
    <glyph glyph-name="bullet" unicode="&#x2022;" horiz-adv-x="537" 
d="M446 368q0 -38 -14.5 -71t-39.5 -58t-59 -39t-72 -14t-71.5 14t-58.5 39t-39.5 58t-14.5 71t14.5 71.5t39.5 58t58.5 39t71.5 14.5t72 -14.5t59 -39t39.5 -58t14.5 -71.5z" />
    <glyph glyph-name="quotesinglbase" unicode="&#x201a;" horiz-adv-x="234" 
d="M115 -97h-95l54 245h126z" />
    <glyph glyph-name="quotedblbase" unicode="&#x201e;" horiz-adv-x="448" 
d="M288 148h126l-85 -245h-95zM20 -97l54 245h126l-85 -245h-95z" />
    <glyph glyph-name="quotedblright" unicode="&#x201d;" horiz-adv-x="448" 
d="M288 777h126l-85 -245h-95zM20 532l54 245h126l-85 -245h-95z" />
    <glyph glyph-name="guillemotright" unicode="&#xbb;" horiz-adv-x="739" 
d="M515 74h-142l153 217l-153 215h142l159 -215zM354 291l-159 -217h-143l154 217l-154 215h143z" />
    <glyph glyph-name="ellipsis" unicode="&#x2026;" horiz-adv-x="896" 
d="M375 0v154h132v-154h-132zM676 0v154h133v-154h-133zM206 154v-154h-133v124q1 8 5 15q4 5 11 10t21 5h96z" />
    <glyph glyph-name="perthousand" unicode="&#x2030;" horiz-adv-x="1552" 
d="M1484 198q0 -103 -46.5 -156t-139.5 -53q-92 0 -139 53t-47 156v44q0 103 47 156t139 53q93 0 139.5 -53t46.5 -156v-44zM1379 243q0 37 -6 61t-17 38t-25.5 19t-32.5 5t-32.5 -5t-25.5 -19t-17 -38t-6 -61v-45q0 -38 6 -62t17 -38t25.5 -19t32.5 -5t32.5 5t25.5 19
t17 38t6 62v45zM1054 198q0 -103 -47 -156t-139 -53q-93 0 -140 53t-47 156v44q0 103 47 156t140 53q92 0 139 -53t47 -156v-44zM949 243q0 37 -6 61t-17 38t-25.5 19t-32.5 5t-33 -5t-26 -19t-17 -38t-6 -61v-45q0 -38 6 -62t17 -38t26 -19t33 -5t32.5 5t25.5 19t17 38
t6 62v45zM368 0h-118l485 744h118zM424 504q0 -48 -10 -86.5t-32 -65.5t-57 -42t-86 -15t-86.5 15t-57.5 43t-32 66t-10 85v43q0 47 10 85.5t32 66.5t57.5 43t86.5 15t86 -15t57 -42t32 -66t10 -87v-43zM319 547q0 36 -4.5 60.5t-14.5 38.5t-25 20t-36 6q-42 0 -61.5 -27
t-19.5 -98v-43q0 -36 5 -60.5t14.5 -38.5t25 -20t36.5 -6t36 6t25 20t14.5 38.5t4.5 60.5v43z" />
    <glyph glyph-name="questiondown" unicode="&#xbf;" horiz-adv-x="521" 
d="M476 -196q-40 -13 -89.5 -20.5t-102.5 -7.5q-109 0 -166 38.5t-57 126.5v8q0 25 5 47t17 44.5t32 47t50 53.5q34 34 54 58t30.5 43.5t13 38t2.5 41.5v32h119v-32q0 -32 -2.5 -58t-11.5 -50t-26 -49t-47 -55q-26 -27 -43 -46.5t-27 -36t-13.5 -30.5t-3.5 -30v-7
q0 -41 27.5 -54.5t82.5 -13.5q35 0 76 3l80 6v-97zM390 566v-123v-31h-27h-105v124q1 8 5 15q4 5 11 10t21 5h95z" />
    <glyph glyph-name="grave" unicode="`" horiz-adv-x="485" 
d="M208 626l-158 148h153l131 -148h-126z" />
    <glyph glyph-name="acute" unicode="&#xb4;" horiz-adv-x="485" 
d="M254 626h-127l132 148h153z" />
    <glyph glyph-name="circumflex" unicode="&#x2c6;" horiz-adv-x="515" 
d="M346 626l-96 90l-95 -90h-121l135 148h163l135 -148h-121z" />
    <glyph glyph-name="tilde" unicode="&#x2dc;" horiz-adv-x="500" 
d="M458 755q0 -134 -107 -134q-49 0 -104 35l-44 28q-17 12 -29 18t-26 6q-20 0 -26.5 -13.5t-6.5 -39.5v-28h-82v28q0 69 28.5 101t82.5 32q27 0 48.5 -7.5t49.5 -24.5l45 -29q16 -11 29.5 -17.5t28.5 -6.5q20 0 26.5 13t6.5 39v27h80v-27v0z" />
    <glyph glyph-name="macron" unicode="&#xaf;" horiz-adv-x="494" 
d="M52 654v88h376v-88h-376z" />
    <glyph glyph-name="breve" unicode="&#x2d8;" horiz-adv-x="499" 
d="M431 781q-8 -78 -56.5 -117.5t-132.5 -39.5t-132 39.5t-56 117.5h85q5 -48 32 -65.5t71 -17.5q45 0 71.5 17.5t33.5 65.5h84v0z" />
    <glyph glyph-name="dotaccent" unicode="&#x2d9;" horiz-adv-x="456" 
d="M288 775v-93v-31h-27h-107v94q1 8 5 15q4 5 11 10t21 5h97z" />
    <glyph glyph-name="dieresis" unicode="&#xa8;" horiz-adv-x="497" 
d="M307 645v124h111v-124h-111zM177 769v-93v-31h-27h-85v94q1 8 5 15q4 5 11 10t21 5h75z" />
    <glyph glyph-name="ring" unicode="&#x2da;" horiz-adv-x="465" 
d="M355 730q0 -60 -36.5 -88.5t-91.5 -28.5q-56 0 -93.5 29t-37.5 88q0 29 10 51t27.5 36.5t41.5 22t52 7.5q55 0 91.5 -29t36.5 -88zM282 730q0 28 -16 39.5t-39 11.5q-24 0 -40 -11.5t-16 -39.5q0 -27 15.5 -39t40.5 -12q23 0 39 12t16 39z" />
    <glyph glyph-name="cedilla" unicode="&#xb8;" horiz-adv-x="469" 
d="M191 -206h-126l110 141h149z" />
    <glyph glyph-name="hungarumlaut" unicode="&#x2dd;" horiz-adv-x="553" 
d="M211 623h-120l131 149h147zM604 772l-159 -149h-120l132 149h147z" />
    <glyph glyph-name="ogonek" unicode="&#x2db;" horiz-adv-x="472" 
d="M364 -203q-13 -4 -42.5 -9t-67.5 -5q-68 0 -103.5 25.5t-35.5 73.5q0 38 35 72.5t106 56.5l108 -11q-44 -18 -71 -32t-41.5 -26t-19.5 -22t-5 -19q0 -18 12.5 -28t44.5 -10q20 0 40 1.5t40 3.5v-71v0z" />
    <glyph glyph-name="caron" unicode="&#x2c7;" horiz-adv-x="515" 
d="M155 774l95 -91l96 91h121l-135 -148h-163l-135 148h121z" />
    <glyph glyph-name="emdash" unicode="&#x2014;" horiz-adv-x="660" 
d="M66 242v104h515v-104h-515z" />
    <glyph glyph-name="AE" unicode="&#xc6;" horiz-adv-x="1726" 
d="M390 627v-627h-140v627h-222v116h515v-116h-153zM959 0l-276 350v-350h-140v743h140v-346l286 346h168l-307 -366l305 -377h-176zM1209 0v743h140v-625h315v-118h-455z" />
    <glyph glyph-name="ordfeminine" unicode="&#xaa;" horiz-adv-x="459" 
d="M279 421v24q-18 -11 -48.5 -22t-69.5 -11q-49 0 -79 25t-30 76v12q0 36 14 57t38 31.5t56.5 13.5t69.5 3h41v18q0 17 -2.5 28t-10.5 17t-22.5 8.5t-38.5 2.5q-14 0 -30.5 -0.5t-32.5 -1.5t-30.5 -2.5l-24.5 -2.5v62q15 6 53 13.5t85 7.5q44 0 73.5 -7.5t47 -23.5t25 -41
t7.5 -60v-227h-91zM274 575h-43q-46 0 -65.5 -8t-19.5 -39v-12q0 -23 14 -28.5t35 -5.5q24 0 47 7t32 12v74z" />
    <glyph glyph-name="Lslash" unicode="&#x141;" horiz-adv-x="574" 
d="M3 320l75 63v360h140v-258l100 86v-108l-100 -86v-259h316v-118h-456v276l-75 -64v108z" />
    <glyph glyph-name="Oslash" unicode="&#xd8;" horiz-adv-x="729" 
d="M663 328q0 -90 -21 -155t-61 -107t-96.5 -62t-127.5 -20q-113 0 -186 49l-24 -33h-133l84 114q-46 81 -46 214v87q0 90 21 155t61 106.5t96 61.5t127 20q110 0 182 -47l24 32h131l-81 -110q50 -80 50 -218v-87zM524 414q0 47 -8 87l-266 -361q21 -19 48 -27t59 -8
q38 0 69 11.5t52.5 37.5t33.5 68.5t12 105.5v86zM191 328q0 -46 6 -80l264 357q-21 17 -47 24t-57 7q-38 0 -68.5 -11.5t-52.5 -37.5t-33.5 -68.5t-11.5 -104.5v-86z" />
    <glyph glyph-name="OE" unicode="&#x152;" horiz-adv-x="1003" 
d="M938 0h-432l-72 -11t-78 -5q-71 0 -127.5 19.5t-96.5 61t-61 106.5t-21 155v90q0 90 21 154.5t60.5 106t96 61t127.5 19.5q42 0 78 -4t73 -10h432v-116h-333v-189h312v-112h-312v-211h333v-115zM467 627q-34 5 -57 7t-50 2q-40 0 -71.5 -11t-53.5 -37t-34 -68.5
t-12 -104.5v-89q0 -62 12 -104t34 -68t54 -37.5t71 -11.5q14 0 25.5 0.5l23.5 1t25.5 2t32.5 4.5v514z" />
    <glyph glyph-name="ordmasculine" unicode="&#xba;" horiz-adv-x="464" 
d="M398 580q0 -88 -44.5 -128.5t-128.5 -40.5q-83 0 -128 40.5t-45 128.5v32q0 88 45 128t128 40q84 0 128.5 -40t44.5 -128v-32zM300 612q0 48 -17.5 67.5t-57.5 19.5q-39 0 -57 -19.5t-18 -67.5v-32q0 -49 17.5 -68.5t57.5 -19.5t57.5 19.5t17.5 68.5v32z" />
    <glyph glyph-name="ae" unicode="&#xe6;" horiz-adv-x="950" 
d="M864 9q-32 -8 -89.5 -15.5t-124.5 -7.5q-151 0 -212 67q-53 -37 -106.5 -52t-120.5 -15q-79 0 -122 39t-43 121v21q0 56 19.5 89.5t54.5 51.5t84 23.5t108 5.5h67v35q0 29 -4 47.5t-16.5 29.5t-35.5 15t-61 4q-43 0 -85.5 -2.5t-91.5 -7.5v88q9 4 28.5 9t46 10t58.5 8.5
t66 3.5q39 0 68 -3.5t50 -10t35.5 -16t25.5 -21.5q29 23 70 36.5t101 13.5q70 0 118.5 -21.5t78.5 -59.5t43 -89t13 -110v-56h-376v-10q0 -30 3.5 -55.5t18.5 -44t45 -29t82 -10.5q53 0 106.5 4t97.5 10v-96zM756 335q0 24 -4 48.5t-16.5 44t-37 31.5t-65.5 12
q-40 0 -64 -12.5t-36.5 -32t-16.5 -43.5t-4 -48v-9h244v9zM382 256h-70q-36 0 -62.5 -3t-43 -12t-24.5 -25.5t-8 -44.5v-24q0 -39 21.5 -52.5t56.5 -13.5q42 0 78 12.5t52 21.5v141z" />
    <glyph glyph-name="dotlessi" unicode="&#x131;" horiz-adv-x="301" 
d="M77 0v563h133v-563h-133z" />
    <glyph glyph-name="lslash" unicode="&#x142;" horiz-adv-x="340" 
d="M97 0v280l-80 -73v131l80 73v366h132v-237l80 72v-131l-80 -71v-410h-132z" />
    <glyph glyph-name="oslash" unicode="&#xf8;" horiz-adv-x="624" 
d="M559 247q0 -134 -65 -198t-189 -64q-90 0 -151 35l-22 -30h-122l76 99q-35 62 -35 158v69q0 133 65.5 197t188.5 64q76 0 133 -26l26 34h121l-72 -95q46 -64 46 -174v-69zM428 316q0 29 -5 57l-195 -257q14 -10 33 -14t44 -4q65 0 94 34t29 115v69zM182 247v-15.5
t1 -15.5l181 238q-23 10 -59 10q-64 0 -93.5 -33.5t-29.5 -114.5v-69z" />
    <glyph glyph-name="oe" unicode="&#x153;" horiz-adv-x="1000" 
d="M559 240v-10q0 -30 3.5 -55.5t18.5 -44t44.5 -29t82.5 -10.5q52 0 106 4t97 10v-96q-31 -8 -88.5 -15.5t-124.5 -7.5q-79 0 -128.5 18t-77.5 49q-63 -68 -188 -68q-123 0 -188.5 64t-65.5 198v69q0 133 66 197t188 64q129 0 190 -69q60 69 187 69q70 0 118.5 -22
t78.5 -60t43.5 -89t13.5 -110v-56h-376zM804 335q0 24 -4 48.5t-16.5 44t-37 31.5t-64.5 12q-39 0 -63 -11.5t-37 -29.5t-17.5 -40t-4.5 -43v-21h244v9zM427 316q0 81 -29 115.5t-94 34.5q-63 0 -92.5 -34.5t-29.5 -115.5v-69q0 -81 29 -115.5t93 -34.5q65 0 94 34.5
t29 115.5v69z" />
    <glyph glyph-name="germandbls" unicode="&#xdf;" horiz-adv-x="679" 
d="M610 216q0 -51 -14.5 -92.5t-44.5 -71.5t-77 -46t-112 -16q-30 0 -76 6v104q19 -1 31.5 -1h18.5q77 0 110.5 29t33.5 94v19q0 54 -34 83.5t-114 29.5h-46v95h46q76 0 105.5 30t29.5 81v9q0 23 -6 42.5t-20 33.5t-38.5 21.5t-61.5 7.5t-62.5 -8.5t-41.5 -28t-23 -52.5
t-7 -81v-504h-132v504q0 67 14 119.5t45.5 89t82.5 55.5t126 19q69 0 116.5 -17t77.5 -46.5t43 -67.5t13 -80v-11q0 -52 -22 -93.5t-70 -64.5q54 -24 81.5 -70t27.5 -101v-20v0z" />
    <glyph glyph-name="one.superior" unicode="&#xb9;" horiz-adv-x="433" 
d="M69 302v75l92 4v270l-93 -29v85l123 44h76v-370l92 -4v-75h-290z" />
    <glyph glyph-name="logicalnot" unicode="&#xac;" horiz-adv-x="703" 
d="M473 206v252h-363v111h468v-363h-105z" />
    <glyph glyph-name="mu" unicode="&#xb5;" horiz-adv-x="692" 
d="M455 0v45q-48 -23 -89.5 -38t-79.5 -15q-24 0 -38 1.5t-25 4.5v-203h-132v768h131v-358q0 -30 3.5 -51t12.5 -33.5t24.5 -18.5t40.5 -6q29 0 65.5 10.5t81.5 27.5v429h132v-563h-127z" />
    <glyph glyph-name="trademark" unicode="&#x2122;" horiz-adv-x="945" 
d="M757 341v202q0 18 0.5 37t1.5 36q-8 -14 -15.5 -28.5t-15.5 -27.5l-55 -81h-59l-54 81q-8 11 -16 26.5t-16 29.5q1 -17 1.5 -36t0.5 -37v-202h-94v406h101l81 -130q8 -12 13.5 -22.5t11.5 -24.5q8 13 13 24t13 23l82 130h101v-406h-95zM257 672v-331h-98v331h-118v75h334
v-75h-118z" />
    <glyph glyph-name="Eth" unicode="&#xd0;" horiz-adv-x="720" 
d="M654 326q0 -82 -19 -144t-60 -104t-106 -63t-158 -21q-115 0 -232 6v328h-52v110h52v305q115 6 232 6q181 0 262 -83t81 -246v-94zM515 420q0 61 -12 101.5t-37.5 64.5t-64.5 34t-93 10h-92v-192h130v-110h-130v-216h92q54 0 93 10.5t64.5 35.5t37.5 66t12 102v94z" />
    <glyph glyph-name="onehalf" unicode="&#xbd;" horiz-adv-x="1078" 
d="M330 0h-118l484 744h119zM69 302v75l92 4v270l-93 -29v85l123 44h76v-370l92 -4v-75h-290zM685 439q10 3 27.5 6t39 5.5t45 4t45.5 1.5q90 0 132.5 -27.5t42.5 -88.5q0 -23 -6.5 -42t-22 -36t-40 -33t-60.5 -32q-35 -16 -55.5 -28t-32 -24t-15 -25.5t-3.5 -33.5v-5h227
v-81h-331v55q0 41 7.5 70.5t24.5 52t44.5 41t66.5 37.5q30 15 48 25t27.5 19t12 17.5t2.5 19.5q0 23 -18.5 33t-65.5 10q-19 0 -40.5 -1t-41 -2t-35.5 -2.5t-25 -1.5v66z" />
    <glyph glyph-name="plusminus" unicode="&#xb1;" horiz-adv-x="703" 
d="M90 0v95h507v-95h-507zM396 375v-197h-102v197h-206v110h206v196h102v-196h205v-110h-205z" />
    <glyph glyph-name="Thorn" unicode="&#xde;" horiz-adv-x="670" 
d="M79 0v750h136v-119q25 1 48 1h40q66 0 124 -8.5t101.5 -34t69 -71.5t25.5 -120v-12q0 -74 -25.5 -120.5t-69 -72t-101 -34.5t-122.5 -9h-42t-48 1v-151h-136zM486 399q0 40 -13.5 63t-40 34.5t-66 14.5t-92.5 3h-59v-244q16 -1 39 -1h49q46 0 80.5 4.5t57 17.5t34 36
t11.5 59v13z" />
    <glyph glyph-name="onequarter" unicode="&#xbc;" horiz-adv-x="986" 
d="M330 0h-118l484 744h119zM69 302v75l92 4v270l-93 -29v85l123 44h76v-370l92 -4v-75h-290zM749 0v102h-219v77l233 268h91v-269h66v-76h-66v-102h-105zM754 331l-136 -153h136v153z" />
    <glyph glyph-name="divide" unicode="&#xf7;" horiz-adv-x="703" 
d="M279 91v146h131v-146h-131zM590 333h-492v110h492v-110zM410 682v-146h-131v116q1 8 5 15q4 5 11 10t21 5h94z" />
    <glyph glyph-name="brokenbar" unicode="&#xa6;" horiz-adv-x="340" 
d="M97 352v391h131v-391h-131zM228 -206h-131v393h131v-393z" />
    <glyph glyph-name="degree" unicode="&#xb0;" horiz-adv-x="457" 
d="M394 590q0 -35 -13.5 -65.5t-37 -53t-54.5 -35.5t-67 -13t-67.5 13t-54.5 35.5t-36.5 53t-13.5 65.5t13.5 65.5t36.5 53.5t54.5 36t67.5 13t67 -13t54.5 -36t37 -53.5t13.5 -65.5zM311 590q0 38 -26 62.5t-64 24.5t-64 -24.5t-26 -62.5t26 -62.5t64 -24.5t64 24.5
t26 62.5z" />
    <glyph glyph-name="thorn" unicode="&#xfe;" horiz-adv-x="629" 
d="M73 -206v983h125v-250q41 26 79 38t80 12q49 0 87.5 -14.5t65 -45t40.5 -79t14 -116.5v-74q0 -73 -18 -123t-51 -81t-78.5 -44.5t-100.5 -13.5q-26 0 -54.5 3t-57.5 8v-203h-131zM433 322q0 79 -26.5 110.5t-81.5 31.5q-27 0 -54 -6t-68 -24v-327q29 -5 57 -8t47 -3
q30 0 53.5 6.5t39.5 23.5t24.5 46.5t8.5 75.5v74z" />
    <glyph glyph-name="threequarters" unicode="&#xbe;" horiz-adv-x="1039" 
d="M351 0h-119l486 744h119zM799 0v102h-219v77l233 268h91v-269h66v-76h-66v-102h-105zM804 331l-136 -153h136v153zM208 292q-23 0 -46.5 2t-44.5 4.5t-36.5 5.5t-22.5 6v67q9 -1 25 -2t35.5 -2l40.5 -2t39 -1q45 0 66 11.5t21 49.5v9q0 12 -2.5 22t-10 17t-21.5 11t-38 4
h-131v73h132q24 0 38 4t21.5 11.5t9.5 17.5t2 22v6q0 30 -18 41t-69 11q-38 0 -77 -2.5t-63 -4.5v67q7 3 23 6t36.5 5.5t44 4.5t46.5 2q88 0 135 -26.5t47 -95.5v-7q0 -29 -12.5 -56t-43.5 -42q32 -14 44 -40t12 -55v-9q0 -73 -45 -104t-137 -31z" />
    <glyph glyph-name="two.superior" unicode="&#xb2;" horiz-adv-x="464" 
d="M62 741q10 3 27.5 6t39 5.5t45 4t45.5 1.5q90 0 132.5 -27.5t42.5 -88.5q0 -23 -6.5 -42t-22 -36t-40 -33t-60.5 -32q-35 -16 -55.5 -28t-32 -24t-15 -25.5t-3.5 -33.5v-5h227v-81h-331v55q0 41 7.5 70.5t24.5 52t44.5 41t66.5 37.5q30 15 48 25t27.5 19t12 17.5
t2.5 19.5q0 23 -18.5 33t-65.5 10q-19 0 -40.5 -1t-41 -2t-35.5 -2.5t-25 -1.5v66z" />
    <glyph glyph-name="registered" unicode="&#xae;" horiz-adv-x="689" 
d="M608 475q0 -66 -19.5 -119.5t-55 -91t-85.5 -58t-112 -20.5t-112.5 20.5t-86 58t-55 91t-19.5 119.5t19.5 119.5t55 91t86 58t112.5 20.5t112 -20.5t85.5 -58t55 -91t19.5 -119.5zM540 475q0 106 -54 165.5t-150 59.5q-97 0 -151 -59.5t-54 -165.5q0 -107 54 -166.5
t151 -59.5q96 0 150 59.5t54 166.5zM397 328l-72 111h-32v-111h-70v309q17 1 28.5 1.5t21.5 1t20 0.5h23q30 0 55.5 -4t44.5 -15t29.5 -30.5t10.5 -51.5q0 -35 -15.5 -56.5t-43.5 -30.5l82 -124h-82zM385 539q0 32 -21 38t-63 6h-8v-91q23 0 40.5 1t29 5.5t17 14t5.5 26.5z
" />
    <glyph glyph-name="minus" unicode="&#x2212;" horiz-adv-x="703" 
d="M98 333v110h492v-110h-492z" />
    <glyph glyph-name="eth" unicode="&#xf0;" horiz-adv-x="624" 
d="M559 257q0 -138 -64 -204.5t-190 -66.5q-125 0 -189.5 64t-64.5 195v55q0 135 65 197t188 62q56 0 96 -20q-18 41 -47.5 71t-72.5 49l-124 -84l-40 48l90 62q-50 11 -105 11h-11.5t-15.5 -1v90q12 1 23 1.5t19 0.5q52 0 96.5 -7t82.5 -20l78 54l40 -47l-49 -36
q101 -55 148 -164t47 -251v-59zM428 306q0 77 -29.5 109.5t-93.5 32.5t-93.5 -33t-29.5 -113v-57q0 -80 29 -113.5t94 -33.5t94 33t29 114v61z" />
    <glyph glyph-name="multiply" unicode="&#xd7;" horiz-adv-x="703" 
d="M493 167l-148 144l-150 -146l-71 75l151 147l-151 146l70 74l151 -146l149 146l71 -75l-150 -146l149 -145z" />
    <glyph glyph-name="three.superior" unicode="&#xb3;" horiz-adv-x="460" 
d="M208 292q-23 0 -46.5 2t-44.5 4.5t-36.5 5.5t-22.5 6v67q9 -1 25 -2t35.5 -2l40.5 -2t39 -1q45 0 66 11.5t21 49.5v9q0 12 -2.5 22t-10 17t-21.5 11t-38 4h-131v73h132q24 0 38 4t21.5 11.5t9.5 17.5t2 22v6q0 30 -18 41t-69 11q-38 0 -77 -2.5t-63 -4.5v67q7 3 23 6
t36.5 5.5t44 4.5t46.5 2q88 0 135 -26.5t47 -95.5v-7q0 -29 -12.5 -56t-43.5 -42q32 -14 44 -40t12 -55v-9q0 -73 -45 -104t-137 -31z" />
    <glyph glyph-name="copyright" unicode="&#xa9;" horiz-adv-x="866" 
d="M784 375q0 -90 -27 -160t-75 -118t-114 -72.5t-144 -24.5t-144.5 24.5t-114.5 72.5t-75 118t-27 160t27 160t75 117.5t114.5 72.5t144.5 25t144 -25t114 -72.5t75 -117.5t27 -160zM703 375q0 70 -20.5 126t-57.5 94t-88.5 58.5t-112.5 20.5q-62 0 -113 -20.5t-88 -58.5
t-57 -94t-20 -126q0 -71 20 -126.5t57 -94t88 -59t113 -20.5q61 0 112.5 20.5t88.5 59t57.5 94t20.5 126.5zM432 160q-94 0 -140.5 48.5t-46.5 138.5v56q0 91 46.5 139t140.5 48q15 0 31.5 -1t32 -2.5t29 -3.5t21.5 -5v-76q-65 6 -106 6q-28 0 -46 -5.5t-29 -18t-15.5 -32.5
t-4.5 -49v-56q0 -29 4.5 -49t15.5 -32.5t29 -18t46 -5.5q41 0 106 6v-76q-8 -3 -21.5 -5t-29 -3.5t-32 -2.5t-31.5 -1z" />
    <glyph glyph-name="Aacute" unicode="&#xc1;" horiz-adv-x="719" 
d="M535 0l-64 208h-239l-66 -208h-143l225 743h209l225 -743h-147zM382 528q-8 28 -14.5 57.5t-11.5 59.5h-9l-12 -59.5t-14 -57.5l-63 -205h186zM393 789h-127l132 149h153z" />
    <glyph glyph-name="Acircumflex" unicode="&#xc2;" horiz-adv-x="719" 
d="M535 0l-64 208h-239l-66 -208h-143l225 743h209l225 -743h-147zM382 528q-8 28 -14.5 57.5t-11.5 59.5h-9l-12 -59.5t-14 -57.5l-63 -205h186zM447 789l-96 91l-95 -91h-122l135 149h164l135 -149h-121z" />
    <glyph glyph-name="Adieresis" unicode="&#xc4;" horiz-adv-x="719" 
d="M535 0l-64 208h-239l-66 -208h-143l225 743h209l225 -743h-147zM382 528q-8 28 -14.5 57.5t-11.5 59.5h-9l-12 -59.5t-14 -57.5l-63 -205h186zM417 803v124h110v-124h-110zM286 927v-124h-111v94q1 8 5 15q4 5 11 10t21 5h74z" />
    <glyph glyph-name="Agrave" unicode="&#xc0;" horiz-adv-x="719" 
d="M535 0l-64 208h-239l-66 -208h-143l225 743h209l225 -743h-147zM382 528q-8 28 -14.5 57.5t-11.5 59.5h-9l-12 -59.5t-14 -57.5l-63 -205h186zM329 789l-158 149h153l132 -149h-127z" />
    <glyph glyph-name="Aring" unicode="&#xc5;" horiz-adv-x="719" 
d="M535 0l-64 208h-239l-66 -208h-143l225 743h209l225 -743h-147zM382 528q-8 28 -14.5 57.5t-11.5 59.5h-9l-12 -59.5t-14 -57.5l-63 -205h186zM482 889q0 -59 -36.5 -87.5t-91.5 -28.5q-28 0 -52 7t-41.5 21.5t-27.5 36.5t-10 51q0 59 37.5 88.5t93.5 29.5q55 0 91.5 -29
t36.5 -89zM409 890q0 28 -16 39t-39 11q-24 0 -40 -11t-16 -39t16 -39.5t40 -11.5q23 0 39 11.5t16 39.5z" />
    <glyph glyph-name="Atilde" unicode="&#xc3;" horiz-adv-x="719" 
d="M535 0l-64 208h-239l-66 -208h-143l225 743h209l225 -743h-147zM382 528q-8 28 -14.5 57.5t-11.5 59.5h-9l-12 -59.5t-14 -57.5l-63 -205h186zM565 917q0 -69 -27 -101t-81 -32q-49 0 -104 35l-44 28q-17 12 -29 17.5t-26 5.5q-20 0 -26.5 -13t-6.5 -39v-28h-82v28
q0 69 28.5 101t82.5 32q27 0 48.5 -7.5t49.5 -24.5l45 -29q16 -11 29.5 -17.5t28.5 -6.5q20 0 26.5 12.5t6.5 38.5v28h81v-28z" />
    <glyph glyph-name="Ccedilla" unicode="&#xc7;" horiz-adv-x="601" 
d="M556 3q-13 -3 -34.5 -6.5t-47.5 -6t-53.5 -4.5t-51.5 -2q-72 0 -130.5 15.5t-100 54t-64 103.5t-22.5 165v99q0 100 22.5 165t64 103t100 53.5t130.5 15.5q24 0 51.5 -2t53.5 -5t47.5 -6.5t34.5 -6.5v-111q-37 3 -85.5 6t-92.5 3q-47 0 -82 -9.5t-58 -34t-34.5 -66
t-11.5 -105.5v-99q0 -64 11.5 -106t34.5 -66.5t58 -34t82 -9.5q44 0 92.5 3t85.5 6v-112zM291 -206h-126l111 141h149z" />
    <glyph glyph-name="Eacute" unicode="&#xc9;" horiz-adv-x="618" 
d="M79 0v743h473v-116h-333v-189h312v-112h-312v-211h333v-115h-473zM367 789h-126l131 149h153z" />
    <glyph glyph-name="Ecircumflex" unicode="&#xca;" horiz-adv-x="618" 
d="M79 0v743h473v-116h-333v-189h312v-112h-312v-211h333v-115h-473zM412 789l-96 91l-95 -91h-121l135 149h163l135 -149h-121z" />
    <glyph glyph-name="Edieresis" unicode="&#xcb;" horiz-adv-x="618" 
d="M79 0v743h473v-116h-333v-189h312v-112h-312v-211h333v-115h-473zM382 803v124h111v-124h-111zM252 927v-124h-111v94q1 8 5 15q4 5 11 10t21 5h74z" />
    <glyph glyph-name="Egrave" unicode="&#xc8;" horiz-adv-x="618" 
d="M79 0v743h473v-116h-333v-189h312v-112h-312v-211h333v-115h-473zM275 789l-158 149h153l132 -149h-127z" />
    <glyph glyph-name="Iacute" unicode="&#xcd;" horiz-adv-x="312" 
d="M79 0v743h140v-743h-140zM191 788h-126l131 149h153z" />
    <glyph glyph-name="Icircumflex" unicode="&#xce;" horiz-adv-x="312" 
d="M79 0v743h140v-743h-140zM245 789l-96 91l-95 -91h-121l135 149h164l134 -149h-121z" />
    <glyph glyph-name="Idieresis" unicode="&#xcf;" horiz-adv-x="312" 
d="M79 0v743h140v-743h-140zM214 803v124h110v-124h-110zM83 927v-124h-111v94q1 8 5 15q4 5 11 10t21 5h74z" />
    <glyph glyph-name="Igrave" unicode="&#xcc;" horiz-adv-x="312" 
d="M79 0v743h140v-743h-140zM133 789l-158 149h153l131 -149h-126z" />
    <glyph glyph-name="Ntilde" unicode="&#xd1;" horiz-adv-x="755" 
d="M499 0l-238 441l-28.5 54.5l-27.5 56.5h-2q2 -32 3 -65.5t1 -67.5v-419h-128v743h162l237 -432q14 -25 29.5 -55.5t27.5 -57.5h2q-2 33 -3 70t-1 71v404h129v-743h-163zM583 916q0 -69 -27 -101t-81 -32q-26 0 -50.5 8t-52.5 26l-44 29q-17 11 -29.5 17t-26.5 6
q-20 0 -26.5 -13.5t-6.5 -39.5v-28h-82v28q0 69 29 101.5t83 32.5q26 0 47.5 -7.5t49.5 -25.5l45 -29q17 -11 30 -17.5t28 -6.5q20 0 26.5 13t6.5 39v28h81v-28z" />
    <glyph glyph-name="Oacute" unicode="&#xd3;" horiz-adv-x="729" 
d="M663 328q0 -90 -21 -155t-61 -107t-96.5 -62t-127.5 -20t-127.5 20t-96 62t-60.5 107t-21 155v87q0 90 21 155t61 106.5t96 61.5t127 20q70 0 127 -20t96.5 -61.5t61 -106.5t21.5 -155v-87zM524 414q0 62 -12 104.5t-33.5 68.5t-52.5 37.5t-69 11.5t-68.5 -11.5
t-52.5 -37.5t-33.5 -68.5t-11.5 -104.5v-86q0 -63 12 -105.5t33.5 -68.5t52 -37.5t68.5 -11.5t69 11.5t52.5 37.5t33.5 68.5t12 105.5v86zM387 789h-126l131 149h154z" />
    <glyph glyph-name="Ocircumflex" unicode="&#xd4;" horiz-adv-x="729" 
d="M663 328q0 -90 -21 -155t-61 -107t-96.5 -62t-127.5 -20t-127.5 20t-96 62t-60.5 107t-21 155v87q0 90 21 155t61 106.5t96 61.5t127 20q70 0 127 -20t96.5 -61.5t61 -106.5t21.5 -155v-87zM524 414q0 62 -12 104.5t-33.5 68.5t-52.5 37.5t-69 11.5t-68.5 -11.5
t-52.5 -37.5t-33.5 -68.5t-11.5 -104.5v-86q0 -63 12 -105.5t33.5 -68.5t52 -37.5t68.5 -11.5t69 11.5t52.5 37.5t33.5 68.5t12 105.5v86zM452 788l-95 91l-96 -91h-121l135 149h164l135 -149h-122z" />
    <glyph glyph-name="Odieresis" unicode="&#xd6;" horiz-adv-x="729" 
d="M663 328q0 -90 -21 -155t-61 -107t-96.5 -62t-127.5 -20t-127.5 20t-96 62t-60.5 107t-21 155v87q0 90 21 155t61 106.5t96 61.5t127 20q70 0 127 -20t96.5 -61.5t61 -106.5t21.5 -155v-87zM524 414q0 62 -12 104.5t-33.5 68.5t-52.5 37.5t-69 11.5t-68.5 -11.5
t-52.5 -37.5t-33.5 -68.5t-11.5 -104.5v-86q0 -63 12 -105.5t33.5 -68.5t52 -37.5t68.5 -11.5t69 11.5t52.5 37.5t33.5 68.5t12 105.5v86zM423 804v124h110v-124h-110zM292 928v-124h-111v94q1 8 5 15q4 5 11 10t21 5h74z" />
    <glyph glyph-name="Ograve" unicode="&#xd2;" horiz-adv-x="729" 
d="M663 328q0 -90 -21 -155t-61 -107t-96.5 -62t-127.5 -20t-127.5 20t-96 62t-60.5 107t-21 155v87q0 90 21 155t61 106.5t96 61.5t127 20q70 0 127 -20t96.5 -61.5t61 -106.5t21.5 -155v-87zM524 414q0 62 -12 104.5t-33.5 68.5t-52.5 37.5t-69 11.5t-68.5 -11.5
t-52.5 -37.5t-33.5 -68.5t-11.5 -104.5v-86q0 -63 12 -105.5t33.5 -68.5t52 -37.5t68.5 -11.5t69 11.5t52.5 37.5t33.5 68.5t12 105.5v86zM329 789l-158 149h153l131 -149h-126z" />
    <glyph glyph-name="Otilde" unicode="&#xd5;" horiz-adv-x="729" 
d="M663 328q0 -90 -21 -155t-61 -107t-96.5 -62t-127.5 -20t-127.5 20t-96 62t-60.5 107t-21 155v87q0 90 21 155t61 106.5t96 61.5t127 20q70 0 127 -20t96.5 -61.5t61 -106.5t21.5 -155v-87zM524 414q0 62 -12 104.5t-33.5 68.5t-52.5 37.5t-69 11.5t-68.5 -11.5
t-52.5 -37.5t-33.5 -68.5t-11.5 -104.5v-86q0 -63 12 -105.5t33.5 -68.5t52 -37.5t68.5 -11.5t69 11.5t52.5 37.5t33.5 68.5t12 105.5v86zM570 916q0 -69 -27 -101t-81 -32q-26 0 -50.5 8t-53.5 26l-44 29q-17 11 -29 17t-26 6q-20 0 -26.5 -13.5t-6.5 -39.5v-28h-82v28
q0 69 28.5 101.5t82.5 32.5q27 0 48.5 -7.5t49.5 -25.5l45 -29q16 -11 29.5 -17.5t28.5 -6.5q20 0 26.5 13t6.5 39v28h81v-28z" />
    <glyph glyph-name="Scaron" unicode="&#x160;" horiz-adv-x="630" 
d="M212 937l96 -91l95 91h122l-135 -149h-164l-135 149h121zM567 195q0 -102 -69 -156.5t-195 -54.5q-36 0 -72 2t-67.5 5.5t-56 7.5t-38.5 8v107q46 -5 99.5 -8.5t123.5 -3.5q68 0 100.5 20.5t32.5 71.5q0 18 -4 32.5t-14.5 27t-28.5 23.5t-46 23l-112 46q-83 34 -126 84.5
t-43 131.5q0 108 67 152t199 44q35 0 68.5 -2.5t62 -6t51 -8t35.5 -7.5v-106q-43 4 -97.5 8.5t-113.5 4.5q-66 0 -100 -15t-34 -60q0 -17 4.5 -30t15.5 -24.5t29 -22t46 -21.5l101 -41q49 -20 83.5 -41t56.5 -47.5t32 -61.5t10 -82z" />
    <glyph glyph-name="Uacute" unicode="&#xda;" horiz-adv-x="745" 
d="M657 304q0 -161 -74.5 -240.5t-216.5 -79.5q-143 0 -217.5 79.5t-74.5 240.5v439h138v-432q0 -56 7.5 -95.5t25 -64.5t47 -36t74.5 -11q44 0 73.5 11t47.5 36t25.5 64.5t7.5 95.5v432h137v-439zM413 790h-126l131 149h153z" />
    <glyph glyph-name="Ucircumflex" unicode="&#xdb;" horiz-adv-x="745" 
d="M657 304q0 -161 -74.5 -240.5t-216.5 -79.5q-143 0 -217.5 79.5t-74.5 240.5v439h138v-432q0 -56 7.5 -95.5t25 -64.5t47 -36t74.5 -11q44 0 73.5 11t47.5 36t25.5 64.5t7.5 95.5v432h137v-439zM462 789l-96 91l-95 -91h-121l135 149h163l135 -149h-121z" />
    <glyph glyph-name="Udieresis" unicode="&#xdc;" horiz-adv-x="745" 
d="M657 304q0 -161 -74.5 -240.5t-216.5 -79.5q-143 0 -217.5 79.5t-74.5 240.5v439h138v-432q0 -56 7.5 -95.5t25 -64.5t47 -36t74.5 -11q44 0 73.5 11t47.5 36t25.5 64.5t7.5 95.5v432h137v-439zM430 803v124h111v-124h-111zM300 927v-124h-112v94q1 8 5 15q4 5 11 10
t21 5h75z" />
    <glyph glyph-name="Ugrave" unicode="&#xd9;" horiz-adv-x="745" 
d="M657 304q0 -161 -74.5 -240.5t-216.5 -79.5q-143 0 -217.5 79.5t-74.5 240.5v439h138v-432q0 -56 7.5 -95.5t25 -64.5t47 -36t74.5 -11q44 0 73.5 11t47.5 36t25.5 64.5t7.5 95.5v432h137v-439zM322 789l-158 149h153l132 -149h-127z" />
    <glyph glyph-name="Yacute" unicode="&#xdd;" horiz-adv-x="680" 
d="M401 278v-278h-136v278l-248 465h146l117 -215q14 -26 27.5 -56.5t24.5 -58.5h6q10 28 25.5 58.5l28.5 56.5l117 215h140zM384 789h-127l132 149h153z" />
    <glyph glyph-name="Ydieresis" unicode="&#x178;" horiz-adv-x="680" 
d="M401 278v-278h-136v278l-248 465h146l117 -215q14 -26 27.5 -56.5t24.5 -58.5h6q10 28 25.5 58.5l28.5 56.5l117 215h140zM401 803v124h110v-124h-110zM270 927v-124h-111v94q1 8 5 15q4 5 11 10t21 5h74z" />
    <glyph glyph-name="Zcaron" unicode="&#x17d;" horiz-adv-x="655" 
d="M53 0v127l366 498h-354v118h511v-128l-365 -498h377v-117h-535zM237 938l95 -91l96 91h121l-135 -149h-163l-135 149h121z" />
    <glyph glyph-name="aacute" unicode="&#xe1;" horiz-adv-x="591" 
d="M389 0v37q-26 -18 -72 -35t-106 -17q-79 0 -122 39.5t-43 121.5v21q0 56 19.5 89.5t54.5 51.5t84 23.5t108 5.5h67v35q0 30 -4 48.5t-17 29t-36 14.5t-60 4q-42 0 -86 -3t-91 -8v89q9 4 28.5 9t46 10t58.5 8.5t66 3.5q67 0 111 -12t70 -36.5t36 -63.5t10 -93v-372h-122z
M382 256h-70q-36 0 -62.5 -3t-43 -12t-24.5 -25.5t-8 -44.5v-24q0 -39 22 -52.5t57 -13.5q20 0 40 3.5t37 9t30.5 11t21.5 10.5v141zM337 626h-126l131 148h153z" />
    <glyph glyph-name="acircumflex" unicode="&#xe2;" horiz-adv-x="591" 
d="M389 0v37q-26 -18 -72 -35t-106 -17q-79 0 -122 39.5t-43 121.5v21q0 56 19.5 89.5t54.5 51.5t84 23.5t108 5.5h67v35q0 30 -4 48.5t-17 29t-36 14.5t-60 4q-42 0 -86 -3t-91 -8v89q9 4 28.5 9t46 10t58.5 8.5t66 3.5q67 0 111 -12t70 -36.5t36 -63.5t10 -93v-372h-122z
M382 256h-70q-36 0 -62.5 -3t-43 -12t-24.5 -25.5t-8 -44.5v-24q0 -39 22 -52.5t57 -13.5q20 0 40 3.5t37 9t30.5 11t21.5 10.5v141zM386 626l-96 90l-95 -90h-121l135 148h164l134 -148h-121z" />
    <glyph glyph-name="adieresis" unicode="&#xe4;" horiz-adv-x="591" 
d="M389 0v37q-26 -18 -72 -35t-106 -17q-79 0 -122 39.5t-43 121.5v21q0 56 19.5 89.5t54.5 51.5t84 23.5t108 5.5h67v35q0 30 -4 48.5t-17 29t-36 14.5t-60 4q-42 0 -86 -3t-91 -8v89q9 4 28.5 9t46 10t58.5 8.5t66 3.5q67 0 111 -12t70 -36.5t36 -63.5t10 -93v-372h-122z
M382 256h-70q-36 0 -62.5 -3t-43 -12t-24.5 -25.5t-8 -44.5v-24q0 -39 22 -52.5t57 -13.5q20 0 40 3.5t37 9t30.5 11t21.5 10.5v141zM357 644v124h110v-124h-110zM226 768v-124h-111v94q1 8 5 15q4 5 11 10t21 5h74z" />
    <glyph glyph-name="agrave" unicode="&#xe0;" horiz-adv-x="591" 
d="M389 0v37q-26 -18 -72 -35t-106 -17q-79 0 -122 39.5t-43 121.5v21q0 56 19.5 89.5t54.5 51.5t84 23.5t108 5.5h67v35q0 30 -4 48.5t-17 29t-36 14.5t-60 4q-42 0 -86 -3t-91 -8v89q9 4 28.5 9t46 10t58.5 8.5t66 3.5q67 0 111 -12t70 -36.5t36 -63.5t10 -93v-372h-122z
M382 256h-70q-36 0 -62.5 -3t-43 -12t-24.5 -25.5t-8 -44.5v-24q0 -39 22 -52.5t57 -13.5q20 0 40 3.5t37 9t30.5 11t21.5 10.5v141zM261 626l-158 148h153l132 -148h-127z" />
    <glyph glyph-name="aring" unicode="&#xe5;" horiz-adv-x="591" 
d="M389 0v37q-26 -18 -72 -35t-106 -17q-79 0 -122 39.5t-43 121.5v21q0 56 19.5 89.5t54.5 51.5t84 23.5t108 5.5h67v35q0 30 -4 48.5t-17 29t-36 14.5t-60 4q-42 0 -86 -3t-91 -8v89q9 4 28.5 9t46 10t58.5 8.5t66 3.5q67 0 111 -12t70 -36.5t36 -63.5t10 -93v-372h-122z
M382 256h-70q-36 0 -62.5 -3t-43 -12t-24.5 -25.5t-8 -44.5v-24q0 -39 22 -52.5t57 -13.5q20 0 40 3.5t37 9t30.5 11t21.5 10.5v141zM428 726q0 -59 -36.5 -88t-91.5 -29q-28 0 -52 7.5t-41.5 22t-27.5 36.5t-10 51q0 59 37.5 88t93.5 29q55 0 91.5 -28.5t36.5 -88.5z
M355 726q0 28 -16 39.5t-39 11.5q-24 0 -40 -11.5t-16 -39.5q0 -27 16 -38.5t40 -11.5q23 0 39 11.5t16 38.5z" />
    <glyph glyph-name="atilde" unicode="&#xe3;" horiz-adv-x="591" 
d="M389 0v37q-26 -18 -72 -35t-106 -17q-79 0 -122 39.5t-43 121.5v21q0 56 19.5 89.5t54.5 51.5t84 23.5t108 5.5h67v35q0 30 -4 48.5t-17 29t-36 14.5t-60 4q-42 0 -86 -3t-91 -8v89q9 4 28.5 9t46 10t58.5 8.5t66 3.5q67 0 111 -12t70 -36.5t36 -63.5t10 -93v-372h-122z
M382 256h-70q-36 0 -62.5 -3t-43 -12t-24.5 -25.5t-8 -44.5v-24q0 -39 22 -52.5t57 -13.5q20 0 40 3.5t37 9t30.5 11t21.5 10.5v141zM503 755q0 -134 -107 -134q-49 0 -104 35l-44 28q-17 12 -29 18t-26 6q-20 0 -26.5 -13.5t-6.5 -39.5v-28h-82v28q0 69 28.5 101t82.5 32
q27 0 48.5 -7.5t49.5 -24.5l45 -29q16 -11 29.5 -17.5t28.5 -6.5q20 0 26.5 13t6.5 39v27h80v-27z" />
    <glyph glyph-name="ccedilla" unicode="&#xe7;" horiz-adv-x="516" 
d="M462 6q-20 -5 -64.5 -13t-109.5 -8q-122 0 -179.5 66.5t-57.5 194.5v71q0 130 57.5 195t179.5 65q65 0 109.5 -7.5t64.5 -13.5v-100q-107 9 -151 9q-31 0 -54.5 -6t-40 -22.5t-25 -45t-8.5 -74.5v-71q0 -45 8.5 -74t25 -45.5t40 -23t54.5 -6.5q44 0 151 9v-100zM234 -206
h-126l110 141h149z" />
    <glyph glyph-name="eacute" unicode="&#xe9;" horiz-adv-x="622" 
d="M182 240v-10q0 -31 4 -56t19 -42.5t45 -27t82 -9.5q45 0 96 4t107 9v-99q-32 -8 -85 -16t-124 -8q-76 0 -128.5 15.5t-85 48.5t-47 85.5t-14.5 126.5v35q0 281 254 281q70 0 118.5 -21.5t78.5 -60.5t43.5 -93t13.5 -118v-44h-377zM427 335q0 24 -3.5 48.5t-16.5 44
t-37 31.5t-65 12q-40 0 -64 -12.5t-37 -32t-17 -43.5t-4 -48v-9h244v9zM360 626h-127l132 148h153z" />
    <glyph glyph-name="ecircumflex" unicode="&#xea;" horiz-adv-x="622" 
d="M182 240v-10q0 -31 4 -56t19 -42.5t45 -27t82 -9.5q45 0 96 4t107 9v-99q-32 -8 -85 -16t-124 -8q-76 0 -128.5 15.5t-85 48.5t-47 85.5t-14.5 126.5v35q0 281 254 281q70 0 118.5 -21.5t78.5 -60.5t43.5 -93t13.5 -118v-44h-377zM427 335q0 24 -3.5 48.5t-16.5 44
t-37 31.5t-65 12q-40 0 -64 -12.5t-37 -32t-17 -43.5t-4 -48v-9h244v9zM403 626l-96 90l-95 -90h-122l135 148h164l135 -148h-121z" />
    <glyph glyph-name="edieresis" unicode="&#xeb;" horiz-adv-x="622" 
d="M182 240v-10q0 -31 4 -56t19 -42.5t45 -27t82 -9.5q45 0 96 4t107 9v-99q-32 -8 -85 -16t-124 -8q-76 0 -128.5 15.5t-85 48.5t-47 85.5t-14.5 126.5v35q0 281 254 281q70 0 118.5 -21.5t78.5 -60.5t43.5 -93t13.5 -118v-44h-377zM427 335q0 24 -3.5 48.5t-16.5 44
t-37 31.5t-65 12q-40 0 -64 -12.5t-37 -32t-17 -43.5t-4 -48v-9h244v9zM370 644v124h110v-124h-110zM239 768v-124h-111v94q1 8 5 15q4 5 11 10t21 5h74z" />
    <glyph glyph-name="egrave" unicode="&#xe8;" horiz-adv-x="622" 
d="M182 240v-10q0 -31 4 -56t19 -42.5t45 -27t82 -9.5q45 0 96 4t107 9v-99q-32 -8 -85 -16t-124 -8q-76 0 -128.5 15.5t-85 48.5t-47 85.5t-14.5 126.5v35q0 281 254 281q70 0 118.5 -21.5t78.5 -60.5t43.5 -93t13.5 -118v-44h-377zM427 335q0 24 -3.5 48.5t-16.5 44
t-37 31.5t-65 12q-40 0 -64 -12.5t-37 -32t-17 -43.5t-4 -48v-9h244v9zM286 626l-159 148h154l131 -148h-126z" />
    <glyph glyph-name="iacute" unicode="&#xed;" horiz-adv-x="301" 
d="M77 0v563h133v-563h-133zM175 626h-127l132 148h153z" />
    <glyph glyph-name="icircumflex" unicode="&#xee;" horiz-adv-x="301" 
d="M77 0v563h133v-563h-133zM239 626l-95 90l-96 -90h-121l135 148h164l135 -148h-122z" />
    <glyph glyph-name="idieresis" unicode="&#xef;" horiz-adv-x="301" 
d="M77 0v563h133v-563h-133zM208 645v124h111v-124h-111zM78 769v-124h-112v94q1 8 5 15q4 5 11 10t21 5h75z" />
    <glyph glyph-name="igrave" unicode="&#xec;" horiz-adv-x="301" 
d="M77 0v563h133v-563h-133zM111 626l-159 148h154l131 -148h-126z" />
    <glyph glyph-name="ntilde" unicode="&#xf1;" horiz-adv-x="648" 
d="M431 0v357q0 30 -3 51t-12 34t-24.5 18.5t-39.5 5.5q-29 0 -66 -10t-82 -28v-428h-131v563h126v-45q46 26 91.5 42.5t93.5 16.5q60 0 95.5 -16.5t54 -45.5t24.5 -69.5t6 -88.5v-357h-133zM529 755q0 -134 -108 -134q-49 0 -103 35l-44 28q-17 12 -29.5 18t-26.5 6
q-20 0 -26.5 -13.5t-6.5 -39.5v-28h-82v28q0 69 29 101t83 32q26 0 47.5 -7.5t49.5 -24.5l45 -29q17 -11 30 -17.5t28 -6.5q20 0 26.5 13t6.5 39v27h81v-27z" />
    <glyph glyph-name="oacute" unicode="&#xf3;" horiz-adv-x="624" 
d="M559 247q0 -134 -65 -198t-189 -64t-189 64t-65 198v69q0 133 65.5 197t188.5 64t188.5 -64t65.5 -197v-69zM428 316q0 81 -29 114.5t-94 33.5q-64 0 -93.5 -33.5t-29.5 -114.5v-69q0 -81 29 -115t94 -34t94 34t29 115v69zM343 626h-126l131 148h154z" />
    <glyph glyph-name="ocircumflex" unicode="&#xf4;" horiz-adv-x="624" 
d="M559 247q0 -134 -65 -198t-189 -64t-189 64t-65 198v69q0 133 65.5 197t188.5 64t188.5 -64t65.5 -197v-69zM428 316q0 81 -29 114.5t-94 33.5q-64 0 -93.5 -33.5t-29.5 -114.5v-69q0 -81 29 -115t94 -34t94 34t29 115v69zM401 626l-96 90l-95 -90h-122l135 148h164
l135 -148h-121z" />
    <glyph glyph-name="odieresis" unicode="&#xf6;" horiz-adv-x="624" 
d="M559 247q0 -134 -65 -198t-189 -64t-189 64t-65 198v69q0 133 65.5 197t188.5 64t188.5 -64t65.5 -197v-69zM428 316q0 81 -29 114.5t-94 33.5q-64 0 -93.5 -33.5t-29.5 -114.5v-69q0 -81 29 -115t94 -34t94 34t29 115v69zM371 645v124h111v-124h-111zM241 769v-124h-112
v94q1 8 5 15q4 5 11 10t21 5h75z" />
    <glyph glyph-name="ograve" unicode="&#xf2;" horiz-adv-x="624" 
d="M559 247q0 -134 -65 -198t-189 -64t-189 64t-65 198v69q0 133 65.5 197t188.5 64t188.5 -64t65.5 -197v-69zM428 316q0 81 -29 114.5t-94 33.5q-64 0 -93.5 -33.5t-29.5 -114.5v-69q0 -81 29 -115t94 -34t94 34t29 115v69zM274 626l-158 148h153l132 -148h-127z" />
    <glyph glyph-name="otilde" unicode="&#xf5;" horiz-adv-x="624" 
d="M559 247q0 -134 -65 -198t-189 -64t-189 64t-65 198v69q0 133 65.5 197t188.5 64t188.5 -64t65.5 -197v-69zM428 316q0 81 -29 114.5t-94 33.5q-64 0 -93.5 -33.5t-29.5 -114.5v-69q0 -81 29 -115t94 -34t94 34t29 115v69zM518 755q0 -134 -108 -134q-26 0 -50 8.5
t-53 26.5l-44 28q-17 12 -29.5 18t-26.5 6q-20 0 -26.5 -13.5t-6.5 -39.5v-28h-82v28q0 69 29 101t83 32q27 0 48 -7.5t50 -24.5l44 -29q17 -11 30 -17.5t28 -6.5q20 0 26.5 13t6.5 39v27h81v-27z" />
    <glyph glyph-name="scaron" unicode="&#x161;" horiz-adv-x="526" 
d="M164 774l96 -91l95 91h122l-135 -148h-164l-135 148h121zM474 156q0 -80 -55 -125t-173 -45q-29 0 -59.5 2.5t-56.5 5.5t-46.5 7t-29.5 7v94q11 -1 31 -3l45.5 -4.5t54 -4t55.5 -1.5q61 0 82.5 14.5t21.5 44.5q0 15 -4 25t-15 18.5t-30.5 17.5t-50.5 21l-43 17
q-80 31 -117.5 71.5t-37.5 105.5q0 85 56 119t169 34q24 0 50.5 -2t51 -5.5t44 -7.5t30.5 -7v-92q-48 5 -92.5 7.5t-81.5 2.5q-51 0 -74 -8t-23 -38q0 -14 4 -23t14.5 -17t27.5 -15.5t43 -17.5l45 -18q45 -18 76.5 -35.5t50.5 -38t28 -46t9 -60.5z" />
    <glyph glyph-name="uacute" unicode="&#xfa;" horiz-adv-x="649" 
d="M435 0v45q-51 -27 -98.5 -43.5t-96.5 -16.5q-55 0 -88.5 18t-51.5 48.5t-23.5 70t-5.5 83.5v358h131v-358q0 -30 3.5 -51t12.5 -33.5t24.5 -18.5t40.5 -6q29 0 65.5 10.5t81.5 27.5v429h132v-563h-127zM366 626h-127l132 148h153z" />
    <glyph glyph-name="ucircumflex" unicode="&#xfb;" horiz-adv-x="649" 
d="M435 0v45q-51 -27 -98.5 -43.5t-96.5 -16.5q-55 0 -88.5 18t-51.5 48.5t-23.5 70t-5.5 83.5v358h131v-358q0 -30 3.5 -51t12.5 -33.5t24.5 -18.5t40.5 -6q29 0 65.5 10.5t81.5 27.5v429h132v-563h-127zM414 626l-96 90l-95 -90h-121l135 148h163l135 -148h-121z" />
    <glyph glyph-name="udieresis" unicode="&#xfc;" horiz-adv-x="649" 
d="M435 0v45q-51 -27 -98.5 -43.5t-96.5 -16.5q-55 0 -88.5 18t-51.5 48.5t-23.5 70t-5.5 83.5v358h131v-358q0 -30 3.5 -51t12.5 -33.5t24.5 -18.5t40.5 -6q29 0 65.5 10.5t81.5 27.5v429h132v-563h-127zM384 644v124h110v-124h-110zM253 768v-124h-111v94q1 8 5 15
q4 5 11 10t21 5h74z" />
    <glyph glyph-name="ugrave" unicode="&#xf9;" horiz-adv-x="649" 
d="M435 0v45q-51 -27 -98.5 -43.5t-96.5 -16.5q-55 0 -88.5 18t-51.5 48.5t-23.5 70t-5.5 83.5v358h131v-358q0 -30 3.5 -51t12.5 -33.5t24.5 -18.5t40.5 -6q29 0 65.5 10.5t81.5 27.5v429h132v-563h-127zM280 626l-158 148h153l131 -148h-126z" />
    <glyph glyph-name="yacute" unicode="&#xfd;" horiz-adv-x="599" 
d="M369 -21q-15 -51 -32.5 -88t-41.5 -61.5t-57.5 -36.5t-79.5 -12q-41 0 -76.5 3.5t-57.5 8.5v96q34 -2 57 -3t49 -1q18 0 30.5 4.5t22 14.5t17.5 26t17 39l13 35l-210 559h143l98 -299q11 -38 19.5 -73l19.5 -77h2q9 42 17.5 77t19.5 73l89 299h137zM347 626h-126l131 148
h154z" />
    <glyph glyph-name="ydieresis" unicode="&#xff;" horiz-adv-x="599" 
d="M369 -21q-17 -50 -34.5 -87t-41.5 -62t-56.5 -37t-78.5 -12q-41 0 -76.5 3.5t-57.5 8.5v96q34 -2 57 -3t49 -1q18 0 30.5 4.5t22 14.5t17.5 26t17 39l13 35l-210 559h143l98 -299q12 -38 20 -73t19 -77h2q9 42 17.5 77t19.5 73l89 299h137zM367 644v124h111v-124h-111z
M237 768v-124h-111v94q1 8 5 15q4 5 11 10t21 5h74z" />
    <glyph glyph-name="zcaron" unicode="&#x17e;" horiz-adv-x="532" 
d="M40 0v118l287 338h-276v107h422v-116l-289 -342h290v-105h-434zM179 774l96 -91l95 91h122l-135 -148h-164l-135 148h121z" />
    <glyph glyph-name="dollar.oldstyle" horiz-adv-x="562" 
d="M68 105q27 -1 75 -3.5t113 -2.5q54 0 77.5 16t23.5 48q0 13 -3.5 23t-12.5 19t-25.5 18t-41.5 20l-82 35q-34 15 -60 31.5t-43.5 38t-26.5 49t-9 64.5q0 141 166 163v98h112v-94q47 -3 87.5 -9.5t60.5 -11.5v-98q-16 1 -38 3t-47.5 3.5t-52 2.5t-51.5 1q-48 0 -75 -10.5
t-27 -42.5q0 -12 3 -21.5t11 -18.5t22.5 -18t37.5 -18l81 -34q39 -17 67.5 -34t47 -38.5t27.5 -49.5t9 -65q0 -74 -41 -119t-122 -57v-105h-112v100q-46 2 -87.5 7.5t-63.5 11.5v98z" />
    <glyph glyph-name="dollar.superior" horiz-adv-x="441" 
d="M57 419q22 -2 59.5 -4.5t82.5 -2.5q44 0 61 12t17 35q0 17 -12.5 28.5t-44.5 24.5l-67 26q-49 19 -78 48.5t-29 83.5q0 104 124 120v78h92v-75q35 -2 64.5 -6.5t42.5 -7.5v-76q-36 3 -76 6t-66 3q-36 0 -57 -9t-21 -31q0 -17 11.5 -28.5t43.5 -22.5l67 -23q54 -19 83 -50
t29 -82q0 -57 -32 -90.5t-89 -42.5v-81h-92v78q-35 1 -65 5t-48 8v76z" />
    <glyph glyph-name="parenleft.superior" unicode="&#x207d;" horiz-adv-x="299" 
d="M145 223q-14 18 -29 44.5t-27.5 60t-20.5 73t-8 84.5v5q0 45 8 84.5t20.5 73t27.5 60.5t29 46h95q-33 -50 -56.5 -115t-23.5 -149v-5q0 -85 23.5 -149.5t56.5 -112.5h-95z" />
    <glyph glyph-name="parenright.superior" unicode="&#x207e;" horiz-adv-x="299" 
d="M224 485q0 -45 -8 -84.5t-20.5 -73t-27.5 -60t-29 -44.5h-95q34 48 57 112.5t23 149.5v5q0 84 -23 149t-57 115h95q14 -19 29 -46t27.5 -60.5t20.5 -73t8 -84.5v-5v0z" />
    <glyph glyph-name="twodotenleader" unicode="&#x2025;" horiz-adv-x="530" 
d="M447 0h-132v154h132v-154zM202 154v-154h-133v124q1 8 5 15q4 5 11 10t21 5h96z" />
    <glyph glyph-name="onedotenleader" unicode="&#x2024;" horiz-adv-x="285" 
d="M202 154v-154h-133v124q1 8 5 15q4 5 11 10t21 5h96z" />
    <glyph glyph-name="zero.oldstyle" horiz-adv-x="686" 
d="M618 273q0 -142 -71 -215t-211 -73q-139 0 -210.5 73t-71.5 215v39q0 142 71.5 215t210.5 73q140 0 211 -73t71 -215v-39zM479 312q0 48 -10.5 81t-29.5 53.5t-45.5 29t-57.5 8.5q-32 0 -58 -8.5t-44.5 -29t-29 -53.5t-10.5 -81v-39q0 -48 10.5 -80.5t29 -53t44.5 -29
t58 -8.5q31 0 57.5 8.5t45.5 29t29.5 53t10.5 80.5v39z" />
    <glyph glyph-name="one.oldstyle" horiz-adv-x="562" 
d="M48 0v109l160 7v335l-161 -53v123l198 71h101v-476l154 -7v-109h-452z" />
    <glyph glyph-name="two.oldstyle" horiz-adv-x="634" 
d="M66 573q21 6 49 10.5t58.5 8.5t62 6t58.5 2q77 0 129.5 -11t84.5 -32.5t46 -54t14 -74.5q0 -39 -11 -70t-37 -60t-70.5 -60t-110.5 -70l-86 -51h307v-117h-504v117l178 106q61 36 99 63t59 49t28 41.5t7 40.5q0 39 -34.5 55.5t-117.5 16.5q-21 0 -48.5 -1.5t-56 -3.5
t-56 -4.5l-48.5 -4.5v98z" />
    <glyph glyph-name="three.oldstyle" horiz-adv-x="638" 
d="M553 46q0 -61 -18 -102.5t-53 -67.5t-87 -37.5t-120 -11.5q-34 0 -68 3t-64.5 7.5t-55 10t-37.5 9.5v97q16 -2 40.5 -4.5t53 -4.5t60 -3.5t61.5 -1.5q37 0 65 4.5t47 16.5t28 33.5t9 56.5v20q0 22 -4 40.5t-16 31.5t-35 20.5t-62 7.5h-209v105h209q39 0 62 8t35 22
t16 32.5t4 40.5v11q0 28 -7 47t-24 30t-46 15.5t-73 4.5q-59 0 -114.5 -3.5t-97.5 -8.5v97q9 3 32.5 8t54.5 9.5t66.5 7.5t69.5 3q68 0 120 -10t87 -33.5t53 -62t18 -95.5v-12q0 -50 -20 -93.5t-69 -68.5q50 -25 69.5 -67.5t19.5 -90.5v-21v0z" />
    <glyph glyph-name="four.oldstyle" horiz-adv-x="698" 
d="M528 23v-179h-140v179h-346v116l354 448h132v-454h105v-110h-105zM393 418l-231 -285h231v285z" />
    <glyph glyph-name="five.oldstyle" horiz-adv-x="627" 
d="M559 50q0 -63 -19 -107t-55.5 -71.5t-89.5 -40t-121 -12.5q-38 0 -74 3t-65.5 7.5t-52 9t-33.5 7.5v100q16 -2 39.5 -4.5t50.5 -4.5l56.5 -4t58.5 -2q46 0 77.5 6t51 19.5t28.5 36t9 56.5v23q0 31 -7 52t-25.5 34t-50.5 18.5t-81 5.5h-196l33 396h441v-115h-327l-16 -172
h86q78 0 131.5 -12.5t87 -39t48.5 -68t15 -98.5v-23v0z" />
    <glyph glyph-name="six.oldstyle" horiz-adv-x="674" 
d="M605 226q0 -73 -25.5 -120t-64.5 -74t-87 -37.5t-93 -10.5q-63 0 -115 14t-89 48.5t-57.5 93t-20.5 147.5v176q0 70 13.5 125t47 92.5t89.5 57.5t142 20q36 0 71 -3t65 -7t53.5 -8.5t36.5 -7.5v-100q-42 5 -98.5 9t-115.5 4q-57 0 -89.5 -11t-49.5 -32t-21.5 -52
t-4.5 -70v-29q16 4 35.5 7.5t40.5 5.5t41 3.5t36 1.5q52 0 99.5 -7.5t83 -30t56.5 -63t21 -106.5v-36zM467 258q0 36 -8.5 58t-25.5 34t-42 16t-58 4q-26 0 -64.5 -3t-76.5 -11v-90q0 -52 9.5 -85.5t28 -53t45.5 -27t61 -7.5q27 0 51 7.5t42 23.5t28 41.5t10 60.5v32z" />
    <glyph glyph-name="seven.oldstyle" horiz-adv-x="621" 
d="M240 -155h-150l341 628h-384v115h519v-129z" />
    <glyph glyph-name="eight.oldstyle" horiz-adv-x="699" 
d="M627 213q0 -79 -24 -124.5t-63.5 -69t-90.5 -29.5t-105 -6h-4q-54 0 -105 6t-90.5 29.5t-63.5 69t-24 124.5v8q0 60 20 98.5t61 64.5q-36 23 -57.5 60.5t-21.5 96.5v10q0 65 23 105.5t62 63t90 30.5t106 8h4q55 0 105.5 -8t89.5 -30.5t62 -63t23 -105.5v-10
q0 -59 -21 -96.5t-57 -60.5q41 -26 61 -64.5t20 -98.5v-8zM489 222q0 59 -19.5 85.5t-72.5 26.5h-110q-53 0 -72.5 -27t-19.5 -85v-7q0 -41 10.5 -65.5t29.5 -38t45.5 -17.5t59.5 -4h4q33 0 59.5 4t45.5 17.5t29.5 38t10.5 65.5v7zM487 548q0 32 -10.5 52t-29.5 31.5
t-45.5 15.5t-57.5 4h-4q-32 0 -58.5 -4t-45.5 -15.5t-29.5 -31.5t-10.5 -52v-10q0 -48 19 -75t72 -27h110q53 0 71.5 27t18.5 75v10z" />
    <glyph glyph-name="nine.oldstyle" horiz-adv-x="674" 
d="M597 123q0 -70 -13.5 -125t-46.5 -93t-89 -58t-142 -20q-36 0 -71 3t-65 6.5t-53.5 8t-36.5 7.5v100q18 -2 43 -4t53.5 -4t59 -3.5t60.5 -1.5q56 0 88.5 11t49 32.5t21 52t4.5 69.5v29q-16 -4 -35.5 -7.5t-40.5 -5.5t-41 -3.5t-36 -1.5q-53 0 -100 8t-83 30.5t-57 63
t-21 106.5v35q0 72 25.5 119t64.5 74.5t87 38t93 10.5q63 0 115 -13.5t89 -48t57.5 -92.5t20.5 -146v-177zM459 318q0 52 -9.5 85.5t-28 53t-45.5 27t-61 7.5q-27 0 -51 -7.5t-42 -23.5t-28.5 -41.5t-10.5 -60.5v-32q0 -36 9 -58t26 -34t42 -16t58 -4q26 0 64.5 3.5
t76.5 11.5v89z" />
    <glyph glyph-name="comma.superior" horiz-adv-x="268" 
d="M128 277h-81l54 155h100z" />
    <glyph glyph-name="period.superior" horiz-adv-x="224" 
d="M154 432v-96h-98v66q1 8 5 15q4 5 11 10t21 5h61z" />
    <glyph glyph-name="a.superior" horiz-adv-x="430" 
d="M265 306v24q-17 -11 -46.5 -21.5t-68.5 -10.5q-51 0 -79 23.5t-28 74.5v12q0 36 13 56.5t36.5 31t55.5 13t70 2.5h39v19q0 17 -2.5 27.5t-10 16.5t-21 8t-36.5 2q-25 0 -58.5 -1t-58.5 -3v58q13 5 51.5 13t84.5 8q43 0 72 -7t46.5 -23t25 -40.5t7.5 -59.5v-223h-92z
M261 459h-42q-42 0 -61 -8t-19 -40v-11q0 -23 13 -30.5t33 -7.5q24 0 45.5 6.5t30.5 11.5v79z" />
    <glyph glyph-name="b.superior" horiz-adv-x="448" 
d="M159 779v-132q17 8 37.5 11t40.5 3q80 0 118 -39t38 -122v-35q0 -92 -46 -129.5t-132 -37.5q-19 0 -36 0.5t-35 1.5t-38.5 3t-46.5 5v471h100zM293 500q0 47 -15 64.5t-53 17.5q-11 0 -31.5 -2t-35.5 -10v-191q9 -2 24.5 -2.5t33.5 -0.5q41 0 59 18.5t18 70.5v35z" />
    <glyph glyph-name="cent.superior" horiz-adv-x="409" 
d="M350 340q-13 -4 -36 -7t-48 -4v-77h-89v83q-61 14 -96.5 62t-35.5 142v44q0 88 32.5 139t99.5 65v78h89v-72q25 -2 48 -5t36 -6v-84q-24 2 -51 3.5t-49 1.5q-56 0 -77 -27t-21 -93v-44q0 -32 4 -55t15 -37.5t30 -21t49 -6.5q27 0 54.5 1.5t45.5 3.5v-84v0z" />
    <glyph glyph-name="d.superior" horiz-adv-x="448" 
d="M283 306v19q-18 -11 -44.5 -19.5t-58.5 -8.5q-65 0 -102 39t-37 123v36q0 46 11.5 77.5t32.5 50.5t51 27.5t67 8.5q21 0 38 -2l34 -4v124h100v-471h-92zM277 575q-17 3 -34 4.5t-28 1.5q-18 0 -32 -3t-23 -12.5t-14 -26.5t-5 -44v-36q0 -46 15.5 -65t53.5 -19
q18 0 35.5 4t31.5 10v186z" />
    <glyph glyph-name="e.superior" horiz-adv-x="438" 
d="M140 450q0 -17 2 -31.5t11 -25.5t27.5 -17t50.5 -6t68 2t67 7v-68q-20 -5 -59.5 -9.5t-84.5 -4.5q-54 0 -89.5 12.5t-55.5 34.5t-28 52t-8 66v29q0 86 45 127t126 41q48 0 81 -14t53 -38t28.5 -55.5t8.5 -65.5v-36h-243zM284 511q0 14 -2 27.5t-9.5 24.5t-21.5 17.5
t-38 6.5t-38 -7t-21.5 -18t-10.5 -26t-3 -30h144v5z" />
    <glyph glyph-name="i.superior" unicode="&#x2071;" horiz-adv-x="236" 
d="M162 650v-344h-100v344h100zM59 698v79h104v-79h-104z" />
    <glyph glyph-name="l.superior" horiz-adv-x="232" 
d="M59 306v471h100v-471h-100z" />
    <glyph glyph-name="m.superior" horiz-adv-x="650" 
d="M153 621q23 17 51 27.5t60 10.5q34 0 53.5 -10.5t31.5 -28.5q32 21 61 30t54 9q38 0 60.5 -11t34 -29t15 -41.5t3.5 -49.5v-222h-101v220q0 13 -0.5 23.5t-4.5 17.5t-12.5 11t-23.5 4t-33.5 -5t-35.5 -14q2 -10 2 -19.5v-17.5v-220h-100v220q0 26 -5 41t-34 15
q-18 0 -37 -6.5t-33 -13.5v-256h-100v344h94v-29v0z" />
    <glyph glyph-name="n.superior" unicode="&#x207f;" horiz-adv-x="466" 
d="M293 306v212q0 35 -9.5 49t-38.5 14q-18 0 -40 -6t-45 -15v-254h-101v344h96v-26q29 16 59 25.5t59 9.5q40 0 64 -11.5t36.5 -30.5t16 -44t3.5 -53v-214h-100z" />
    <glyph glyph-name="o.superior" horiz-adv-x="439" 
d="M384 461q0 -85 -45 -124.5t-127 -39.5t-126.5 39.5t-44.5 124.5v34q0 85 44.5 124.5t126.5 39.5t127 -39.5t45 -124.5v-34zM284 495q0 47 -17 66.5t-55 19.5t-55 -19.5t-17 -66.5v-34q0 -47 17 -66.5t55 -19.5t55 19.5t17 66.5v34z" />
    <glyph glyph-name="r.superior" horiz-adv-x="326" 
d="M59 306v344h93v-29q26 23 58 30.5t64 7.5v-86q-32 0 -63 -5t-52 -13v-249h-100z" />
    <glyph glyph-name="s.superior" horiz-adv-x="390" 
d="M333 402q0 -51 -35.5 -78.5t-119.5 -27.5q-19 0 -39 1.5t-37.5 4l-31.5 4.5t-21 4v62q19 -2 54 -4.5t70 -2.5q36 0 48.5 8t12.5 25q0 15 -11 24t-47 21l-28 9q-52 17 -78.5 41.5t-26.5 67.5q0 57 38.5 77.5t107.5 20.5q19 0 39 -1t38 -3t32 -4.5t22 -5.5v-59q-11 0 -26 1
l-31.5 2t-33.5 1.5t-30 0.5q-31 0 -44 -5t-13 -22q0 -14 10 -21t40 -18l31 -11q30 -11 51 -22t34 -23.5t19 -29t6 -37.5z" />
    <glyph glyph-name="t.superior" horiz-adv-x="345" 
d="M291 307q-7 -2 -29.5 -6t-48.5 -4q-57 0 -81.5 24.5t-24.5 82.5v175l-67 6v65h67v85h100v-85h84v-71h-84v-174q0 -24 4.5 -31.5t26.5 -7.5q14 0 29.5 0.5t23.5 1.5v-61v0z" />
    <glyph glyph-name="parenleft.inferior" unicode="&#x208d;" horiz-adv-x="299" 
d="M145 -239q-14 18 -29 44.5t-27.5 60t-20.5 73t-8 84.5v5q0 45 8 84.5t20.5 73t27.5 60.5t29 46h95q-33 -50 -56.5 -115t-23.5 -149v-5q0 -85 23.5 -149.5t56.5 -112.5h-95z" />
    <glyph glyph-name="parenright.inferior" unicode="&#x208e;" horiz-adv-x="299" 
d="M224 23q0 -45 -8 -84.5t-20.5 -73t-27.5 -60t-29 -44.5h-95q34 48 57 112.5t23 149.5v5q0 84 -23 149t-57 115h95q14 -19 29 -46t27.5 -60.5t20.5 -73t8 -84.5v-5v0z" />
    <glyph glyph-name="hyphen.superior" horiz-adv-x="268" 
d="M52 498v78h149v-78h-149z" />
    <glyph glyph-name="colonmonetary" unicode="&#x20a1;" horiz-adv-x="522" 
d="M468 456q-22 2 -64.5 5.5t-86.5 3.5q-30 0 -54 -6t-40.5 -22t-25 -45t-8.5 -74v-73q0 -45 8.5 -73.5t25 -45t40.5 -23t54 -6.5q26 0 64.5 2t86.5 6v-99q-17 -5 -60 -11v-109h-84v100q-8 -1 -14 -1h-12q-14 0 -23.5 0.5t-18.5 2.5v-102h-84v125q-114 58 -114 234v73
q0 175 114 233v129h84v-106q18 3 45 3h23v103h84v-112q23 -3 38 -6.5t22 -5.5v-100z" />
    <glyph glyph-name="cent.oldstyle" horiz-adv-x="552" 
d="M478 482q-37 2 -71 3.5t-71 1.5t-63.5 -7.5t-43.5 -25.5t-25 -47.5t-8 -73.5v-78q0 -44 8 -73.5t25 -47.5t43.5 -25.5t63.5 -7.5q38 0 75 1.5t67 4.5v-103q-20 -5 -53 -9t-65 -6v-104h-111v108q-97 18 -143 83t-46 179v78q0 113 46 178t143 83v103h111v-98q32 -2 65 -6
t53 -9v-102z" />
    <glyph glyph-name="figuredash" unicode="&#x2012;" horiz-adv-x="734" 
d="M66 236v99h588v-99h-588z" />
    <glyph glyph-name="hyphen.inferior" horiz-adv-x="268" 
d="M201 80v-78h-149v48q1 8 5 15q4 5 11 10t21 5h112z" />
    <glyph glyph-name="oneeighth" unicode="&#x215b;" horiz-adv-x="1085" 
d="M318 0h-118l484 744h119zM1016 128q0 -47 -15.5 -74.5t-41.5 -41.5t-60.5 -18t-72.5 -4q-37 0 -70.5 4t-59.5 18t-41.5 41.5t-15.5 74.5v5q0 67 50 97q-23 16 -36 38.5t-13 57.5v6q0 39 15 63.5t41 38t60.5 18t72.5 4.5q37 0 70.5 -4.5t59 -18t40.5 -38t15 -63.5v-6
q0 -35 -13 -57.5t-36 -38.5q51 -30 51 -97v-5zM913 130q0 36 -11 51.5t-42 15.5h-65q-31 0 -42 -15.5t-11 -51.5q0 -44 23.5 -56t63.5 -12q19 0 34.5 2.5t26.5 9.5t17 20.5t6 35.5zM911 322q0 39 -23 50.5t-62 11.5q-37 0 -60 -11.5t-23 -50.5q0 -26 10.5 -41t41.5 -15h65
q31 0 41 15t10 41zM69 302v75l92 4v270l-93 -29v85l123 44h76v-370l92 -4v-75h-290z" />
    <glyph glyph-name="threeeighths" unicode="&#x215c;" horiz-adv-x="1119" 
d="M345 0h-119l485 744h119zM208 292q-23 0 -46.5 2t-44.5 4.5t-36.5 5.5t-22.5 6v67q9 -1 25 -2t35.5 -2l40.5 -2t39 -1q45 0 66 11.5t21 49.5v9q0 12 -2.5 22t-10 17t-21.5 11t-38 4h-131v73h132q24 0 38 4t21.5 11.5t9.5 17.5t2 22v6q0 30 -18 41t-69 11q-38 0 -77 -2.5
t-63 -4.5v67q7 3 23 6t36.5 5.5t44 4.5t46.5 2q88 0 135 -26.5t47 -95.5v-7q0 -29 -12.5 -56t-43.5 -42q32 -14 44 -40t12 -55v-9q0 -73 -45 -104t-137 -31zM1047 128q0 -47 -15.5 -74.5t-41.5 -41.5t-60.5 -18t-72.5 -4q-37 0 -70.5 4t-59.5 18t-41.5 41.5t-15.5 74.5v5
q0 67 50 97q-23 16 -36 38.5t-13 57.5v6q0 39 15 63.5t41 38t60.5 18t72.5 4.5q37 0 70.5 -4.5t59 -18t40.5 -38t15 -63.5v-6q0 -35 -13 -57.5t-36 -38.5q51 -30 51 -97v-5zM944 130q0 36 -11 51.5t-42 15.5h-65q-31 0 -42 -15.5t-11 -51.5q0 -44 23.5 -56t63.5 -12
q19 0 34.5 2.5t26.5 9.5t17 20.5t6 35.5zM942 322q0 39 -23 50.5t-62 11.5q-37 0 -60 -11.5t-23 -50.5q0 -26 10.5 -41t41.5 -15h65q31 0 41 15t10 41z" />
    <glyph glyph-name="fiveeighths" unicode="&#x215d;" horiz-adv-x="1122" 
d="M347 0h-119l485 744h119zM1050 128q0 -47 -15.5 -74.5t-41.5 -41.5t-60.5 -18t-72.5 -4q-37 0 -70.5 4t-59.5 18t-41.5 41.5t-15.5 74.5v5q0 67 50 97q-23 16 -36 38.5t-13 57.5v6q0 39 15 63.5t41 38t60.5 18t72.5 4.5q37 0 70.5 -4.5t59 -18t40.5 -38t15 -63.5v-6
q0 -35 -13 -57.5t-36 -38.5q51 -30 51 -97v-5zM947 130q0 36 -11 51.5t-42 15.5h-65q-31 0 -42 -15.5t-11 -51.5q0 -44 23.5 -56t63.5 -12q19 0 34.5 2.5t26.5 9.5t17 20.5t6 35.5zM945 322q0 39 -23 50.5t-62 11.5q-37 0 -60 -11.5t-23 -50.5q0 -26 10.5 -41t41.5 -15h65
q31 0 41 15t10 41zM168 670l-10 -92h52q100 0 141.5 -30.5t41.5 -101.5v-10q0 -79 -49.5 -111.5t-136.5 -32.5q-51 0 -92.5 6.5t-58.5 10.5v69l66 -6t66 -3q55 0 76.5 14.5t21.5 50.5v11q0 17 -4 28t-15 18t-29.5 9.5t-46.5 2.5h-130l22 246h294v-79h-209z" />
    <glyph glyph-name="seveneighths" unicode="&#x215e;" horiz-adv-x="1032" 
d="M257 0h-119l485 744h119zM960 128q0 -47 -15.5 -74.5t-41.5 -41.5t-60.5 -18t-72.5 -4q-37 0 -70.5 4t-59.5 18t-41.5 41.5t-15.5 74.5v5q0 67 50 97q-23 16 -36 38.5t-13 57.5v6q0 39 15 63.5t41 38t60.5 18t72.5 4.5q37 0 70.5 -4.5t59 -18t40.5 -38t15 -63.5v-6
q0 -35 -13 -57.5t-36 -38.5q51 -30 51 -97v-5zM857 130q0 36 -11 51.5t-42 15.5h-65q-31 0 -42 -15.5t-11 -51.5q0 -44 23.5 -56t63.5 -12q19 0 34.5 2.5t26.5 9.5t17 20.5t6 35.5zM855 322q0 39 -23 50.5t-62 11.5q-37 0 -60 -11.5t-23 -50.5q0 -26 10.5 -41t41.5 -15h65
q31 0 41 15t10 41zM60 749h336v-88l-206 -359h-112l214 368h-232v79z" />
    <glyph glyph-name="onethird" unicode="&#x2153;" horiz-adv-x="1073" 
d="M318 0h-118l484 744h119zM69 302v75l92 4v270l-93 -29v85l123 44h76v-370l92 -4v-75h-290zM835 -10q-23 0 -46.5 2t-44.5 4.5t-36.5 5.5t-22.5 6v67q9 -1 25 -2t35.5 -2l40.5 -2t39 -1q45 0 66 11.5t21 49.5v9q0 12 -2.5 22t-10 17t-21.5 11t-38 4h-131v73h132q24 0 38 4
t21.5 11.5t9.5 17.5t2 22v6q0 30 -18 41t-69 11q-38 0 -77 -2.5t-63 -4.5v67q7 3 23 6t36.5 5.5t44 4.5t46.5 2q88 0 135 -26.5t47 -95.5v-7q0 -29 -12.5 -56t-43.5 -42q32 -14 44 -40t12 -55v-9q0 -73 -45 -104t-137 -31z" />
    <glyph glyph-name="twothirds" unicode="&#x2154;" horiz-adv-x="1140" 
d="M372 0h-119l486 744h119zM880 -10q-23 0 -46.5 2t-44.5 4.5t-36.5 5.5t-22.5 6v67q9 -1 25 -2t35.5 -2l40.5 -2t39 -1q45 0 66 11.5t21 49.5v9q0 12 -2.5 22t-10 17t-21.5 11t-38 4h-131v73h132q24 0 38 4t21.5 11.5t9.5 17.5t2 22v6q0 30 -18 41t-69 11q-38 0 -77 -2.5
t-63 -4.5v67q7 3 23 6t36.5 5.5t44 4.5t46.5 2q88 0 135 -26.5t47 -95.5v-7q0 -29 -12.5 -56t-43.5 -42q32 -14 44 -40t12 -55v-9q0 -73 -45 -104t-137 -31zM62 741q10 3 27.5 6t39 5.5t45 4t45.5 1.5q90 0 132.5 -27.5t42.5 -88.5q0 -23 -6.5 -42t-22 -36t-40 -33
t-60.5 -32q-35 -16 -55.5 -28t-32 -24t-15 -25.5t-3.5 -33.5v-5h227v-81h-331v55q0 41 7.5 70.5t24.5 52t44.5 41t66.5 37.5q30 15 48 25t27.5 19t12 17.5t2.5 19.5q0 23 -18.5 33t-65.5 10q-19 0 -40.5 -1t-41 -2t-35.5 -2.5t-25 -1.5v66z" />
    <glyph glyph-name="zero.superior" unicode="&#x2070;" horiz-adv-x="482" 
d="M421 537q0 -103 -47 -157t-141 -54t-141 54t-47 157v44q0 104 47 157.5t141 53.5t141 -53.5t47 -157.5v-44zM315 581q0 39 -6 63.5t-17 38.5t-26 19.5t-33 5.5t-33 -5.5t-26 -19.5t-17 -38.5t-6 -63.5v-44q0 -38 6 -62.5t17 -38.5t26 -19.5t33 -5.5t33 5.5t26 19.5
t17 38.5t6 62.5v44z" />
    <glyph glyph-name="four.superior" unicode="&#x2074;" horiz-adv-x="482" 
d="M258 336v102h-219v77l233 268h91v-269h66v-76h-66v-102h-105zM263 667l-136 -153h136v153z" />
    <glyph glyph-name="five.superior" unicode="&#x2075;" horiz-adv-x="461" 
d="M168 704l-10 -92h52q100 0 141.5 -30.5t41.5 -101.5v-10q0 -79 -49.5 -111.5t-136.5 -32.5q-51 0 -92.5 6.5t-58.5 10.5v69l66 -6t66 -3q55 0 76.5 14.5t21.5 50.5v11q0 17 -4 28t-15 18t-29.5 9.5t-46.5 2.5h-130l22 246h294v-79h-209z" />
    <glyph glyph-name="six.superior" unicode="&#x2076;" horiz-adv-x="487" 
d="M393 705q-27 3 -65.5 5.5t-75.5 2.5q-33 0 -52 -6t-29 -17t-13 -28t-3 -39v-14q19 5 45.5 8t44.5 3q35 0 66.5 -4.5t55 -18.5t37 -39.5t13.5 -66.5v-17q0 -43 -16 -71.5t-41.5 -45.5t-57.5 -24t-65 -7q-92 0 -139 42t-47 147v92q0 43 8.5 77.5t30 58.5t58 36.5t93.5 12.5
q48 0 91 -6t61 -11v-70zM312 490q0 40 -20 51.5t-56 11.5q-15 0 -37 -2t-44 -7v-45q0 -31 6 -50t16.5 -30t25.5 -15t34 -4q32 0 53.5 17t21.5 57v16z" />
    <glyph glyph-name="seven.superior" unicode="&#x2077;" horiz-adv-x="458" 
d="M60 783h336v-88l-206 -359h-112l214 368h-232v79z" />
    <glyph glyph-name="eight.superior" unicode="&#x2078;" horiz-adv-x="501" 
d="M428 464q0 -47 -15.5 -74.5t-41.5 -41.5t-60.5 -18t-72.5 -4q-37 0 -70.5 4t-59.5 18t-41.5 41.5t-15.5 74.5v5q0 67 50 97q-23 16 -36 38.5t-13 57.5v6q0 39 15 63.5t41 38t60.5 18t72.5 4.5q37 0 70.5 -4.5t59 -18t40.5 -38t15 -63.5v-6q0 -35 -13 -57.5t-36 -38.5
q51 -30 51 -97v-5zM325 466q0 36 -11 51.5t-42 15.5h-65q-31 0 -42 -15.5t-11 -51.5q0 -44 23.5 -56t63.5 -12q19 0 34.5 2.5t26.5 9.5t17 20.5t6 35.5zM323 658q0 39 -23 50.5t-62 11.5q-37 0 -60 -11.5t-23 -50.5q0 -26 10.5 -41t41.5 -15h65q31 0 41 15t10 41z" />
    <glyph glyph-name="nine.superior" unicode="&#x2079;" horiz-adv-x="487" 
d="M73 412q11 -1 27.5 -2t35.5 -2.5t39.5 -2.5t40.5 -1q32 0 51 6t29 17.5t13 28.5t3 39v14q-19 -5 -45.5 -7.5t-44.5 -2.5q-35 0 -66.5 4.5t-55 18.5t-37 39.5t-13.5 66.5v16q0 43 16 71.5t41.5 45.5t58 24t65.5 7q91 0 138 -42t47 -147v-91q0 -44 -8.5 -78.5t-30 -58.5
t-58 -36.5t-93.5 -12.5q-24 0 -47.5 2t-44 4.5t-36.5 5.5t-25 5v69zM312 620q0 30 -5.5 49.5t-16.5 30.5t-26.5 15t-34.5 4q-31 0 -52.5 -17t-21.5 -58v-15q0 -40 20 -51.5t55 -11.5q16 0 38 1.5t44 6.5v46z" />
    <glyph glyph-name="zero.inferior" unicode="&#x2080;" horiz-adv-x="482" 
d="M421 -8q0 -103 -47 -157t-141 -54t-141 54t-47 157v44q0 104 47 157.5t141 53.5t141 -53.5t47 -157.5v-44zM315 36q0 39 -6 63.5t-17 38.5t-26 19.5t-33 5.5t-33 -5.5t-26 -19.5t-17 -38.5t-6 -63.5v-44q0 -38 6 -62.5t17 -38.5t26 -19.5t33 -5.5t33 5.5t26 19.5t17 38.5
t6 62.5v44z" />
    <glyph glyph-name="one.inferior" unicode="&#x2081;" horiz-adv-x="433" 
d="M69 -209v75l92 4v270l-93 -29v85l123 44h76v-370l92 -4v-75h-290z" />
    <glyph glyph-name="two.inferior" unicode="&#x2082;" horiz-adv-x="464" 
d="M62 230q10 3 27.5 6t39 5.5t45 4t45.5 1.5q90 0 132.5 -27.5t42.5 -88.5q0 -23 -6.5 -42t-22 -36t-40 -33t-60.5 -32q-35 -16 -55.5 -28t-32 -24t-15 -25.5t-3.5 -33.5v-5h227v-81h-331v55q0 41 7.5 70.5t24.5 52t44.5 41t66.5 37.5q30 15 48 25t27.5 19t12 17.5
t2.5 19.5q0 23 -18.5 33t-65.5 10q-19 0 -40.5 -1t-41 -2t-35.5 -2.5t-25 -1.5v66z" />
    <glyph glyph-name="three.inferior" unicode="&#x2083;" horiz-adv-x="460" 
d="M208 -219q-23 0 -46.5 2t-44.5 4.5t-36.5 5.5t-22.5 6v67q9 -1 25 -2t35.5 -2l40.5 -2t39 -1q45 0 66 11.5t21 49.5v9q0 12 -2.5 22t-10 17t-21.5 11t-38 4h-131v73h132q24 0 38 4t21.5 11.5t9.5 17.5t2 22v6q0 30 -18 41t-69 11q-38 0 -77 -2.5t-63 -4.5v67q7 3 23 6
t36.5 5.5t44 4.5t46.5 2q88 0 135 -26.5t47 -95.5v-7q0 -29 -12.5 -56t-43.5 -42q32 -14 44 -40t12 -55v-9q0 -73 -45 -104t-137 -31z" />
    <glyph glyph-name="four.inferior" unicode="&#x2084;" horiz-adv-x="482" 
d="M258 -209v102h-219v77l233 268h91v-269h66v-76h-66v-102h-105zM263 122l-136 -153h136v153z" />
    <glyph glyph-name="five.inferior" unicode="&#x2085;" horiz-adv-x="461" 
d="M168 159l-10 -92h52q100 0 141.5 -30.5t41.5 -101.5v-10q0 -79 -49.5 -111.5t-136.5 -32.5q-51 0 -92.5 6.5t-58.5 10.5v69l66 -6t66 -3q55 0 76.5 14.5t21.5 50.5v11q0 17 -4 28t-15 18t-29.5 9.5t-46.5 2.5h-130l22 246h294v-79h-209z" />
    <glyph glyph-name="six.inferior" unicode="&#x2086;" horiz-adv-x="487" 
d="M393 160q-27 3 -65.5 5.5t-75.5 2.5q-33 0 -52 -6t-29 -17t-13 -28t-3 -39v-14q19 5 45.5 8t44.5 3q35 0 66.5 -4.5t55 -18.5t37 -39.5t13.5 -66.5v-17q0 -43 -16 -71.5t-41.5 -45.5t-57.5 -24t-65 -7q-92 0 -139 42t-47 147v92q0 43 8.5 77.5t30 58.5t58 36.5t93.5 12.5
q48 0 91 -6t61 -11v-70zM312 -55q0 40 -20 51.5t-56 11.5q-15 0 -37 -2t-44 -7v-45q0 -31 6 -50t16.5 -30t25.5 -15t34 -4q32 0 53.5 17t21.5 57v16z" />
    <glyph glyph-name="seven.inferior" unicode="&#x2087;" horiz-adv-x="458" 
d="M60 238h336v-88l-206 -359h-112l214 368h-232v79z" />
    <glyph glyph-name="eight.inferior" unicode="&#x2088;" horiz-adv-x="501" 
d="M428 -81q0 -47 -15.5 -74.5t-41.5 -41.5t-60.5 -18t-72.5 -4q-37 0 -70.5 4t-59.5 18t-41.5 41.5t-15.5 74.5v5q0 67 50 97q-23 16 -36 38.5t-13 57.5v6q0 39 15 63.5t41 38t60.5 18t72.5 4.5q37 0 70.5 -4.5t59 -18t40.5 -38t15 -63.5v-6q0 -35 -13 -57.5t-36 -38.5
q51 -30 51 -97v-5zM325 -79q0 36 -11 51.5t-42 15.5h-65q-31 0 -42 -15.5t-11 -51.5q0 -44 23.5 -56t63.5 -12q19 0 34.5 2.5t26.5 9.5t17 20.5t6 35.5zM323 113q0 39 -23 50.5t-62 11.5q-37 0 -60 -11.5t-23 -50.5q0 -26 10.5 -41t41.5 -15h65q31 0 41 15t10 41z" />
    <glyph glyph-name="nine.inferior" unicode="&#x2089;" horiz-adv-x="487" 
d="M73 -133q11 -1 27.5 -2t35.5 -2.5t39.5 -2.5t40.5 -1q32 0 51 6t29 17.5t13 28.5t3 39v14q-19 -5 -45.5 -7.5t-44.5 -2.5q-35 0 -66.5 4.5t-55 18.5t-37 39.5t-13.5 66.5v16q0 43 16 71.5t41.5 45.5t58 24t65.5 7q91 0 138 -42t47 -147v-91q0 -44 -8.5 -78.5t-30 -58.5
t-58 -36.5t-93.5 -12.5q-24 0 -47.5 2t-44 4.5t-36.5 5.5t-25 5v69zM312 75q0 30 -5.5 49.5t-16.5 30.5t-26.5 15t-34.5 4q-31 0 -52.5 -17t-21.5 -58v-15q0 -40 20 -51.5t55 -11.5q16 0 38 1.5t44 6.5v46z" />
    <glyph glyph-name="cent.inferior" horiz-adv-x="409" 
d="M350 -205q-13 -4 -36 -7t-48 -4v-77h-89v83q-61 14 -96.5 62t-35.5 142v44q0 88 32.5 139t99.5 65v78h89v-72q25 -2 48 -5t36 -6v-84q-24 2 -51 3.5t-49 1.5q-56 0 -77 -27t-21 -93v-44q0 -32 4 -55t15 -37.5t30 -21t49 -6.5q27 0 54.5 1.5t45.5 3.5v-84v0z" />
    <glyph glyph-name="dollar.inferior" horiz-adv-x="441" 
d="M57 -126q22 -2 59.5 -4.5t82.5 -2.5q44 0 61 12t17 35q0 17 -12.5 28.5t-44.5 24.5l-67 26q-49 19 -78 48.5t-29 83.5q0 104 124 120v78h92v-75q35 -2 64.5 -6.5t42.5 -7.5v-76q-36 3 -76 6t-66 3q-36 0 -57 -9t-21 -31q0 -17 11.5 -28.5t43.5 -22.5l67 -23
q54 -19 83 -50t29 -82q0 -57 -32 -90.5t-89 -42.5v-81h-92v78q-35 1 -65 5t-48 8v76z" />
    <glyph glyph-name="period.inferior" horiz-adv-x="224" 
d="M154 -64v-96h-98v66q1 8 5 15q4 5 11 10t21 5h61z" />
    <glyph glyph-name="comma.inferior" horiz-adv-x="268" 
d="M128 -219h-81l54 155h100z" />
    <glyph glyph-name="Delta" unicode="&#x2206;" horiz-adv-x="752" 
d="M38 0l226 743h209l228 -743h-663zM400 528q-10 31 -16.5 62.5t-13.5 60.5h-2q-7 -28 -13.5 -60t-16.5 -63l-127 -416h316z" />
    <glyph glyph-name="uni03A9" unicode="&#x3a9;" horiz-adv-x="728" 
d="M663 399q0 -45 -9 -85.5t-28.5 -74.5t-50 -60t-74.5 -42v-38h154v-99h-263v193q69 17 101.5 67t32.5 131v63q0 54 -13 89t-36 55.5t-54 29t-66 8.5q-36 0 -67 -8.5t-54 -29t-36 -55.5t-13 -89v-63q0 -81 32.5 -131t101.5 -67v-193h-262v99h153v38q-44 16 -74.5 42t-50 60
t-28.5 74.5t-9 85.5v63q0 75 21 130.5t61 92t97 55t128 18.5t127.5 -18.5t96.5 -55t61 -92t21 -130.5v-63v0z" />
    <glyph glyph-name="uni03BC" unicode="&#x3bc;" horiz-adv-x="692" 
d="M455 0v45q-48 -23 -89.5 -38t-79.5 -15q-24 0 -38 1.5t-25 4.5v-203h-132v768h131v-358q0 -30 3.5 -51t12.5 -33.5t24.5 -18.5t40.5 -6q29 0 65.5 10.5t81.5 27.5v429h132v-563h-127z" />
    <glyph glyph-name="pi" unicode="&#x3c0;" horiz-adv-x="696" 
d="M637 -7q-15 -4 -37 -6t-42 -2q-79 0 -109 37.5t-30 118.5v298h-160v-439h-133v439h-87v124h598v-124h-86v-299q0 -30 7 -41.5t33 -11.5h23.5t22.5 1v-95v0z" />
    <glyph glyph-name="uni037E" unicode="&#x37e;" horiz-adv-x="274" 
d="M195 409v-154h-127v124q1 8 5 15q4 5 11 10t21 5h90z" />
    <glyph glyph-name="exclamdbl" unicode="&#x203c;" horiz-adv-x="559" 
d="M327 0v153h135v-153h-135zM455 211h-120l-13 566h145zM211 211h-120l-13 566h145zM113 0q-11 0 -17 5.5t-9 12.5t-3.5 13l-0.5 6v116h135v-153h-105z" />
    <glyph glyph-name="franc" unicode="&#x20a3;" horiz-adv-x="629" 
d="M90 0v141h-50v93h50v509h473v-117h-333v-188h316v-114h-316v-90h184v-93h-184v-141h-140z" />
    <glyph glyph-name="lira" unicode="&#x20a4;" horiz-adv-x="674" 
d="M589 629q-21 3 -46 5l-49.5 4t-48 3t-42.5 1q-42 0 -67 -7t-37.5 -23.5t-16.5 -43.5t-4 -68v-33h229v-77h-229v-72h229v-77h-229v-31q0 -29 -6.5 -52t-23.5 -46h341v-112h-493v94q26 26 36 55.5t10 60.5v31h-77v77h77v72h-77v77h77v33q0 66 11.5 115t39 80.5t74.5 47
t118 15.5q65 0 118.5 -6.5t85.5 -14.5v-108z" />
    <glyph glyph-name="peseta" unicode="&#x20a7;" horiz-adv-x="745" 
d="M102 743q54 2 108.5 3.5t108.5 1.5q62 0 117 -7t98 -27.5t71 -57t37 -94.5h78v-101h-77q-8 -61 -35.5 -99t-69.5 -59t-96 -28.5t-114 -7.5h-44.5t-45.5 1v-268h-136v461h-83v101h83v181zM509 515q0 37 -12 59.5t-35 35t-57 16.5t-80 4h-87v-244q22 -1 43.5 -1h44.5
q46 0 80 5t57 18t34.5 36t11.5 60v11z" />
    <glyph glyph-name="Euro" unicode="&#x20ac;" horiz-adv-x="691" 
d="M62 488h59q7 79 33 131t66.5 83t95 43.5t119.5 12.5q24 0 50.5 -2t50.5 -5t44.5 -6.5t33.5 -6.5v-111q-37 3 -81.5 6t-88.5 3q-40 0 -71.5 -7t-54 -23.5t-36.5 -45.5t-20 -72h317l-20 -77h-301v-80h277l-22 -77h-251q6 -43 20 -71.5t36.5 -45.5t54 -24t71.5 -7
q44 0 88.5 3t81.5 6v-112q-13 -3 -33.5 -6.5t-44.5 -6t-50.5 -4.5t-50.5 -2q-65 0 -119.5 12.5t-95 43.5t-66.5 83t-33 131h-59v77h56v80h-56v77z" />
    <glyph glyph-name="litre" unicode="&#x2113;" horiz-adv-x="523" 
d="M463 43q-36 -28 -77 -44.5t-86 -16.5q-81 0 -120 41t-39 130v79l-54 -54l-46 41l26.5 29l22.5 23l23 23.5l28 29.5v277q0 97 38 142.5t126 45.5q41 0 69.5 -10t46 -27.5t25.5 -42.5t8 -55q0 -85 -49.5 -160.5t-131.5 -152.5v-178q0 -52 14.5 -69.5t49.5 -17.5q20 0 41 9
t41 24zM380 654q0 26 -10.5 44t-40.5 18q-38 0 -47 -29t-9 -86v-168q53 57 80 109t27 112z" />
    <glyph glyph-name="Omega" unicode="&#x2126;" horiz-adv-x="728" 
d="M663 399q0 -45 -9 -85.5t-28.5 -74.5t-50 -60t-74.5 -42v-38h154v-99h-263v193q69 17 101.5 67t32.5 131v63q0 54 -13 89t-36 55.5t-54 29t-66 8.5q-36 0 -67 -8.5t-54 -29t-36 -55.5t-13 -89v-63q0 -81 32.5 -131t101.5 -67v-193h-262v99h153v38q-44 16 -74.5 42t-50 60
t-28.5 74.5t-9 85.5v63q0 75 21 130.5t61 92t97 55t128 18.5t127.5 -18.5t96.5 -55t61 -92t21 -130.5v-63v0z" />
    <glyph glyph-name="estimated" unicode="&#x212e;" horiz-adv-x="671" 
d="M161 282v-193q35 -30 75 -46.5t89 -16.5q45 0 79.5 10.5t61.5 27.5t47.5 40t38.5 49l33 -19q-21 -30 -45.5 -56t-55 -45t-69.5 -29.5t-90 -10.5q-66 0 -120 23t-92.5 63t-59.5 92.5t-21 111.5q0 60 20.5 112.5t59 92t93.5 62.5t124 23t124 -23.5t93 -63t58.5 -92.5
t20.5 -112h-464zM495 478q-29 25 -73.5 43.5t-92.5 18.5q-49 0 -92.5 -15.5t-75.5 -46.5v-163h334v163z" />
    <glyph glyph-name="partialdiff" unicode="&#x2202;" horiz-adv-x="659" 
d="M587 455q0 -51 -5.5 -107t-16.5 -104q-27 -137 -96 -197.5t-187 -60.5q-112 0 -167.5 54t-55.5 151q0 23 1 46t5 44q17 119 87.5 174.5t186.5 55.5q45 0 75 -12t46 -23v28t-2 28q-4 32 -14.5 61t-32.5 51t-56.5 35t-85.5 13q-31 0 -65.5 -3t-68.5 -11l4 92q71 17 145 17
q78 0 135.5 -23.5t94.5 -67t55 -105t18 -136.5zM443 310q0 45 -24.5 67.5t-81.5 22.5q-65 0 -100 -35t-43 -104q-2 -19 -3.5 -37.5t-1.5 -34.5q0 -48 24.5 -69.5t81.5 -21.5q66 0 99 37t44 118q3 18 4 33t1 24z" />
    <glyph glyph-name="product" unicode="&#x220f;" horiz-adv-x="770" 
d="M630 619v-688h-135v687h-235v-687h-135v688h-86v124h676v-124h-85z" />
    <glyph glyph-name="summation" unicode="&#x2211;" horiz-adv-x="630" 
d="M72 -69v117l214 285l-214 293v117h473v-117h-316l191 -263v-63l-191 -252h316v-117h-473z" />
    <glyph glyph-name="uni2219" unicode="&#x2219;" horiz-adv-x="291" 
d="M202 446v-124v-31h-27h-101v125q1 8 5 15q4 5 11 10t21 5h91z" />
    <glyph glyph-name="radical" unicode="&#x221a;" horiz-adv-x="831" 
d="M466 -74h-151l-145 454h-122v117h205l137 -439l130 408.5l130 408.5h120z" />
    <glyph glyph-name="infinity" unicode="&#x221e;" horiz-adv-x="768" 
d="M642 364q0 -28 -3.5 -68.5t-18.5 -78t-46 -64t-85 -26.5h-7q-35 0 -62 13.5t-50 37.5q-17 -23 -42 -38t-59 -15h-7q-37 0 -62.5 12.5t-43 32.5t-27.5 45.5t-14.5 52t-6 51.5t-1.5 44v24q0 18 1.5 43t6 51t14.5 52t27.5 46t43 32.5t62.5 12.5h7q35 0 61.5 -14.5
t47.5 -38.5q18 28 43 41t61 13h7q54 0 85 -26t46 -63.5t18.5 -78.5t3.5 -70v-23zM549 387q0 27 -1 53.5t-7 46.5t-18.5 32.5t-34.5 12.5h-6q-33 -1 -43.5 -40.5t-18.5 -120.5q-4 -30 -7 -55t-8 -52q32 -46 76 -46h6q22 0 34.5 13t18.5 33.5t7.5 46.5t1.5 53v23zM346 484
q-16 23 -35.5 36t-40.5 13h-6q-23 0 -36 -13.5t-19 -34.5t-7.5 -47t-1.5 -51v-24q0 -26 1.5 -52t7.5 -46.5t18.5 -33t35.5 -12.5h6q30 0 41.5 37.5t20.5 119.5q3 29 6.5 54t8.5 54z" />
    <glyph glyph-name="integral" unicode="&#x222b;" horiz-adv-x="552" 
d="M481 675q-15 1 -40.5 2t-48.5 1q-20 0 -31.5 -3.5t-17 -11.5t-7 -22t-1.5 -36v-640q0 -38 -6 -69t-23 -53t-47.5 -34t-78.5 -12q-38 0 -72 5t-51 10v85q15 -2 40.5 -3t48.5 -1q20 0 31.5 3.5t17 11.5t7 22.5t1.5 35.5v640q0 38 6 69t23 53t47.5 34t78.5 12q38 0 72 -5
t51 -10v-84v0z" />
    <glyph glyph-name="approxequal" unicode="&#x2248;" horiz-adv-x="703" 
d="M588 578q0 -151 -125 -151q-33 0 -60.5 7t-56.5 27l-55 37q-19 13 -33 19.5t-28 6.5q-23 0 -29 -14.5t-6 -43.5v-31h-94v31q0 151 127 151q29 0 52.5 -10t52.5 -29l58 -37q20 -13 34.5 -17t33.5 -4q23 0 29 14.5t6 43.5v31h94v-31zM588 317q0 -152 -125 -152
q-33 0 -60.5 7.5t-56.5 27.5l-55 36q-20 13 -33 19.5t-28 6.5q-23 0 -29 -14.5t-6 -43.5v-31h-94v31q0 151 127 151q28 0 52 -10t53 -28l58 -37q20 -13 34.5 -17.5t33.5 -4.5q23 0 29 15t6 44v31h94v-31z" />
    <glyph glyph-name="notequal" unicode="&#x2260;" horiz-adv-x="703" 
d="M345 206l-78 -209h-120l79 209h-117v110h152l51 142h-203v111h237l67 177h119l-67 -177h118v-111h-153l-49 -142h202v-110h-238z" />
    <glyph glyph-name="lessequal" unicode="&#x2264;" horiz-adv-x="703" 
d="M91 0v95h507v-95h-507zM389 158l-285 245l285 245h157l-284 -245l284 -245h-157z" />
    <glyph glyph-name="greaterequal" unicode="&#x2265;" horiz-adv-x="703" 
d="M90 0v95h506v-95h-506zM299 158h-157l284 245l-284 245h157l285 -245z" />
    <glyph glyph-name="lozenge" unicode="&#x25ca;" horiz-adv-x="713" 
d="M348 50l-259 311l261 316l260 -315zM350 529l-145 -168l143 -165l146 166z" />
    <glyph glyph-name="uni00A0" unicode="&#xa0;" horiz-adv-x="203" 
 />
    <glyph glyph-name="uni00AD" unicode="&#xad;" horiz-adv-x="400" 
d="M320 346v-73v-31h-27h-227v74q1 8 5 15q4 5 11 10t21 5h217z" />
    <glyph glyph-name="uni02C9" unicode="&#x2c9;" horiz-adv-x="494" 
d="M52 654v88h376v-88h-376z" />
    <glyph glyph-name="Dotaccent" horiz-adv-x="456" 
d="M288 945v-125h-134v95q1 8 5 15q4 5 11 10t21 5h97z" />
    <glyph glyph-name="Breve" horiz-adv-x="499" 
d="M431 951q-8 -78 -56.5 -118t-132.5 -40t-132 40t-56 118h85q5 -48 32 -66t71 -18q45 0 71.5 18t33.5 66h84v0z" />
    <glyph glyph-name="Ogonek" horiz-adv-x="472" 
d="M364 -203q-13 -4 -42.5 -9t-67.5 -5q-68 0 -103.5 25.5t-35.5 73.5q0 38 31.5 68t103.5 65h118q-49 -25 -77 -42.5t-42.5 -30.5t-18 -22t-3.5 -18q0 -19 12.5 -29t44.5 -10q20 0 40 1.5t40 3.5v-71v0z" />
    <glyph glyph-name="Cedilla" horiz-adv-x="469" 
d="M191 -206h-126l110 141h149z" />
    <glyph glyph-name="Ring" horiz-adv-x="465" 
d="M355 892q0 -60 -36.5 -88.5t-91.5 -28.5q-56 0 -93.5 29t-37.5 88q0 29 10 51t27.5 36.5t41.5 22t52 7.5q55 0 91.5 -29t36.5 -88zM282 892q0 28 -16 39.5t-39 11.5q-24 0 -40 -11.5t-16 -39.5q0 -27 15.5 -39t40.5 -12q23 0 39 12t16 39z" />
    <glyph glyph-name="Tilde" horiz-adv-x="500" 
d="M458 924q0 -69 -26.5 -101t-80.5 -32q-26 0 -50.5 8t-53.5 26l-44 29q-17 11 -29 17t-26 6q-20 0 -26.5 -13.5t-6.5 -39.5v-28h-82v28q0 69 28.5 101.5t82.5 32.5q27 0 48.5 -7.5t49.5 -25.5l45 -29q16 -11 29.5 -17.5t28.5 -6.5q20 0 26.5 13t6.5 39v28h80v-28v0z" />
    <glyph glyph-name="Circumflex" horiz-adv-x="515" 
d="M346 795l-96 91l-95 -91h-121l135 149h163l135 -149h-121z" />
    <glyph glyph-name="Acute" horiz-adv-x="485" 
d="M254 795h-127l132 149h153z" />
    <glyph glyph-name="Caron" horiz-adv-x="515" 
d="M155 944l95 -92l96 92h121l-135 -149h-163l-135 149h121z" />
    <glyph glyph-name="Dieresis" horiz-adv-x="497" 
d="M307 814v124h111v-124h-111zM177 938v-124h-112v94q1 8 5 15q4 5 11 10t21 5h75z" />
    <glyph glyph-name="Grave" horiz-adv-x="485" 
d="M208 795l-158 149h153l131 -149h-126z" />
    <glyph glyph-name="Hungarumlaut" horiz-adv-x="553" 
d="M203 793h-120l131 149h148zM603 942l-158 -149h-121l132 149h147z" />
    <glyph glyph-name="Macron" horiz-adv-x="494" 
d="M52 823v89h376v-89h-376z" />
    <glyph glyph-name="h.superior" horiz-adv-x="467" 
d="M159 777v-143q20 10 50 17.5t62 7.5q36 0 59.5 -9.5t37.5 -27.5t20 -44t6 -58v-214h-101v213q0 37 -12 49.5t-41 12.5q-24 0 -46 -6t-35 -11v-258h-100v471h100z" />
    <glyph glyph-name="zero.slash" horiz-adv-x="686" 
d="M619 316q0 -163 -71 -247.5t-212 -84.5q-102 0 -169 46l-20 -30h-133l79 116q-40 77 -40 200v110q0 163 71 247.5t212 84.5q100 0 165 -44l20 29h131l-76 -112q43 -81 43 -205v-110zM479 426q0 32 -3 58l-236 -347q19 -20 43 -28t53 -8q32 0 58.5 10t45 35t29 66
t10.5 104v110zM193 316v-26.5t2 -24.5l234 343q-18 18 -41.5 25.5t-51.5 7.5q-32 0 -58 -10t-45 -35t-29.5 -66t-10.5 -104v-110z" />
    <glyph glyph-name="percent.oldstyle" unicode="&#xfe6a;" horiz-adv-x="929" 
d="M856 165q0 -85 -37 -130.5t-115 -45.5q-79 0 -115.5 45.5t-36.5 130.5v9q0 85 36.5 130.5t115.5 45.5q78 0 115 -45.5t37 -130.5v-9zM760 174q0 30 -4 49t-11.5 30t-17.5 15.5t-23 4.5q-26 0 -41 -20t-15 -79v-9q0 -59 15 -78.5t41 -19.5q13 0 23 4t17.5 15t11.5 30t4 49
v9zM319 0h-106l387 590h105zM363 415q0 -85 -37 -130t-115 -45t-115 45t-37 130v9q0 86 37 131.5t115 45.5t115 -45.5t37 -131.5v-9zM267 424q0 59 -15 79t-41 20t-40.5 -20t-14.5 -79v-9q0 -29 4 -48t11 -30t17 -15t23 -4t23.5 4t17.5 15t11 30t4 48v9z" />
    <glyph glyph-name="perthousand.oldstyle" horiz-adv-x="1286" 
d="M1213 165q0 -85 -36.5 -130.5t-114.5 -45.5q-80 0 -116.5 45.5t-36.5 130.5v9q0 85 36.5 130.5t116.5 45.5q78 0 114.5 -45.5t36.5 -130.5v-9zM1117 174q0 30 -4 49t-11 30t-17 15.5t-23 4.5q-27 0 -41.5 -20t-14.5 -79v-9q0 -59 14.5 -78.5t41.5 -19.5q13 0 23 4t17 15
t11 30t4 49v9zM856 165q0 -85 -37 -130.5t-115 -45.5q-79 0 -115.5 45.5t-36.5 130.5v9q0 85 36.5 130.5t115.5 45.5q78 0 115 -45.5t37 -130.5v-9zM760 174q0 30 -4 49t-11.5 30t-17.5 15.5t-23 4.5q-26 0 -41 -20t-15 -79v-9q0 -59 15 -78.5t41 -19.5q13 0 23 4t17.5 15
t11.5 30t4 49v9zM319 0h-106l387 590h105zM363 415q0 -85 -37 -130t-115 -45t-115 45t-37 130v9q0 86 37 131.5t115 45.5t115 -45.5t37 -131.5v-9zM267 424q0 59 -15 79t-41 20t-40.5 -20t-14.5 -79v-9q0 -29 4 -48t11 -30t17 -15t23 -4t23.5 4t17.5 15t11 30t4 48v9z" />
    <glyph glyph-name="zero.taboldstyle" 
d="M625 273q0 -142 -71.5 -215t-210.5 -73q-140 0 -211 73t-71 215v39q0 142 71 215t211 73q139 0 210.5 -73t71.5 -215v-39zM485 312q0 48 -10 81t-29 53.5t-45 29t-58 8.5t-58 -8.5t-44.5 -29t-29 -53.5t-10.5 -81v-39q0 -48 10.5 -80.5t29 -53t44.5 -29t58 -8.5t58 8.5
t45 29t29 53t10 80.5v39z" />
    <glyph glyph-name="one.taboldstyle" 
d="M114 0v110l162 6v336l-163 -52v121l201 71h102v-476l157 -6v-110h-459z" />
    <glyph glyph-name="two.taboldstyle" 
d="M97 573q21 6 49 10.5t59 8.5t62 6t58 2q77 0 129.5 -11t84.5 -32.5t46 -54t14 -74.5q0 -39 -11 -70t-37 -60t-70.5 -60t-110.5 -70l-86 -51h307v-117h-503v117l177 106q61 36 99 63t59 49t28 41.5t7 40.5q0 39 -34.5 55.5t-117.5 16.5q-21 0 -48.5 -1.5t-56 -3.5
t-56 -4.5l-48.5 -4.5v98z" />
    <glyph glyph-name="three.taboldstyle" 
d="M595 46q0 -61 -18 -102.5t-53 -67.5t-87 -37.5t-120 -11.5q-34 0 -68.5 3t-65 7.5t-54.5 10t-37 9.5v97q16 -2 40.5 -4.5t53 -4.5t60 -3.5t61.5 -1.5q37 0 65 4.5t47 16.5t28 33.5t9 56.5v20q0 22 -4 40.5t-16 31.5t-35.5 20.5t-62.5 7.5h-208v105h209q39 0 62 8t35 22
t16 32.5t4 40.5v11q0 28 -7 47t-24.5 30t-46.5 15.5t-72 4.5q-59 0 -114.5 -3.5t-97.5 -8.5v97q9 3 32 8t54 9.5t67 7.5t70 3q68 0 120 -10t87 -33.5t53 -62t18 -95.5v-12q0 -50 -20.5 -93.5t-68.5 -68.5q50 -25 69.5 -67.5t19.5 -90.5v-21v0z" />
    <glyph glyph-name="four.taboldstyle" 
d="M533 23v-179h-140v179h-346v116l354 448h132v-454h105v-110h-105zM398 418l-231 -285h231v285z" />
    <glyph glyph-name="five.taboldstyle" 
d="M599 59q0 -63 -19 -107t-56 -71.5t-90 -40t-120 -12.5q-38 0 -74 3t-66 7.5t-52 9.5t-34 8v100q16 -2 39.5 -4.5t50.5 -5t57 -4.5t59 -2q46 0 77.5 6t51 19.5t28 36.5t8.5 56v24q0 31 -7 52t-25.5 34t-50.5 18.5t-81 5.5h-196l34 395h441v-114h-327l-16 -172h85
q78 0 131.5 -12.5t87.5 -39.5t49 -68t15 -98v-24v0z" />
    <glyph glyph-name="six.taboldstyle" 
d="M619 226q0 -73 -25.5 -120t-64.5 -74t-87 -37.5t-93 -10.5q-63 0 -115 14t-89 48.5t-57.5 93t-20.5 147.5v176q0 70 13.5 125t46.5 92.5t89.5 57.5t142.5 20q36 0 70.5 -3t64.5 -7t53.5 -8.5t36.5 -7.5v-100q-42 4 -98 8.5t-115 4.5q-57 0 -90 -11t-50 -32t-21.5 -52
t-4.5 -70v-29q16 4 36 7.5t40.5 5.5t40.5 3.5t36 1.5q52 0 99.5 -7.5t83.5 -30t57 -63t21 -106.5v-36zM481 258q0 36 -8.5 58t-26 34t-42.5 16t-58 4q-26 0 -64.5 -3t-76.5 -11v-90q0 -52 10 -85.5t28.5 -53t45 -27t60.5 -7.5q27 0 51 7.5t42 23.5t28.5 41.5t10.5 60.5v32z
" />
    <glyph glyph-name="seven.taboldstyle" 
d="M279 -155h-150l341 628h-384v115h519v-129z" />
    <glyph glyph-name="eight.taboldstyle" 
d="M628 213q0 -79 -24 -124.5t-63.5 -69t-91 -29.5t-105.5 -6h-4q-54 0 -105 6t-90.5 29.5t-63.5 69t-24 124.5v8q0 60 20.5 98.5t61.5 64.5q-37 23 -58 60.5t-21 96.5v10q0 65 23 105.5t62 63t89.5 30.5t105.5 8h4q55 0 106 -8t90 -30.5t62 -63t23 -105.5v-10
q0 -59 -21 -96.5t-58 -60.5q41 -26 61.5 -64.5t20.5 -98.5v-8zM490 222q0 58 -20 85t-73 27h-109q-53 0 -73 -27t-20 -85v-7q0 -41 10.5 -65.5t29.5 -38t46 -17.5t59 -4h4q33 0 59.5 4t46 17.5t30 38t10.5 65.5v7zM488 548q0 32 -10.5 52t-29.5 31.5t-45.5 15.5t-58.5 4h-4
q-32 0 -58 -4t-45 -15.5t-29.5 -31.5t-10.5 -52v-10q0 -48 19 -75t72 -27h109q53 0 72 27t19 75v10z" />
    <glyph glyph-name="nine.taboldstyle" 
d="M619 123q0 -70 -13.5 -125t-46.5 -93t-89.5 -58t-142.5 -20q-36 0 -71 3t-65 6.5t-53.5 8t-35.5 7.5v100q18 -2 42.5 -4t53 -4t59 -3.5t60.5 -1.5q56 0 88.5 11t49.5 32.5t21.5 52t4.5 69.5v29q-16 -4 -36 -7.5t-41 -5.5t-40.5 -3.5t-35.5 -1.5q-53 0 -100.5 8t-83 30.5
t-56.5 63t-21 106.5v35q0 72 25.5 119t64.5 74.5t87 38t93 10.5q63 0 115 -13.5t89 -48t57.5 -92.5t20.5 -146v-177zM481 318q0 52 -10 85.5t-28.5 53t-45.5 27t-61 7.5q-55 0 -93 -31.5t-38 -101.5v-32q0 -36 8.5 -58t25.5 -34t42 -16t58 -4q26 0 64.5 3.5t77.5 11.5v89z
" />
    <glyph glyph-name="colonmonetary.taboldstyle" horiz-adv-x="625" 
d="M513 478q-35 4 -69.5 6t-69.5 2q-37 0 -63.5 -7.5t-43.5 -25t-25 -47t-8 -74.5v-76q0 -45 8 -74.5t25 -47t43.5 -25t63.5 -7.5q38 0 74 2t65 5v-105q-11 -3 -27 -6t-34 -5v-98h-80v91h-14q-14 0 -28.5 1t-27.5 3v-95h-79v118q-125 53 -125 243v76q0 188 125 244v111h79
v-89q12 2 27 3t29 1h14v85h80v-92q37 -5 61 -11v-106z" />
    <glyph glyph-name="Euro.taboldstyle" horiz-adv-x="645" 
d="M409 490q-32 0 -55.5 -4t-40 -15.5t-26.5 -31.5t-14 -52h247l-18 -65h-232v-64h216l-17 -64h-196q6 -58 39 -78.5t96 -20.5q36 0 74.5 2t66.5 4v-100q-11 -3 -29.5 -6t-40.5 -5.5t-44 -4t-41 -1.5q-58 0 -103 10.5t-77.5 34.5t-51.5 64.5t-25 100.5h-51v64h49v64h-49v65
h51q5 63 24 104.5t51 66t77.5 34.5t103.5 10q20 0 42 -1.5t43 -3.5t39.5 -5t31.5 -6v-103q-32 3 -68.5 5t-71.5 2z" />
    <glyph glyph-name="florin.taboldstyle" horiz-adv-x="632" 
d="M519 506q-17 2 -31.5 2.5t-31.5 0.5q-24 0 -37.5 -8.5t-18.5 -44.5l-15 -98h122l-12 -95h-122l-28 -218q-5 -42 -17.5 -69.5t-32 -44t-45.5 -23t-57 -6.5q-33 0 -58 3t-45 8l11 85q20 -2 32.5 -2.5t32.5 -0.5q29 0 38.5 13t15.5 43l26 212h-108l11 95h111l14 105
q6 41 19.5 68t33.5 42.5t46 21.5t56 6q32 0 55 -3.5t44 -8.5z" />
    <glyph glyph-name="numbersign.taboldstyle" horiz-adv-x="695" 
d="M484 140l-16 -140h-106l16 140h-114l-16 -140h-105l16 140h-69v88h78l15 124h-93v87h102l18 150h105l-18 -150h114l18 150h105l-17 -150h74v-87h-84l-14 -124h98v-88h-107zM288 352l-15 -124h115l14 124h-114z" />
    <glyph glyph-name="sterling.taboldstyle" horiz-adv-x="635" 
d="M527 483q-90 9 -141 9q-32 0 -52 -4t-31.5 -15t-15.5 -29.5t-4 -46.5v-46h172v-98h-172v-78q0 -22 -5 -37.5t-15 -29.5h264v-108h-411v88q20 20 29 41t9 46v78h-61v98h61v46q0 54 11 93t35.5 63.5t64 36t95.5 11.5q45 0 85.5 -4t81.5 -12v-102z" />
    <glyph glyph-name="yen.taboldstyle" horiz-adv-x="680" 
d="M268 0v153h-203v81h195l-42 76h-153v81h114l-104 198h142l78 -160q10 -20 19 -41l18 -44h2q17 47 37 85l79 160h141l-105 -198h116v-81h-155l-41 -76h196v-81h-205v-153h-129z" />
    <glyph glyph-name="dollar.taboldstyle" horiz-adv-x="637" 
d="M110 103l78 -5t106 -3q51 0 76 14.5t25 46.5q0 13 -3.5 22.5t-13 18.5t-26 17.5t-42.5 19.5l-76 31q-34 14 -60 29.5t-44 35.5t-27 46.5t-9 62.5q0 137 164 158v90h109v-87q46 -3 85 -9t59 -11v-94q-34 2 -79 5.5t-104 3.5q-48 0 -74.5 -9.5t-26.5 -41.5q0 -11 3 -20.5
t11 -18t22.5 -17t38.5 -17.5l78 -32q39 -15 67 -31.5t46.5 -37t27 -47.5t8.5 -64q0 -70 -41 -112.5t-121 -54.5v-97h-109v93q-45 2 -85.5 7.5t-62.5 10.5v97z" />
    <glyph glyph-name="cent.taboldstyle" horiz-adv-x="625" 
d="M514 483q-41 2 -72 3t-69 1q-37 0 -63.5 -7.5t-43.5 -25.5t-25 -47.5t-8 -73.5v-78q0 -44 8 -73.5t25 -47.5t43.5 -25.5t63.5 -7.5q38 0 74.5 1.5t66.5 4.5v-103q-19 -5 -52 -9t-66 -6v-104h-110v108q-97 18 -143 83t-46 179v78q0 113 46 178t143 83v103h111v-98
q32 -2 65 -6t52 -9v-101z" />
    <glyph glyph-name="zero.denominator" horiz-adv-x="482" 
d="M421 201q0 -103 -47 -157t-141 -54t-141 54t-47 157v44q0 104 47 157.5t141 53.5t141 -53.5t47 -157.5v-44zM315 245q0 39 -6 63.5t-17 38.5t-26 19.5t-33 5.5t-33 -5.5t-26 -19.5t-17 -38.5t-6 -63.5v-44q0 -38 6 -62.5t17 -38.5t26 -19.5t33 -5.5t33 5.5t26 19.5
t17 38.5t6 62.5v44z" />
    <glyph glyph-name="one.denominator" horiz-adv-x="433" 
d="M69 0v75l92 4v270l-93 -29v85l123 44h76v-370l92 -4v-75h-290z" />
    <glyph glyph-name="two.denominator" horiz-adv-x="464" 
d="M62 439q10 3 27.5 6t39 5.5t45 4t45.5 1.5q90 0 132.5 -27.5t42.5 -88.5q0 -23 -6.5 -42t-22 -36t-40 -33t-60.5 -32q-35 -16 -55.5 -28t-32 -24t-15 -25.5t-3.5 -33.5v-5h227v-81h-331v55q0 41 7.5 70.5t24.5 52t44.5 41t66.5 37.5q30 15 48 25t27.5 19t12 17.5
t2.5 19.5q0 23 -18.5 33t-65.5 10q-19 0 -40.5 -1t-41 -2t-35.5 -2.5t-25 -1.5v66z" />
    <glyph glyph-name="three.denominator" horiz-adv-x="460" 
d="M208 -10q-23 0 -46.5 2t-44.5 4.5t-36.5 5.5t-22.5 6v67q9 -1 25 -2t35.5 -2l40.5 -2t39 -1q45 0 66 11.5t21 49.5v9q0 12 -2.5 22t-10 17t-21.5 11t-38 4h-131v73h132q24 0 38 4t21.5 11.5t9.5 17.5t2 22v6q0 30 -18 41t-69 11q-38 0 -77 -2.5t-63 -4.5v67q7 3 23 6
t36.5 5.5t44 4.5t46.5 2q88 0 135 -26.5t47 -95.5v-7q0 -29 -12.5 -56t-43.5 -42q32 -14 44 -40t12 -55v-9q0 -73 -45 -104t-137 -31z" />
    <glyph glyph-name="four.denominator" horiz-adv-x="482" 
d="M258 0v102h-219v77l233 268h91v-269h66v-76h-66v-102h-105zM263 331l-136 -153h136v153z" />
    <glyph glyph-name="five.denominator" horiz-adv-x="461" 
d="M168 368l-10 -92h52q100 0 141.5 -30.5t41.5 -101.5v-10q0 -79 -49.5 -111.5t-136.5 -32.5q-51 0 -92.5 6.5t-58.5 10.5v69l66 -6t66 -3q55 0 76.5 14.5t21.5 50.5v11q0 17 -4 28t-15 18t-29.5 9.5t-46.5 2.5h-130l22 246h294v-79h-209z" />
    <glyph glyph-name="six.denominator" horiz-adv-x="487" 
d="M393 369q-27 3 -65.5 5.5t-75.5 2.5q-33 0 -52 -6t-29 -17t-13 -28t-3 -39v-14q19 5 45.5 8t44.5 3q35 0 66.5 -4.5t55 -18.5t37 -39.5t13.5 -66.5v-17q0 -43 -16 -71.5t-41.5 -45.5t-57.5 -24t-65 -7q-92 0 -139 42t-47 147v92q0 43 8.5 77.5t30 58.5t58 36.5t93.5 12.5
q48 0 91 -6t61 -11v-70zM312 154q0 40 -20 51.5t-56 11.5q-15 0 -37 -2t-44 -7v-45q0 -31 6 -50t16.5 -30t25.5 -15t34 -4q32 0 53.5 17t21.5 57v16z" />
    <glyph glyph-name="seven.denominator" horiz-adv-x="458" 
d="M60 447h336v-88l-206 -359h-112l214 368h-232v79z" />
    <glyph glyph-name="eight.denominator" horiz-adv-x="501" 
d="M428 128q0 -47 -15.5 -74.5t-41.5 -41.5t-60.5 -18t-72.5 -4q-37 0 -70.5 4t-59.5 18t-41.5 41.5t-15.5 74.5v5q0 67 50 97q-23 16 -36 38.5t-13 57.5v6q0 39 15 63.5t41 38t60.5 18t72.5 4.5q37 0 70.5 -4.5t59 -18t40.5 -38t15 -63.5v-6q0 -35 -13 -57.5t-36 -38.5
q51 -30 51 -97v-5zM325 130q0 36 -11 51.5t-42 15.5h-65q-31 0 -42 -15.5t-11 -51.5q0 -44 23.5 -56t63.5 -12q19 0 34.5 2.5t26.5 9.5t17 20.5t6 35.5zM323 322q0 39 -23 50.5t-62 11.5q-37 0 -60 -11.5t-23 -50.5q0 -26 10.5 -41t41.5 -15h65q31 0 41 15t10 41z" />
    <glyph glyph-name="nine.denominator" horiz-adv-x="487" 
d="M73 76q11 -1 27.5 -2t35.5 -2.5t39.5 -2.5t40.5 -1q32 0 51 6t29 17.5t13 28.5t3 39v14q-19 -5 -45.5 -7.5t-44.5 -2.5q-35 0 -66.5 4.5t-55 18.5t-37 39.5t-13.5 66.5v16q0 43 16 71.5t41.5 45.5t58 24t65.5 7q91 0 138 -42t47 -147v-91q0 -44 -8.5 -78.5t-30 -58.5
t-58 -36.5t-93.5 -12.5q-24 0 -47.5 2t-44 4.5t-36.5 5.5t-25 5v69zM312 284q0 30 -5.5 49.5t-16.5 30.5t-26.5 15t-34.5 4q-31 0 -52.5 -17t-21.5 -58v-15q0 -40 20 -51.5t55 -11.5q16 0 38 1.5t44 6.5v46z" />
    <glyph glyph-name="comma.denominator" horiz-adv-x="268" 
d="M128 -55h-81l54 155h100z" />
    <glyph glyph-name="period.denominator" horiz-adv-x="224" 
d="M154 100v-96h-98v66q1 8 5 15q4 5 11 10t21 5h61z" />
    <glyph glyph-name="cent.denominator" horiz-adv-x="409" 
d="M350 4q-13 -4 -36 -7t-48 -4v-77h-89v83q-61 14 -96.5 62t-35.5 142v44q0 88 32.5 139t99.5 65v78h89v-72q25 -2 48 -5t36 -6v-84q-24 2 -51 3.5t-49 1.5q-56 0 -77 -27t-21 -93v-44q0 -32 4 -55t15 -37.5t30 -21t49 -6.5q27 0 54.5 1.5t45.5 3.5v-84v0z" />
    <glyph glyph-name="dollar.denominator" horiz-adv-x="441" 
d="M57 83q22 -2 59.5 -4.5t82.5 -2.5q44 0 61 12t17 35q0 17 -12.5 28.5t-44.5 24.5l-67 26q-49 19 -78 48.5t-29 83.5q0 104 124 120v78h92v-75q35 -2 64.5 -6.5t42.5 -7.5v-76q-36 3 -76 6t-66 3q-36 0 -57 -9t-21 -31q0 -17 11.5 -28.5t43.5 -22.5l67 -23q54 -19 83 -50
t29 -82q0 -57 -32 -90.5t-89 -42.5v-81h-92v78q-35 1 -65 5t-48 8v76z" />
    <glyph glyph-name="hyphen.denominator" horiz-adv-x="268" 
d="M201 244v-78h-149v48q1 8 5 15q4 5 11 10t21 5h112z" />
    <glyph glyph-name="parenleft.denominator" horiz-adv-x="299" 
d="M145 -75q-14 18 -29 44.5t-27.5 60t-20.5 73t-8 84.5v5q0 45 8 84.5t20.5 73t27.5 60.5t29 46h95q-33 -50 -56.5 -115t-23.5 -149v-5q0 -85 23.5 -149.5t56.5 -112.5h-95z" />
    <glyph glyph-name="parenright.denominator" horiz-adv-x="299" 
d="M224 187q0 -45 -8 -84.5t-20.5 -73t-27.5 -60t-29 -44.5h-95q34 48 57 112.5t23 149.5v5q0 84 -23 149t-57 115h95q14 -19 29 -46t27.5 -60.5t20.5 -73t8 -84.5v-5v0z" />
    <glyph glyph-name="zero.numerator" horiz-adv-x="482" 
d="M421 503q0 -103 -47 -157t-141 -54t-141 54t-47 157v44q0 104 47 157.5t141 53.5t141 -53.5t47 -157.5v-44zM315 547q0 39 -6 63.5t-17 38.5t-26 19.5t-33 5.5t-33 -5.5t-26 -19.5t-17 -38.5t-6 -63.5v-44q0 -38 6 -62.5t17 -38.5t26 -19.5t33 -5.5t33 5.5t26 19.5
t17 38.5t6 62.5v44z" />
    <glyph glyph-name="one.numerator" horiz-adv-x="433" 
d="M69 302v75l92 4v270l-93 -29v85l123 44h76v-370l92 -4v-75h-290z" />
    <glyph glyph-name="two.numerator" horiz-adv-x="464" 
d="M62 741q10 3 27.5 6t39 5.5t45 4t45.5 1.5q90 0 132.5 -27.5t42.5 -88.5q0 -23 -6.5 -42t-22 -36t-40 -33t-60.5 -32q-35 -16 -55.5 -28t-32 -24t-15 -25.5t-3.5 -33.5v-5h227v-81h-331v55q0 41 7.5 70.5t24.5 52t44.5 41t66.5 37.5q30 15 48 25t27.5 19t12 17.5
t2.5 19.5q0 23 -18.5 33t-65.5 10q-19 0 -40.5 -1t-41 -2t-35.5 -2.5t-25 -1.5v66z" />
    <glyph glyph-name="three.numerator" horiz-adv-x="460" 
d="M208 292q-23 0 -46.5 2t-44.5 4.5t-36.5 5.5t-22.5 6v67q9 -1 25 -2t35.5 -2l40.5 -2t39 -1q45 0 66 11.5t21 49.5v9q0 12 -2.5 22t-10 17t-21.5 11t-38 4h-131v73h132q24 0 38 4t21.5 11.5t9.5 17.5t2 22v6q0 30 -18 41t-69 11q-38 0 -77 -2.5t-63 -4.5v67q7 3 23 6
t36.5 5.5t44 4.5t46.5 2q88 0 135 -26.5t47 -95.5v-7q0 -29 -12.5 -56t-43.5 -42q32 -14 44 -40t12 -55v-9q0 -73 -45 -104t-137 -31z" />
    <glyph glyph-name="four.numerator" horiz-adv-x="482" 
d="M258 302v102h-219v77l233 268h91v-269h66v-76h-66v-102h-105zM263 633l-136 -153h136v153z" />
    <glyph glyph-name="five.numerator" horiz-adv-x="461" 
d="M168 670l-10 -92h52q100 0 141.5 -30.5t41.5 -101.5v-10q0 -79 -49.5 -111.5t-136.5 -32.5q-51 0 -92.5 6.5t-58.5 10.5v69l66 -6t66 -3q55 0 76.5 14.5t21.5 50.5v11q0 17 -4 28t-15 18t-29.5 9.5t-46.5 2.5h-130l22 246h294v-79h-209z" />
    <glyph glyph-name="six.numerator" horiz-adv-x="487" 
d="M393 671q-27 3 -65.5 5.5t-75.5 2.5q-33 0 -52 -6t-29 -17t-13 -28t-3 -39v-14q19 5 45.5 8t44.5 3q35 0 66.5 -4.5t55 -18.5t37 -39.5t13.5 -66.5v-17q0 -43 -16 -71.5t-41.5 -45.5t-57.5 -24t-65 -7q-92 0 -139 42t-47 147v92q0 43 8.5 77.5t30 58.5t58 36.5t93.5 12.5
q48 0 91 -6t61 -11v-70zM312 456q0 40 -20 51.5t-56 11.5q-15 0 -37 -2t-44 -7v-45q0 -31 6 -50t16.5 -30t25.5 -15t34 -4q32 0 53.5 17t21.5 57v16z" />
    <glyph glyph-name="seven.numerator" horiz-adv-x="458" 
d="M60 749h336v-88l-206 -359h-112l214 368h-232v79z" />
    <glyph glyph-name="eight.numerator" horiz-adv-x="501" 
d="M428 430q0 -47 -15.5 -74.5t-41.5 -41.5t-60.5 -18t-72.5 -4q-37 0 -70.5 4t-59.5 18t-41.5 41.5t-15.5 74.5v5q0 67 50 97q-23 16 -36 38.5t-13 57.5v6q0 39 15 63.5t41 38t60.5 18t72.5 4.5q37 0 70.5 -4.5t59 -18t40.5 -38t15 -63.5v-6q0 -35 -13 -57.5t-36 -38.5
q51 -30 51 -97v-5zM325 432q0 36 -11 51.5t-42 15.5h-65q-31 0 -42 -15.5t-11 -51.5q0 -44 23.5 -56t63.5 -12q19 0 34.5 2.5t26.5 9.5t17 20.5t6 35.5zM323 624q0 39 -23 50.5t-62 11.5q-37 0 -60 -11.5t-23 -50.5q0 -26 10.5 -41t41.5 -15h65q31 0 41 15t10 41z" />
    <glyph glyph-name="nine.numerator" horiz-adv-x="487" 
d="M73 378q11 -1 27.5 -2t35.5 -2.5t39.5 -2.5t40.5 -1q32 0 51 6t29 17.5t13 28.5t3 39v14q-19 -5 -45.5 -7.5t-44.5 -2.5q-35 0 -66.5 4.5t-55 18.5t-37 39.5t-13.5 66.5v16q0 43 16 71.5t41.5 45.5t58 24t65.5 7q91 0 138 -42t47 -147v-91q0 -44 -8.5 -78.5t-30 -58.5
t-58 -36.5t-93.5 -12.5q-24 0 -47.5 2t-44 4.5t-36.5 5.5t-25 5v69zM312 586q0 30 -5.5 49.5t-16.5 30.5t-26.5 15t-34.5 4q-31 0 -52.5 -17t-21.5 -58v-15q0 -40 20 -51.5t55 -11.5q16 0 38 1.5t44 6.5v46z" />
    <glyph glyph-name="comma.numerator" horiz-adv-x="268" 
d="M128 247h-81l54 155h100z" />
    <glyph glyph-name="period.numerator" horiz-adv-x="224" 
d="M154 402v-96h-98v66q1 8 5 15q4 5 11 10t21 5h61z" />
    <glyph glyph-name="cent.numerator" horiz-adv-x="409" 
d="M350 306q-13 -4 -36 -7t-48 -4v-77h-89v83q-61 14 -96.5 62t-35.5 142v44q0 88 32.5 139t99.5 65v78h89v-72q25 -2 48 -5t36 -6v-84q-24 2 -51 3.5t-49 1.5q-56 0 -77 -27t-21 -93v-44q0 -32 4 -55t15 -37.5t30 -21t49 -6.5q27 0 54.5 1.5t45.5 3.5v-84v0z" />
    <glyph glyph-name="dollar.numerator" horiz-adv-x="441" 
d="M57 385q22 -2 59.5 -4.5t82.5 -2.5q44 0 61 12t17 35q0 17 -12.5 28.5t-44.5 24.5l-67 26q-49 19 -78 48.5t-29 83.5q0 104 124 120v78h92v-75q35 -2 64.5 -6.5t42.5 -7.5v-76q-36 3 -76 6t-66 3q-36 0 -57 -9t-21 -31q0 -17 11.5 -28.5t43.5 -22.5l67 -23q54 -19 83 -50
t29 -82q0 -57 -32 -90.5t-89 -42.5v-81h-92v78q-35 1 -65 5t-48 8v76z" />
    <glyph glyph-name="hyphen.numerator" horiz-adv-x="268" 
d="M201 546v-78h-149v48q1 8 5 15q4 5 11 10t21 5h112z" />
    <glyph glyph-name="parenleft.numerator" horiz-adv-x="299" 
d="M145 227q-14 18 -29 44.5t-27.5 60t-20.5 73t-8 84.5v5q0 45 8 84.5t20.5 73t27.5 60.5t29 46h95q-33 -50 -56.5 -115t-23.5 -149v-5q0 -85 23.5 -149.5t56.5 -112.5h-95z" />
    <glyph glyph-name="parenright.numerator" horiz-adv-x="299" 
d="M224 489q0 -45 -8 -84.5t-20.5 -73t-27.5 -60t-29 -44.5h-95q34 48 57 112.5t23 149.5v5q0 84 -23 149t-57 115h95q14 -19 29 -46t27.5 -60.5t20.5 -73t8 -84.5v-5v0z" />
    <glyph glyph-name="parenleft.cap" horiz-adv-x="332" 
d="M173 0q-19 25 -39.5 63t-38 86t-28.5 103.5t-11 116.5v6q0 61 11 116.5t28.5 102.5t38 85t39.5 64h108q-48 -72 -78.5 -165.5t-30.5 -202.5v-6q0 -110 30 -203t79 -166h-108z" />
    <glyph glyph-name="parenright.cap" horiz-adv-x="332" 
d="M275 369q0 -61 -11 -116.5t-28 -103.5t-38 -86t-40 -63h-107q48 73 78 166t30 203v6q0 109 -30 202.5t-78 165.5h107q19 -26 40 -64t38 -85t28 -102.5t11 -116.5v-6v0z" />
    <glyph glyph-name="bracketleft.cap" horiz-adv-x="361" 
d="M78 0v743h220v-97h-102v-550h102v-96h-220z" />
    <glyph glyph-name="bracketright.cap" horiz-adv-x="361" 
d="M48 0v96h103v550h-103v97h219v-743h-219z" />
    <glyph glyph-name="braceleft.cap" horiz-adv-x="380" 
d="M269 0q-55 0 -90 8.5t-54.5 26.5t-26.5 46.5t-7 68.5v91q0 21 -2.5 35t-8.5 24.5t-15.5 18.5t-23.5 17v70q14 9 23.5 17t15.5 18.5t8.5 24.5t2.5 35v91q0 41 7 69.5t26.5 46.5t54.5 26.5t90 8.5h51v-99h-50q-20 0 -32 -1.5t-18.5 -7t-8.5 -16t-2 -27.5v-91
q0 -52 -13.5 -80t-45.5 -50q32 -22 46 -50t14 -80v-91q0 -17 2 -27.5t8 -16t18 -7t32 -1.5h50v-98h-51z" />
    <glyph glyph-name="braceright.cap" horiz-adv-x="380" 
d="M320 336q-14 -9 -23.5 -17t-15 -18.5t-8 -24.5t-2.5 -35v-91q0 -40 -7.5 -68.5t-27 -46.5t-54.5 -26.5t-90 -8.5h-51v98h51q20 0 32 1.5t18 7t8 16t2 27.5v91q0 52 14 80t45 50q-32 22 -45.5 50t-13.5 80v91q0 17 -2 27.5t-8 16t-18 7t-32 1.5h-51v99h51q55 0 90 -8.5
t54.5 -26.5t27 -46.5t7.5 -69.5v-91q0 -21 2.5 -35t8 -24.5t15 -18.5t23.5 -17v-70v0z" />
    <glyph glyph-name="exclamdown.cap" horiz-adv-x="315" 
d="M78 -34l13 566h119l13 -566h-145zM218 743v-153h-136v123q1 8 5 15q4 5 11 10t21 5h99z" />
    <glyph glyph-name="questiondown.cap" horiz-adv-x="521" 
d="M285 -47q-109 0 -166 38.5t-57 126.5v8q0 25 5 47.5t17 45t31.5 46.5t49.5 53q34 34 54 58t30.5 43.5t13 38t2.5 41.5v32h120v-32q0 -32 -2.5 -58t-11.5 -50t-26.5 -49t-47.5 -55q-26 -27 -43 -46.5t-27 -36t-13.5 -30.5t-3.5 -30v-7q0 -41 27.5 -54.5t82.5 -13.5
q35 0 76 3l80 6v-97q-40 -13 -89 -20.5t-102 -7.5zM390 743v-154h-132v124q1 8 5 15q4 5 11 10t21 5h95z" />
    <glyph glyph-name="guillemotleft.cap" horiz-adv-x="739" 
d="M529 167l-159 217l159 215h143l-154 -215l154 -217h-143zM352 167h-143l-159 217l159 215h143l-154 -215z" />
    <glyph glyph-name="guillemotright.cap" horiz-adv-x="739" 
d="M515 167h-142l153 217l-153 215h142l159 -215zM354 384l-159 -217h-143l154 217l-154 215h143z" />
    <glyph glyph-name="guilsinglleft.cap" horiz-adv-x="418" 
d="M208 167l-158 217l158 215h143l-153 -215l153 -217h-143z" />
    <glyph glyph-name="guilsinglright.cap" horiz-adv-x="418" 
d="M195 167h-143l153 217l-153 215h143l158 -215z" />
    <glyph glyph-name="hyphen.cap" horiz-adv-x="391" 
d="M66 340v96h244v-96h-244z" />
    <glyph glyph-name="endash.cap" horiz-adv-x="499" 
d="M66 340v96h352v-96h-352z" />
    <glyph glyph-name="emdash.cap" horiz-adv-x="675" 
d="M66 340v96h529v-96h-529z" />
    <glyph glyph-name="periodcentered.cap" horiz-adv-x="291" 
d="M200 464v-155h-124v125q1 8 5 15q4 5 11 10t21 5h87z" />
    <glyph glyph-name="at.cap" horiz-adv-x="873" 
d="M808 463q0 -70 -18.5 -129t-61.5 -101.5t-113.5 -66.5t-174.5 -24q-112 0 -163 37t-51 120q0 14 1 38t3 41q6 59 22.5 98.5t42.5 63.5t62 34.5t80 10.5q48 0 91.5 -6t81.5 -15l-33 -321q78 19 113 76t35 145q0 224 -260 224q-137 0 -215 -69.5t-106 -219.5
q-5 -31 -8.5 -64.5t-3.5 -69.5q0 -53 13 -93.5t43.5 -68.5t80.5 -42.5t123 -14.5q29 0 59 1t55.5 2.5t44 3t24.5 2.5v-56q-9 -2 -27.5 -4.5t-43.5 -5t-54 -4.5t-58 -2q-91 0 -155.5 19t-106 55t-61 88.5t-19.5 119.5q0 39 3.5 76.5t9.5 69.5q32 176 132.5 260.5t273.5 84.5
q165 0 252 -75t87 -218zM493 494q-12 2 -28.5 2h-30.5q-20 0 -36.5 -4t-29.5 -17t-21.5 -37.5t-11.5 -65.5q-2 -29 -3 -45.5t-1 -28.5q0 -42 22 -57.5t76 -15.5h19t19 1z" />
    <glyph glyph-name="T_h" horiz-adv-x="1167" 
d="M950 0v355q0 65 -20 88t-69 23q-40 0 -77.5 -10t-60.5 -21v-435h-132v627h-201v-627h-140v627h-222v116h695v-208q30 15 75.5 28.5t99.5 13.5q52 0 87.5 -15t57 -43.5t30.5 -69.5t9 -92v-357h-132z" />
    <glyph glyph-name="A.alt" horiz-adv-x="719" 
d="M219 631l-55 5v107h293l225 -743h-147l-64 208h-239l-66 -208h-143zM382 528q-8 28 -14.5 57.5t-11.5 59.5h-9l-12 -59.5t-14 -57.5l-63 -205h186z" />
    <glyph glyph-name="B.alt" horiz-adv-x="689" 
d="M79 629l-51 7v107q75 3 140.5 4.5t129.5 1.5q75 0 134.5 -8t101 -30.5t64 -61.5t22.5 -102v-9q0 -48 -22 -90.5t-72 -65.5q53 -22 75.5 -65.5t22.5 -91.5v-10q0 -70 -24.5 -113t-68.5 -67t-104.5 -32.5t-132.5 -8.5q-32 0 -56.5 0.5l-48.5 1t-50 1.5t-60 3v629zM487 226
q0 24 -6.5 44t-23 33.5t-44.5 21t-71 7.5h-127v-223h87q45 0 80 4t58 15t35 32t12 55v11zM484 542q0 31 -11.5 49.5t-34.5 28t-56.5 12t-76.5 2.5h-90v-201h126q43 0 71 7t44 20t22 31.5t6 41.5v9z" />
    <glyph glyph-name="C.alt" horiz-adv-x="601" 
d="M556 3q-13 -3 -34.5 -6.5t-47.5 -6t-53.5 -4.5t-51.5 -2q-72 0 -130.5 15.5t-100 54t-64 103.5t-22.5 165v99q0 100 22.5 165t64 103t100 53.5t130.5 15.5q24 0 51.5 -2t53.5 -5t47.5 -6.5t34.5 -6.5v-170h-94l-9 66q-18 1 -37 1.5t-38 0.5q-47 0 -82 -9.5t-58 -34
t-34.5 -66t-11.5 -105.5v-99q0 -64 11.5 -106t34.5 -66.5t58 -34t82 -9.5q44 0 93.5 2.5t84.5 4.5v-110z" />
    <glyph glyph-name="D.alt" horiz-adv-x="720" 
d="M79 630l-52 8v105q135 6 284 6q181 0 262 -83t81 -246v-94q0 -82 -19 -144t-60 -104t-106 -63t-158 -21q-34 0 -62 0.5l-54.5 1t-54 1.5t-61.5 3v630zM515 420q0 61 -12 101.5t-37.5 64.5t-64.5 34t-93 10h-92v-518h92q54 0 93 10.5t64.5 35.5t37.5 66t12 102v94z" />
    <glyph glyph-name="E.alt" horiz-adv-x="618" 
d="M219 627v-189h312v-112h-312v-211h333v-115h-473v631l-50 5v107h523v-116h-333z" />
    <glyph glyph-name="F.alt" horiz-adv-x="608" 
d="M79 631l-51 5v107h524v-117h-333v-188h312v-112h-312v-326h-140v631z" />
    <glyph glyph-name="G.alt" horiz-adv-x="683" 
d="M606 7q-31 -7 -96.5 -15t-146.5 -8q-64 0 -120.5 14.5t-99 52t-67 102.5t-24.5 166v105q0 71 12.5 123.5t34.5 89.5t52 60.5t65 37t73 18.5t77 5q41 0 80 -3t71.5 -7t55.5 -8t32 -7v-165h-92l-11 64q-23 2 -53 3t-59 1q-45 0 -82 -7t-63 -29.5t-40 -64.5t-14 -111v-105
q0 -64 11.5 -105t34.5 -65t57 -33.5t79 -9.5q28 0 54 0.5t46 2.5v185l-92 8v94h225v-389v0z" />
    <glyph glyph-name="H.alt" horiz-adv-x="777" 
d="M544 0v327h-325v-327h-140v632l-51 4v107h191v-296h325v296h140v-743h-140z" />
    <glyph glyph-name="I.alt" horiz-adv-x="318" 
d="M31 0v106l51 5v521l-51 4v107h241v-107l-50 -4v-521l50 -5v-106h-241z" />
    <glyph glyph-name="J.alt" horiz-adv-x="317" 
d="M221 632v-669q0 -47 -9.5 -81t-30.5 -56t-54.5 -32t-81.5 -10q-21 0 -47 2t-39 6v96h61q21 0 33.5 4t18.5 12t8 21.5t2 33.5v673l-51 4v107h240v-107z" />
    <glyph glyph-name="K.alt" horiz-adv-x="700" 
d="M499 0l-276 350v-350h-140v632l-50 4v107h190v-346l286 346h168l-307 -366l305 -377h-176z" />
    <glyph glyph-name="M.alt" horiz-adv-x="869" 
d="M640 0v412q0 35 1.5 64t3.5 64h-2q-12 -28 -25 -53l-26 -50l-110 -209h-111l-108 209l-24.5 51l-25.5 52h-2q2 -35 3 -63.5t1 -64.5v-412h-136v632l-51 4v107h203l149 -291l22.5 -46.5l22.5 -47.5h2l23 48.5l23 47.5l151 289h152v-743h-136z" />
    <glyph glyph-name="N.alt" horiz-adv-x="755" 
d="M499 0l-238 441l-28.5 54.5l-27.5 56.5h-2q2 -32 3 -65.5t1 -67.5v-419h-128v632l-51 4v107h213l237 -432q14 -25 29.5 -55.5t27.5 -57.5h2q-2 33 -3 70t-1 71v404h129v-743h-163z" />
    <glyph glyph-name="P.alt" horiz-adv-x="662" 
d="M79 0v632l-51 4v107q61 3 128.5 4t131.5 1q68 0 127.5 -8.5t104 -33.5t70 -71t25.5 -120v-11q0 -75 -25.5 -121.5t-69 -72t-101 -34.5t-122.5 -9h-18.5h-16.5t-20 0.5t-27 0.5v-268h-136zM215 386q14 -1 35.5 -1h44.5q46 0 80 5t57 18t34.5 36t11.5 60v11q0 37 -12 59.5
t-35 35t-57 16.5t-80 4h-79v-244z" />
    <glyph glyph-name="Q.alt" horiz-adv-x="729" 
d="M663 326q0 -153 -63.5 -236t-177.5 -100v-174h-132v175q-113 18 -175.5 100.5t-62.5 234.5v90q0 89 21.5 153.5t61 106.5t96 62t126.5 20t126.5 -20t96.5 -62t61.5 -106.5t21.5 -153.5v-90zM524 416q0 62 -12 104t-33.5 68t-52.5 37t-69 11t-68.5 -11t-52.5 -37
t-33.5 -68t-11.5 -104v-90q0 -62 12 -104t33.5 -68t52 -37.5t68.5 -11.5t69 11.5t52.5 37.5t33.5 68t12 104v90z" />
    <glyph glyph-name="R.alt" horiz-adv-x="691" 
d="M512 0l-161 275q-14 -1 -30.5 -1h-31.5h-74v-274h-136v632l-51 4v107q47 2 115 3.5t144 1.5q67 0 126.5 -8.5t104 -34t70.5 -71t26 -118.5v-7q0 -85 -34 -132.5t-94 -73.5l174 -303h-148zM477 514q0 36 -11.5 59t-34.5 35.5t-58.5 17t-83.5 4.5h-74v-244q19 -1 37.5 -1
h39.5q96 0 140.5 25.5t44.5 97.5v6z" />
    <glyph glyph-name="S.alt" horiz-adv-x="630" 
d="M69 114q45 -4 101 -8.5t122 -4.5q68 0 100.5 21t32.5 72q0 18 -4 33t-14.5 27.5t-29 23.5t-46.5 23l-117 48q-35 14 -65 33t-51.5 44.5t-34 58.5t-12.5 77q0 103 64 149.5t202 46.5q35 0 69.5 -2.5t64 -6t53 -8t36.5 -7.5v-158h-92l-12 63q-27 2 -57 2.5t-56 0.5
q-66 0 -100 -15.5t-34 -60.5q0 -17 4.5 -30t15 -24.5t28.5 -22t46 -21.5l117 -48q43 -18 74.5 -38.5t52 -47t30.5 -59.5t10 -75q0 -109 -68 -162.5t-196 -53.5q-36 0 -72 2t-67.5 5.5t-56 7.5t-38.5 8v107z" />
    <glyph glyph-name="U.alt" horiz-adv-x="745" 
d="M657 304q0 -161 -74.5 -240.5t-216.5 -79.5q-143 0 -217.5 79.5t-74.5 240.5v328l-51 5v106h189v-432q0 -56 7.5 -95.5t25 -64.5t47 -36t74.5 -11q44 0 73.5 11t47.5 36t25.5 64.5t7.5 95.5v432h137v-439v0z" />
    <glyph glyph-name="Z.alt" horiz-adv-x="655" 
d="M588 0h-535v127l366 498h-255l-9 -58h-90v176h511v-128l-365 -498h377v-117z" />
    <glyph glyph-name="a.alt" horiz-adv-x="591" 
d="M389 0v37q-26 -18 -72 -35t-106 -17q-79 0 -122 39.5t-43 121.5v21q0 56 19.5 89.5t54.5 51.5t84 23.5t108 5.5h67v35q0 30 -4 48.5t-17 29t-36 14.5t-60 4h-38.5t-38.5 -2l-10 -50h-90v130q9 4 28.5 9t46 10t58.5 8.5t66 3.5q67 0 111 -12t70 -36.5t36 -63.5t10 -93
v-372h-122zM382 256h-70q-36 0 -62.5 -3t-43 -12t-24.5 -25.5t-8 -44.5v-24q0 -39 22 -52.5t57 -13.5q20 0 40 3.5t37 9t30.5 11t21.5 10.5v141z" />
    <glyph glyph-name="b.alt" horiz-adv-x="630" 
d="M565 250q0 -71 -17 -121.5t-50 -82.5t-83 -46.5t-116 -14.5q-28 0 -52.5 1t-50.5 2.5t-55.5 4.5t-67.5 8v667l-50 5v104h182v-226q31 15 65.5 21t66.5 6q118 0 173 -60.5t55 -189.5v-78zM433 329q0 76 -25 106.5t-88 30.5q-9 0 -23.5 -1t-30.5 -3t-32.5 -6.5t-29.5 -10.5
v-343l41.5 -2.5t55.5 -1.5q34 0 59 7t41.5 24.5t24 47t7.5 73.5v79z" />
    <glyph glyph-name="c.alt" horiz-adv-x="519" 
d="M462 6q-20 -5 -64.5 -13t-109.5 -8q-122 0 -179.5 66.5t-57.5 194.5v71q0 130 57.5 195t179.5 65q62 0 109.5 -7.5t64.5 -13.5v-142h-89l-9 49q-13 1 -29 1.5t-26 0.5q-30 0 -53.5 -6t-39.5 -22.5t-24.5 -45t-8.5 -74.5v-71q0 -45 8.5 -74t25 -45.5t40 -23t54.5 -6.5
q44 0 151 9v-100v0z" />
    <glyph glyph-name="d.alt" horiz-adv-x="631" 
d="M420 0v29q-29 -18 -68.5 -31t-89.5 -13q-99 0 -154.5 61.5t-55.5 190.5v80q0 74 17.5 124t50 80t77 43t98.5 13q32 0 60 -3t57 -8v113l-55 5v93h187v-777h-124zM413 457q-29 5 -57 7.5t-48 2.5q-30 0 -53 -5.5t-39 -22t-24 -45.5t-8 -77v-80q0 -76 26.5 -108t88.5 -32
q31 0 59.5 7t54.5 18v335z" />
    <glyph glyph-name="g.alt" horiz-adv-x="612" 
d="M560 -38q0 -93 -64 -137t-200 -44q-135 0 -196 43t-61 135q0 31 13.5 62t38.5 54q-23 16 -34 36.5t-11 43.5q0 33 15.5 57.5t43.5 42.5q-21 22 -32.5 54t-11.5 77q0 41 10 76t37 60.5t74 40t121 14.5h258v-77l-53 -12q8 -11 20 -36.5t12 -65.5q0 -101 -60.5 -146
t-179.5 -45q-36 0 -66 4t-53 12q-12 -9 -19.5 -20t-7.5 -25q0 -17 11.5 -23.5t36.5 -6.5h94q62 0 111 -6t83 -24.5t52 -52.5t18 -91zM432 -40q0 25 -6 40.5t-21 24.5t-41.5 12.5t-68.5 3.5h-101q-12 -11 -20.5 -31.5t-8.5 -49.5q0 -22 5 -38.5t19 -27t39.5 -16t67.5 -5.5
q40 0 66.5 5.5t42 16t21.5 27t6 38.5zM415 386q0 23 -4.5 41t-17 30t-35 18.5t-58.5 6.5q-37 0 -59.5 -6.5t-34.5 -19t-15.5 -30.5t-3.5 -40q0 -23 4 -40.5t16.5 -30t34.5 -19t58 -6.5t58.5 6.5t35 19t17 30t4.5 40.5z" />
    <glyph glyph-name="h.alt" horiz-adv-x="649" 
d="M431 0v355q0 65 -20 88t-69 23q-41 0 -78 -10t-60 -21v-435h-131v667l-50 5v105h181v-242q29 16 75 29t100 13q52 0 87.5 -15t57 -43.5t31 -69.5t9.5 -92v-357h-133z" />
    <glyph glyph-name="i.alt" horiz-adv-x="301" 
d="M77 0v452l-49 6v105h182v-563h-133zM212 777v-127h-136v97q1 8 5 15q4 5 11 10t21 5h99z" />
    <glyph glyph-name="j.alt" horiz-adv-x="301" 
d="M210 -47q0 -49 -8.5 -82t-28 -53.5t-50.5 -29t-75 -8.5q-25 0 -49 2.5t-33 4.5v94q12 -1 26 -1h31q18 0 28.5 3.5t16 11.5t7.5 22.5t2 35.5v500l-49 5v105h182v-610zM212 777v-127h-136v97q1 8 5 15q4 5 11 10t21 5h99z" />
    <glyph glyph-name="k.alt" horiz-adv-x="587" 
d="M403 0l-199 267v-267h-131v667l-50 5v105h181v-465l200 251h151l-218 -270l224 -293h-158z" />
    <glyph glyph-name="l.alt" horiz-adv-x="300" 
d="M77 0v667l-49 5v105h181v-777h-132z" />
    <glyph glyph-name="m.alt" horiz-adv-x="923" 
d="M707 0v369q0 23 -1.5 41.5t-8 31t-21 19t-40.5 6.5q-24 0 -56 -9t-61 -25q2 -17 2.5 -33t0.5 -31v-369h-132v369q0 24 -1 42t-7.5 30.5t-19.5 19t-37 6.5q-31 0 -63 -11.5t-58 -24.5v-431h-131v453l-50 5v105h176v-45q35 27 78 43t90 16q51 0 81 -16t47 -45q48 33 92 47
t83 14q60 0 93.5 -18t50.5 -47t21 -66t4 -75v-371h-132z" />
    <glyph glyph-name="n.alt" horiz-adv-x="648" 
d="M431 0v357q0 30 -3 51t-12 34t-24.5 18.5t-39.5 5.5q-29 0 -66 -10t-82 -28v-428h-131v452l-50 6v105h176v-45q46 26 91.5 42.5t93.5 16.5q60 0 95.5 -16.5t54 -45.5t24.5 -69.5t6 -88.5v-357h-133z" />
    <glyph glyph-name="p.alt" horiz-adv-x="629" 
d="M73 -206v659l-50 5v105h173v-37q38 26 80.5 38.5t84.5 12.5q47 0 84.5 -14t64 -45.5t40.5 -82t14 -123.5v-52q0 -78 -18 -131t-51 -84.5t-78.5 -45t-100.5 -13.5q-26 0 -58 3.5t-54 8.5v-204h-131zM433 312q0 44 -6.5 73.5t-20 47t-34 24.5t-47.5 7t-54 -6t-68 -24v-327
q29 -5 55 -8t49 -3q30 0 53.5 6t39.5 24t24.5 50t8.5 84v52z" />
    <glyph glyph-name="r.alt" horiz-adv-x="420" 
d="M73 0v453l-50 5v105h175v-46q40 35 89.5 47.5t102.5 12.5v-121q-26 0 -52 -2.5t-50.5 -7t-46 -11t-37.5 -13.5v-422h-131z" />
    <glyph glyph-name="s.alt" horiz-adv-x="526" 
d="M54 102q34 -3 83.5 -8t102.5 -5q61 0 82.5 14.5t21.5 44.5q0 15 -4 25t-14.5 18.5t-30 17.5t-50.5 21l-43 17q-80 32 -118 71.5t-38 105.5q0 85 55 119t162 34q30 0 59.5 -2t56 -5.5t46.5 -7.5t31 -7v-129h-92l-10 45q-20 1 -43 1.5t-38 0.5q-51 0 -74 -8t-23 -38
q0 -13 4 -22t13.5 -16.5t26 -15.5t42.5 -18l47 -19q52 -21 84 -40.5t50 -40.5t24.5 -45.5t6.5 -57.5q0 -77 -55.5 -121.5t-172.5 -44.5q-29 0 -59.5 2.5t-56.5 5.5t-46.5 7t-29.5 7v94z" />
    <glyph glyph-name="u.alt" horiz-adv-x="649" 
d="M562 563v-563h-127v45q-51 -27 -98.5 -43.5t-96.5 -16.5q-55 0 -88.5 18t-51.5 48.5t-23.5 70t-5.5 83.5v248l-50 5v105h181v-358q0 -30 3.5 -51t12.5 -33.5t24.5 -18.5t40.5 -6q29 0 65.5 10.5t81.5 27.5v429h132z" />
    <glyph glyph-name="y.alt" horiz-adv-x="650" 
d="M564 -21q0 -46 -10.5 -82.5t-37.5 -62t-74 -39.5t-119 -14q-36 0 -72 3t-66.5 6.5t-52 7t-28.5 5.5v90q48 -3 104 -6t108 -3q39 0 62 6t34.5 17.5t15 29.5t3.5 42v22q-14 -2 -44 -5t-57 -3q-62 0 -110 14t-81 45.5t-50.5 80.5t-17.5 120v310h132v-310q0 -42 7 -71
t23 -46.5t41.5 -25t62.5 -7.5q13 0 27.5 0.5t28 1.5t24 2.5t15.5 2.5v453h132v-584v0z" />
    <glyph glyph-name="z.alt" horiz-adv-x="532" 
d="M474 0h-434v118l287 338h-183l-9 -42h-84v149h422v-116l-289 -342h290v-105z" />
    <glyph glyph-name="a.alt2" horiz-adv-x="630" 
d="M419 0v29q-29 -19 -68 -31t-89 -12q-100 0 -155.5 61t-55.5 190v80q0 75 17.5 125t51 80t83 42.5t113.5 12.5q44 0 106 -3t121 -11v-563h-124zM412 462q-27 2 -57 3.5t-44 1.5q-32 0 -55.5 -5.5t-40 -22t-24.5 -45.5t-8 -77v-80q0 -76 26.5 -108t88.5 -32q31 0 59.5 7
t54.5 18v340z" />
    <glyph glyph-name="u.alt2" horiz-adv-x="647" 
d="M562 259q0 -137 -58 -205.5t-188 -68.5q-128 0 -186.5 68.5t-58.5 205.5v304h131v-304q0 -84 24.5 -122.5t89.5 -38.5q64 0 89 38.5t25 122.5v304h132v-304v0z" />
    <glyph glyph-name="Aacute.alt" horiz-adv-x="719" 
d="M386 789h-127l132 149h153zM219 631l-55 5v107h293l225 -743h-147l-64 208h-239l-66 -208h-143zM382 528q-8 28 -14.5 57.5t-11.5 59.5h-9l-12 -59.5t-14 -57.5l-63 -205h186z" />
    <glyph glyph-name="Acircumflex.alt" horiz-adv-x="719" 
d="M447 789l-95 91l-96 -91h-121l135 149h164l135 -149h-122zM219 631l-55 5v107h293l225 -743h-147l-64 208h-239l-66 -208h-143zM382 528q-8 28 -14.5 57.5t-11.5 59.5h-9l-12 -59.5t-14 -57.5l-63 -205h186z" />
    <glyph glyph-name="Adieresis.alt" horiz-adv-x="719" 
d="M417 803v124h111v-124h-111zM219 631l-55 5v107h293l225 -743h-147l-64 208h-239l-66 -208h-143zM382 528q-8 28 -14.5 57.5t-11.5 59.5h-9l-12 -59.5t-14 -57.5l-63 -205h186zM287 927v-124h-112v94q1 8 5 15q4 5 11 10t21 5h75z" />
    <glyph glyph-name="Agrave.alt" horiz-adv-x="719" 
d="M313 789l-158 149h153l131 -149h-126zM219 631l-55 5v107h293l225 -743h-147l-64 208h-239l-66 -208h-143zM382 528q-8 28 -14.5 57.5t-11.5 59.5h-9l-12 -59.5t-14 -57.5l-63 -205h186z" />
    <glyph glyph-name="Aring.alt" horiz-adv-x="719" 
d="M481 896q0 -60 -36.5 -88.5t-91.5 -28.5q-56 0 -93.5 29t-37.5 88t37.5 88t93.5 29q55 0 91.5 -28.5t36.5 -88.5zM408 896q0 28 -16 39.5t-39 11.5q-24 0 -40 -11.5t-16 -39.5q0 -27 16 -39t40 -12q23 0 39 12t16 39zM219 631l-55 5v107h293l225 -743h-147l-64 208h-239
l-66 -208h-143zM382 528q-8 28 -14.5 57.5t-11.5 59.5h-9l-12 -59.5t-14 -57.5l-63 -205h186z" />
    <glyph glyph-name="Atilde.alt" horiz-adv-x="719" 
d="M565 917q0 -134 -108 -134q-49 0 -104 35l-44 28q-17 12 -29 18t-26 6q-20 0 -26.5 -13.5t-6.5 -39.5v-28h-82v28q0 69 28.5 101t82.5 32q27 0 48.5 -7t49.5 -25l45 -29q16 -11 29.5 -17.5t28.5 -6.5q20 0 26.5 13t6.5 39v27h81v-27zM219 631l-55 5v107h293l225 -743
h-147l-64 208h-239l-66 -208h-143zM382 528q-8 28 -14.5 57.5t-11.5 59.5h-9l-12 -59.5t-14 -57.5l-63 -205h186z" />
    <glyph glyph-name="Ccedilla.alt" horiz-adv-x="601" 
d="M290 -206h-126l111 141h149zM556 3q-13 -3 -34.5 -6.5t-47.5 -6t-53.5 -4.5t-51.5 -2q-72 0 -130.5 15.5t-100 54t-64 103.5t-22.5 165v99q0 100 22.5 165t64 103t100 53.5t130.5 15.5q24 0 51.5 -2t53.5 -5t47.5 -6.5t34.5 -6.5v-170h-94l-9 66q-18 1 -37 1.5t-38 0.5
q-47 0 -82 -9.5t-58 -34t-34.5 -66t-11.5 -105.5v-99q0 -64 11.5 -106t34.5 -66.5t58 -34t82 -9.5q44 0 93.5 2.5t84.5 4.5v-110z" />
    <glyph glyph-name="Eacute.alt" horiz-adv-x="618" 
d="M358 789h-127l132 149h153zM219 627v-189h312v-112h-312v-211h333v-115h-473v631l-50 5v107h523v-116h-333z" />
    <glyph glyph-name="Ecircumflex.alt" horiz-adv-x="618" 
d="M407 789l-96 91l-95 -91h-122l135 149h164l135 -149h-121zM219 627v-189h312v-112h-312v-211h333v-115h-473v631l-50 5v107h523v-116h-333z" />
    <glyph glyph-name="Edieresis.alt" horiz-adv-x="618" 
d="M369 803v123h110v-123h-110zM219 627v-189h312v-112h-312v-211h333v-115h-473v631l-50 5v107h523v-116h-333zM238 926v-123h-111v93q1 8 5 15q4 5 11 10t21 5h74z" />
    <glyph glyph-name="Egrave.alt" horiz-adv-x="618" 
d="M264 789l-159 149h154l131 -149h-126zM219 627v-189h312v-112h-312v-211h333v-115h-473v631l-50 5v107h523v-116h-333z" />
    <glyph glyph-name="Eth.alt" horiz-adv-x="720" 
d="M654 326q0 -82 -19 -144t-60 -104t-106 -63t-158 -21q-115 0 -232 6v328h-52v110h52v192l-52 8v105q69 3 141.5 4.5t142.5 1.5q181 0 262 -83t81 -246v-94zM216 112h92q54 0 93 10.5t64.5 35.5t37.5 66t12 102v94q0 61 -12 101.5t-37.5 64.5t-64.5 34t-93 10h-92v-192
h130v-110h-130v-216z" />
    <glyph glyph-name="Iacute.alt" horiz-adv-x="318" 
d="M183 789h-126l131 149h154zM31 0v106l51 5v521l-51 4v107h241v-107l-50 -4v-521l50 -5v-106h-241z" />
    <glyph glyph-name="Icircumflex.alt" horiz-adv-x="318" 
d="M248 789l-96 91l-95 -91h-121l135 149h164l134 -149h-121zM31 0v106l51 5v521l-51 4v107h241v-107l-50 -4v-521l50 -5v-106h-241z" />
    <glyph glyph-name="Idieresis.alt" horiz-adv-x="318" 
d="M216 803v124h111v-124h-111zM31 0v106l51 5v521l-51 4v107h241v-107l-50 -4v-521l50 -5v-106h-241zM86 927v-124h-111v94q1 8 5 15q4 5 11 10t21 5h74z" />
    <glyph glyph-name="Igrave.alt" horiz-adv-x="318" 
d="M125 789l-158 149h153l131 -149h-126zM31 0v106l51 5v521l-51 4v107h241v-107l-50 -4v-521l50 -5v-106h-241z" />
    <glyph glyph-name="Ntilde.alt" horiz-adv-x="755" 
d="M582 917q0 -134 -108 -134q-49 0 -103 35l-44 28q-17 12 -29.5 18t-26.5 6q-20 0 -26.5 -13.5t-6.5 -39.5v-28h-82v28q0 69 29 101t83 32q26 0 47.5 -7t49.5 -25l45 -29q17 -11 30 -17.5t28 -6.5q20 0 26.5 13t6.5 39v27h81v-27zM499 0l-238 441l-28.5 54.5l-27.5 56.5
h-2q2 -32 3 -65.5t1 -67.5v-419h-128v632l-51 4v107h213l237 -432q14 -25 29.5 -55.5t27.5 -57.5h2q-2 33 -3 70t-1 71v404h129v-743h-163z" />
    <glyph glyph-name="Scaron.alt" horiz-adv-x="630" 
d="M214 938l96 -91l95 91h122l-135 -149h-164l-135 149h121zM69 114q45 -4 101 -8.5t122 -4.5q68 0 100.5 21t32.5 72q0 18 -4 33t-14.5 27.5t-29 23.5t-46.5 23l-117 48q-35 14 -65 33t-51.5 44.5t-34 58.5t-12.5 77q0 103 64 149.5t202 46.5q35 0 69.5 -2.5t64 -6t53 -8
t36.5 -7.5v-158h-92l-12 63q-27 2 -57 2.5t-56 0.5q-66 0 -100 -15.5t-34 -60.5q0 -17 4.5 -30t15 -24.5t28.5 -22t46 -21.5l117 -48q43 -18 74.5 -38.5t52 -47t30.5 -59.5t10 -75q0 -109 -68 -162.5t-196 -53.5q-36 0 -72 2t-67.5 5.5t-56 7.5t-38.5 8v107z" />
    <glyph glyph-name="Uacute.alt" horiz-adv-x="745" 
d="M411 789h-127l132 149h153zM657 304q0 -161 -74.5 -240.5t-216.5 -79.5q-143 0 -217.5 79.5t-74.5 240.5v328l-51 5v106h189v-432q0 -56 7.5 -95.5t25 -64.5t47 -36t74.5 -11q44 0 73.5 11t47.5 36t25.5 64.5t7.5 95.5v432h137v-439z" />
    <glyph glyph-name="Ucircumflex.alt" horiz-adv-x="745" 
d="M460 789l-95 91l-96 -91h-121l135 149h164l135 -149h-122zM657 304q0 -161 -74.5 -240.5t-216.5 -79.5q-143 0 -217.5 79.5t-74.5 240.5v328l-51 5v106h189v-432q0 -56 7.5 -95.5t25 -64.5t47 -36t74.5 -11q44 0 73.5 11t47.5 36t25.5 64.5t7.5 95.5v432h137v-439z" />
    <glyph glyph-name="Udieresis.alt" horiz-adv-x="745" 
d="M430 803v124h111v-124h-111zM657 304q0 -161 -74.5 -240.5t-216.5 -79.5q-143 0 -217.5 79.5t-74.5 240.5v328l-51 5v106h189v-432q0 -56 7.5 -95.5t25 -64.5t47 -36t74.5 -11q44 0 73.5 11t47.5 36t25.5 64.5t7.5 95.5v432h137v-439zM300 927v-93v-31h-27h-84v94
q1 8 5 15q4 5 11 10t21 5h74z" />
    <glyph glyph-name="Ugrave.alt" horiz-adv-x="745" 
d="M312 789l-158 149h153l131 -149h-126zM657 304q0 -161 -74.5 -240.5t-216.5 -79.5q-143 0 -217.5 79.5t-74.5 240.5v328l-51 5v106h189v-432q0 -56 7.5 -95.5t25 -64.5t47 -36t74.5 -11q44 0 73.5 11t47.5 36t25.5 64.5t7.5 95.5v432h137v-439z" />
    <glyph glyph-name="Zcaron.alt" horiz-adv-x="655" 
d="M231 938l95 -91l96 91h121l-134 -149h-164l-135 149h121zM588 0h-535v127l366 498h-255l-9 -58h-90v176h511v-128l-365 -498h377v-117z" />
    <glyph glyph-name="aacute.alt" horiz-adv-x="591" 
d="M336 626h-126l131 148h153zM389 0v37q-26 -18 -72 -35t-106 -17q-79 0 -122 39.5t-43 121.5v21q0 56 19.5 89.5t54.5 51.5t84 23.5t108 5.5h67v35q0 30 -4 48.5t-17 29t-36 14.5t-60 4h-38.5t-38.5 -2l-10 -50h-90v130q9 4 28.5 9t46 10t58.5 8.5t66 3.5q67 0 111 -12
t70 -36.5t36 -63.5t10 -93v-372h-122zM382 256h-70q-36 0 -62.5 -3t-43 -12t-24.5 -25.5t-8 -44.5v-24q0 -39 22 -52.5t57 -13.5q20 0 40 3.5t37 9t30.5 11t21.5 10.5v141z" />
    <glyph glyph-name="acircumflex.alt" horiz-adv-x="591" 
d="M395 626l-96 90l-95 -90h-121l135 148h163l135 -148h-121zM389 0v37q-26 -18 -72 -35t-106 -17q-79 0 -122 39.5t-43 121.5v21q0 56 19.5 89.5t54.5 51.5t84 23.5t108 5.5h67v35q0 30 -4 48.5t-17 29t-36 14.5t-60 4h-38.5t-38.5 -2l-10 -50h-90v130q9 4 28.5 9t46 10
t58.5 8.5t66 3.5q67 0 111 -12t70 -36.5t36 -63.5t10 -93v-372h-122zM382 256h-70q-36 0 -62.5 -3t-43 -12t-24.5 -25.5t-8 -44.5v-24q0 -39 22 -52.5t57 -13.5q20 0 40 3.5t37 9t30.5 11t21.5 10.5v141z" />
    <glyph glyph-name="adieresis.alt" horiz-adv-x="591" 
d="M364 645v124h111v-124h-111zM389 0v37q-26 -18 -72 -35t-106 -17q-79 0 -122 39.5t-43 121.5v21q0 56 19.5 89.5t54.5 51.5t84 23.5t108 5.5h67v35q0 30 -4 48.5t-17 29t-36 14.5t-60 4h-38.5t-38.5 -2l-10 -50h-90v130q9 4 28.5 9t46 10t58.5 8.5t66 3.5q67 0 111 -12
t70 -36.5t36 -63.5t10 -93v-372h-122zM382 256h-70q-36 0 -62.5 -3t-43 -12t-24.5 -25.5t-8 -44.5v-24q0 -39 22 -52.5t57 -13.5q20 0 40 3.5t37 9t30.5 11t21.5 10.5v141zM234 769v-124h-112v94q1 8 5 15q4 5 11 10t21 5h75z" />
    <glyph glyph-name="agrave.alt" horiz-adv-x="591" 
d="M265 626l-158 148h153l131 -148h-126zM389 0v37q-26 -18 -72 -35t-106 -17q-79 0 -122 39.5t-43 121.5v21q0 56 19.5 89.5t54.5 51.5t84 23.5t108 5.5h67v35q0 30 -4 48.5t-17 29t-36 14.5t-60 4h-38.5t-38.5 -2l-10 -50h-90v130q9 4 28.5 9t46 10t58.5 8.5t66 3.5
q67 0 111 -12t70 -36.5t36 -63.5t10 -93v-372h-122zM382 256h-70q-36 0 -62.5 -3t-43 -12t-24.5 -25.5t-8 -44.5v-24q0 -39 22 -52.5t57 -13.5q20 0 40 3.5t37 9t30.5 11t21.5 10.5v141z" />
    <glyph glyph-name="ampersand.alt" horiz-adv-x="810" 
d="M595 0l-47 44q-36 -26 -90.5 -42.5t-132.5 -16.5q-54 0 -101.5 9t-83.5 31.5t-56.5 60t-20.5 93.5v6q0 31 6.5 58.5t22.5 52t43 47t68 43.5l-10 10q-24 24 -42.5 44.5t-30.5 41.5t-18.5 44t-6.5 51v10q0 91 63 131t178 40t174.5 -40t59.5 -131v-10q0 -30 -7 -56.5
t-26.5 -51.5t-54.5 -51t-90 -55l161 -151q18 35 24.5 74t6.5 81v20h109v-20q0 -25 -2 -54.5t-8 -60.5t-17.5 -62.5t-30.5 -60.5l108 -103v-26h-148zM286 302q-48 -24 -67 -51.5t-19 -65.5v-6q0 -27 10.5 -45t29 -29t42.5 -15.5t51 -4.5q46 0 80.5 9.5t59.5 26.5zM436 580
q0 41 -26 54t-74 13q-47 0 -76.5 -13.5t-29.5 -53.5v-10q0 -17 3 -29.5t11.5 -25.5t23.5 -28t39 -37l10 -11q37 21 60.5 37.5t36.5 31.5t17.5 30t4.5 33v9z" />
    <glyph glyph-name="aring.alt" horiz-adv-x="591" 
d="M428 730q0 -60 -36.5 -88.5t-91.5 -28.5q-56 0 -93.5 29t-37.5 88q0 29 10 51t27.5 36.5t41.5 22t52 7.5q55 0 91.5 -29t36.5 -88zM355 730q0 28 -16 39.5t-39 11.5q-24 0 -40 -11.5t-16 -39.5q0 -27 15.5 -39t40.5 -12q23 0 39 12t16 39zM389 0v37q-26 -18 -72 -35
t-106 -17q-79 0 -122 39.5t-43 121.5v21q0 56 19.5 89.5t54.5 51.5t84 23.5t108 5.5h67v35q0 30 -4 48.5t-17 29t-36 14.5t-60 4h-38.5t-38.5 -2l-10 -50h-90v130q9 4 28.5 9t46 10t58.5 8.5t66 3.5q67 0 111 -12t70 -36.5t36 -63.5t10 -93v-372h-122zM382 256h-70
q-36 0 -62.5 -3t-43 -12t-24.5 -25.5t-8 -44.5v-24q0 -39 22 -52.5t57 -13.5q20 0 40 3.5t37 9t30.5 11t21.5 10.5v141z" />
    <glyph glyph-name="atilde.alt" horiz-adv-x="591" 
d="M511 755q0 -69 -27 -101t-81 -32q-26 0 -50 8.5t-53 26.5l-44 28q-17 12 -29.5 17.5t-26.5 5.5q-20 0 -26.5 -13t-6.5 -39v-28h-82v28q0 69 29 101t83 32q27 0 48 -7.5t50 -24.5l44 -29q17 -11 30 -17.5t28 -6.5q20 0 26.5 12.5t6.5 38.5v28h81v-28zM389 0v37
q-26 -18 -72 -35t-106 -17q-79 0 -122 39.5t-43 121.5v21q0 56 19.5 89.5t54.5 51.5t84 23.5t108 5.5h67v35q0 30 -4 48.5t-17 29t-36 14.5t-60 4h-38.5t-38.5 -2l-10 -50h-90v130q9 4 28.5 9t46 10t58.5 8.5t66 3.5q67 0 111 -12t70 -36.5t36 -63.5t10 -93v-372h-122z
M382 256h-70q-36 0 -62.5 -3t-43 -12t-24.5 -25.5t-8 -44.5v-24q0 -39 22 -52.5t57 -13.5q20 0 40 3.5t37 9t30.5 11t21.5 10.5v141z" />
    <glyph glyph-name="ccedilla.alt" horiz-adv-x="519" 
d="M246 -206h-126l110 141h149zM462 6q-20 -5 -64.5 -13t-109.5 -8q-122 0 -179.5 66.5t-57.5 194.5v71q0 130 57.5 195t179.5 65q62 0 109.5 -7.5t64.5 -13.5v-142h-89l-9 49q-13 1 -29 1.5t-26 0.5q-30 0 -53.5 -6t-39.5 -22.5t-24.5 -45t-8.5 -74.5v-71q0 -45 8.5 -74
t25 -45.5t40 -23t54.5 -6.5q44 0 151 9v-100z" />
    <glyph glyph-name="dotlessi.alt" horiz-adv-x="301" 
d="M77 0v452l-49 6v105h182v-563h-133z" />
    <glyph glyph-name="iacute.alt" horiz-adv-x="301" 
d="M77 0v452l-49 6v105h182v-563h-133zM179 626h-126l131 148h153z" />
    <glyph glyph-name="icircumflex.alt" horiz-adv-x="301" 
d="M77 0v452l-49 6v105h182v-563h-133zM239 626l-95 90l-96 -90h-121l135 148h164l135 -148h-122z" />
    <glyph glyph-name="idieresis.alt" horiz-adv-x="301" 
d="M77 0v452l-49 6v105h182v-563h-133zM208 645v124h111v-124h-111zM78 769v-124h-112v94q1 8 5 15q4 5 11 10t21 5h75z" />
    <glyph glyph-name="igrave.alt" horiz-adv-x="301" 
d="M77 0v452l-49 6v105h182v-563h-133zM111 626l-159 148h154l131 -148h-126z" />
    <glyph glyph-name="lslash.alt" horiz-adv-x="326" 
d="M211 417v-417h-132v289l-58 -54v111l58 54v267l-49 5v105h181v-250l62 57v-111z" />
    <glyph glyph-name="ntilde.alt" horiz-adv-x="648" 
d="M536 755q0 -69 -27 -101t-81 -32q-49 0 -104 35l-44 28q-17 12 -29 17.5t-26 5.5q-20 0 -26.5 -13t-6.5 -39v-28h-82v28q0 69 28.5 101t82.5 32q27 0 48.5 -7.5t49.5 -24.5l45 -29q16 -11 29.5 -17.5t28.5 -6.5q20 0 26.5 12.5t6.5 38.5v28h81v-28zM431 0v357q0 30 -3 51
t-12 34t-24.5 18.5t-39.5 5.5q-29 0 -66 -10t-82 -28v-428h-131v452l-50 6v105h176v-45q46 26 91.5 42.5t93.5 16.5q60 0 95.5 -16.5t54 -45.5t24.5 -69.5t6 -88.5v-357h-133z" />
    <glyph glyph-name="scaron.alt" horiz-adv-x="526" 
d="M167 774l95 -91l96 91h121l-134 -148h-164l-135 148h121zM54 102q34 -3 83.5 -8t102.5 -5q61 0 82.5 14.5t21.5 44.5q0 15 -4 25t-14.5 18.5t-30 17.5t-50.5 21l-43 17q-80 32 -118 71.5t-38 105.5q0 85 55 119t162 34q30 0 59.5 -2t56 -5.5t46.5 -7.5t31 -7v-129h-92
l-10 45q-20 1 -43 1.5t-38 0.5q-51 0 -74 -8t-23 -38q0 -13 4 -22t13.5 -16.5t26 -15.5t42.5 -18l47 -19q52 -21 84 -40.5t50 -40.5t24.5 -45.5t6.5 -57.5q0 -77 -55.5 -121.5t-172.5 -44.5q-29 0 -59.5 2.5t-56.5 5.5t-46.5 7t-29.5 7v94z" />
    <glyph glyph-name="uacute.alt" horiz-adv-x="649" 
d="M367 626h-126l131 148h153zM562 563v-563h-127v45q-51 -27 -98.5 -43.5t-96.5 -16.5q-55 0 -88.5 18t-51.5 48.5t-23.5 70t-5.5 83.5v248l-50 5v105h181v-358q0 -30 3.5 -51t12.5 -33.5t24.5 -18.5t40.5 -6q29 0 65.5 10.5t81.5 27.5v429h132z" />
    <glyph glyph-name="ucircumflex.alt" horiz-adv-x="649" 
d="M413 626l-96 90l-95 -90h-121l135 148h164l134 -148h-121zM562 563v-563h-127v45q-51 -27 -98.5 -43.5t-96.5 -16.5q-55 0 -88.5 18t-51.5 48.5t-23.5 70t-5.5 83.5v248l-50 5v105h181v-358q0 -30 3.5 -51t12.5 -33.5t24.5 -18.5t40.5 -6q29 0 65.5 10.5t81.5 27.5v429
h132z" />
    <glyph glyph-name="udieresis.alt" horiz-adv-x="649" 
d="M380 644v124h110v-124h-110zM562 563v-563h-127v45q-51 -27 -98.5 -43.5t-96.5 -16.5q-55 0 -88.5 18t-51.5 48.5t-23.5 70t-5.5 83.5v248l-50 5v105h181v-358q0 -30 3.5 -51t12.5 -33.5t24.5 -18.5t40.5 -6q29 0 65.5 10.5t81.5 27.5v429h132zM249 768v-124h-111v94
q1 8 5 15q4 5 11 10t21 5h74z" />
    <glyph glyph-name="ugrave.alt" horiz-adv-x="649" 
d="M279 626l-158 148h153l131 -148h-126zM562 563v-563h-127v45q-51 -27 -98.5 -43.5t-96.5 -16.5q-55 0 -88.5 18t-51.5 48.5t-23.5 70t-5.5 83.5v248l-50 5v105h181v-358q0 -30 3.5 -51t12.5 -33.5t24.5 -18.5t40.5 -6q29 0 65.5 10.5t81.5 27.5v429h132z" />
    <glyph glyph-name="yacute.alt" horiz-adv-x="650" 
d="M370 626h-127l132 148h153zM564 -21q0 -46 -10.5 -82.5t-37.5 -62t-74 -39.5t-119 -14q-36 0 -72 3t-66.5 6.5t-52 7t-28.5 5.5v90q48 -3 104 -6t108 -3q39 0 62 6t34.5 17.5t15 29.5t3.5 42v22q-14 -2 -44 -5t-57 -3q-62 0 -110 14t-81 45.5t-50.5 80.5t-17.5 120v310
h132v-310q0 -42 7 -71t23 -46.5t41.5 -25t62.5 -7.5q13 0 27.5 0.5t28 1.5t24 2.5t15.5 2.5v453h132v-584z" />
    <glyph glyph-name="ydieresis.alt" horiz-adv-x="650" 
d="M564 -21q0 -46 -10.5 -82.5t-37.5 -62t-74 -39.5t-119 -14q-36 0 -72 3t-66.5 6.5t-52 7t-28.5 5.5v90q48 -3 104 -6t108 -3q39 0 62 6t34.5 17.5t15 29.5t3.5 42v22q-14 -2 -44 -5t-57 -3q-62 0 -110 14t-81 45.5t-50.5 80.5t-17.5 120l1 310h131v-310q0 -42 7 -71
t23 -46.5t41.5 -25t62.5 -7.5q13 0 27.5 0.5t28 1.5t24 2.5t15.5 2.5v453h132v-584zM390 644v124h110v-124h-110zM249 768v-124h-111v94q1 8 5 15q4 5 11 10t21 5h74z" />
    <glyph glyph-name="zcaron.alt" horiz-adv-x="532" 
d="M172 774l95 -91l96 91h121l-135 -148h-164l-135 148h122zM474 0h-434v118l287 338h-183l-9 -42h-84v149h422v-116l-289 -342h290v-105z" />
    <glyph glyph-name="two.alt" horiz-adv-x="634" 
d="M557 0h-499v93q0 66 12 112.5t39 82.5t70 66.5t105 63.5q45 24 73 42t43.5 34.5t21 33t5.5 37.5q0 46 -33.5 63.5t-117.5 17.5q-21 0 -50.5 -1.5t-57.5 -3.5l-9 -68h-92v157q12 4 36.5 8.5t56 9t66.5 7.5t68 3q142 0 208 -44.5t66 -142.5q0 -37 -9.5 -68t-33 -59.5
t-61.5 -55.5t-95 -57q-56 -29 -90 -50.5t-53 -43.5t-25 -48t-6 -62v-11h362v-116z" />
    <glyph glyph-name="three.alt" horiz-adv-x="638" 
d="M570 204q0 -61 -18 -103t-53 -68t-87 -37.5t-120 -11.5q-35 0 -69.5 3t-64.5 8t-54 10t-37 10v98q16 -2 41 -4.5t54 -5t60 -4.5t60 -2q37 0 65 4.5t47 16.5t28 34t9 57v20q0 22 -4 40.5t-16 31.5t-35 20t-62 7h-209v106h209q39 0 62 8t35 21.5t16 32t4 40.5v12
q0 28 -7 47t-24 30t-46 15.5t-73 4.5q-27 0 -56 -1t-54 -2l-10 -69h-92v157q9 3 32.5 7.5t54.5 9t66.5 8t69.5 3.5q68 0 120 -10t87 -34t53 -62.5t18 -95.5v-12q0 -49 -20 -93t-69 -69q50 -24 69.5 -66.5t19.5 -91.5v-20v0z" />
    <glyph glyph-name="five.alt" horiz-adv-x="627" 
d="M559 215q0 -63 -19 -107t-55.5 -71.5t-89.5 -40t-121 -12.5q-37 0 -71.5 3t-64.5 7.5t-53 9.5t-36 9v99q16 -2 40 -4.5t52 -5t57 -4.5t56 -2q46 0 77.5 6t51.5 19.5t29 36t9 56.5v23q0 31 -7 52t-26 34t-51 19t-81 6h-196l33 395h441v-172h-90l-9 57h-228l-16 -172h86
q78 0 131.5 -12.5t87 -39t48.5 -68t15 -98.5v-23v0z" />
    <glyph glyph-name="six.alt" horiz-adv-x="674" 
d="M605 226q0 -73 -25.5 -120t-64.5 -74t-87 -37.5t-93 -10.5q-63 0 -115 14t-89 48.5t-57.5 93t-20.5 147.5v176q0 70 13.5 125t47 92.5t89.5 57.5t142 20q36 0 71 -3t65 -7t53.5 -8.5t36.5 -7.5v-158h-92l-9 68q-26 1 -55 2t-58 1q-57 0 -89.5 -11t-49.5 -32t-21.5 -52
t-4.5 -70v-29q16 4 35.5 7.5t40.5 5.5t41 3.5t36 1.5q52 0 99.5 -7.5t83 -30t56.5 -63t21 -106.5v-36zM467 258q0 36 -8.5 58t-25.5 34t-42 16t-58 4q-26 0 -64.5 -3t-76.5 -11v-90q0 -52 9.5 -85.5t28 -53t45.5 -27t61 -7.5q27 0 51 7.5t42 23.5t28 41.5t10 60.5v32z" />
    <glyph glyph-name="seven.alt" horiz-adv-x="627" 
d="M246 0h-150l341 628h-284l-8 -59h-92v174h519v-129z" />
    <glyph glyph-name="dotlessj" horiz-adv-x="301" 
d="M210 -47q0 -49 -8.5 -82t-28 -53.5t-50.5 -29t-75 -8.5q-25 0 -49 2.5t-33 4.5v94q12 -1 26 -1h31q18 0 28.5 3.5t16 11.5t7.5 22.5t2 35.5v610h133v-610v0z" />
    <glyph glyph-name="zero.tab" 
d="M627 316q0 -163 -71 -247.5t-212 -84.5t-212 84.5t-71 247.5v110q0 163 71 247.5t212 84.5t212 -84.5t71 -247.5v-110zM487 426q0 63 -10.5 104t-29 66t-45 35t-58.5 10t-58 -10t-45 -35t-29.5 -66t-10.5 -104v-110q0 -63 10.5 -104t29.5 -66t45 -35t58 -10t58.5 10
t45 35t29 66t10.5 104v110z" />
    <glyph glyph-name="one.tab" 
d="M116 0v107l173 7v498l-173 -48v112l211 71h101v-633l172 -7v-107h-484z" />
    <glyph glyph-name="two.tab" 
d="M87 0v93q0 66 12 112.5t39 82.5t70 66.5t105 63.5q45 24 73 42t43.5 34.5t21 33t5.5 37.5q0 46 -33.5 63.5t-117.5 17.5q-25 0 -52.5 -1t-54.5 -3t-51.5 -4t-43.5 -5v97q20 6 46 11t55 8.5t59.5 6t59.5 2.5q142 0 208 -44.5t66 -142.5q0 -37 -9.5 -68t-32.5 -59.5
t-61 -55.5t-95 -57q-56 -29 -90.5 -50.5t-53 -43.5t-25 -48t-6.5 -62v-11h362v-116h-499z" />
    <glyph glyph-name="three.tab" 
d="M599 204q0 -61 -18 -103t-53 -68t-87 -37.5t-120 -11.5q-34 0 -68.5 3t-65 8t-54.5 10t-37 10v97l40.5 -5t53 -5t60 -3.5t61.5 -1.5q37 0 65 4.5t47 16.5t28 34t9 57v20q0 22 -4 40.5t-16 31.5t-35.5 20t-62.5 7h-208v106h209q39 0 62 8t35 21.5t16 32t4 40.5v12
q0 28 -7 47t-24.5 30t-46.5 15.5t-72 4.5q-59 0 -114.5 -4t-97.5 -9v98q9 3 32 7.5t54 9t67 8t70 3.5q68 0 120 -10t87 -34t53 -62.5t18 -95.5v-12q0 -49 -20.5 -93t-68.5 -69q50 -24 69.5 -66.5t19.5 -91.5v-20v0z" />
    <glyph glyph-name="four.tab" 
d="M532 179v-179h-140v179h-346v115l354 449h132v-454h105v-110h-105zM397 573l-231 -284h231v284z" />
    <glyph glyph-name="five.tab" 
d="M599 215q0 -63 -19 -107t-56 -71.5t-90 -40t-120 -12.5q-38 0 -74 3t-66 7.5t-52 9t-34 7.5v100q16 -2 39.5 -4.5t50.5 -4.5t57 -4t59 -2q46 0 77.5 6t51 19.5t28 36t8.5 56.5v23q0 31 -7 52t-25.5 34t-50.5 19t-81 6h-196l34 395h441v-115h-327l-16 -172h85
q78 0 131.5 -12.5t87.5 -39t49 -68t15 -98.5v-23v0z" />
    <glyph glyph-name="seven.tab" 
d="M284 0h-151l341 628h-383v115h518v-129z" />
    <glyph glyph-name="six.tab" 
d="M618 226q0 -73 -25.5 -120t-64.5 -74t-87 -37.5t-93 -10.5q-63 0 -115 14t-89 48.5t-57.5 93t-20.5 147.5v176q0 70 13.5 125t46.5 92.5t89.5 57.5t142.5 20q36 0 71 -3t65 -7t53 -8.5t36 -7.5v-100q-42 4 -98 8.5t-115 4.5q-57 0 -90 -11t-50 -32t-21.5 -52t-4.5 -70
v-29q16 4 36 7.5t41 5.5t40.5 3.5t35.5 1.5q53 0 100.5 -7.5t83 -30t56.5 -63t21 -106.5v-36zM480 258q0 36 -8.5 58t-25.5 34t-42 16t-58 4q-26 0 -65 -3t-77 -11v-90q0 -52 10 -85.5t28.5 -53t45 -27t60.5 -7.5q27 0 51 7.5t42 23.5t28.5 41.5t10.5 60.5v32z" />
    <glyph glyph-name="eight.tab" 
d="M627 213q0 -79 -24 -124.5t-63.5 -69t-90.5 -29.5t-105 -6h-4q-54 0 -105 6t-90.5 29.5t-63.5 69t-24 124.5v8q0 60 20.5 98.5t61.5 64.5q-37 23 -58 60.5t-21 96.5v10q0 65 23 105.5t62 63t89.5 30.5t105.5 8h4q55 0 106 -8t90 -30.5t62 -63t23 -105.5v-10
q0 -59 -21 -96.5t-58 -60.5q41 -26 61 -64.5t20 -98.5v-8zM490 222q0 58 -20 85t-73 27h-110q-53 0 -72.5 -26.5t-19.5 -85.5v-7q0 -41 10.5 -65.5t29.5 -38t45.5 -17.5t59.5 -4h4q33 0 59.5 4t46 17.5t30 38t10.5 65.5v7zM488 548q0 32 -10.5 52t-29.5 31.5t-45.5 15.5
t-58.5 4h-4q-32 0 -58 -4t-45 -15.5t-29.5 -31.5t-10.5 -52v-10q0 -48 18.5 -75t71.5 -27h110q53 0 72 27t19 75v10z" />
    <glyph glyph-name="nine.tab" 
d="M609 280q0 -69 -13.5 -124t-46.5 -93.5t-89.5 -58.5t-142.5 -20q-36 0 -71 3t-65 7t-53 8.5t-36 7.5v100l42.5 -4.5t53 -4.5t59 -3.5t60.5 -1.5q56 0 88.5 11.5t49.5 32.5t21.5 52t4.5 70v29q-16 -4 -36 -7.5t-41 -5.5t-40.5 -3.5t-35.5 -1.5q-53 0 -100.5 7.5t-83 30
t-56.5 63t-21 106.5v35q0 73 25.5 120t64.5 74.5t87 38t93 10.5q63 0 115 -14t89 -48t57.5 -92t20.5 -146v-178zM471 475q0 52 -10 86t-28.5 53.5t-45.5 27t-61 7.5q-27 0 -51 -7.5t-42 -24t-28 -41.5t-10 -60v-33q0 -35 8.5 -57t25.5 -34t42 -16t58 -4q26 0 65 3t77 11v89z
" />
    <glyph glyph-name="uni2215" unicode="&#x2215;" horiz-adv-x="499" 
d="M60 0h-119l485 744h118z" />
    <glyph glyph-name="periodcentered" horiz-adv-x="305" 
d="M210 446v-155h-128v125q1 8 5 15q4 5 11 10t21 5h91z" />
    <glyph glyph-name="threequartersemdash" horiz-adv-x="848" 
d="M66 236v99h702v-99h-702z" />
    <glyph glyph-name="macron" horiz-adv-x="625" 
d="M2 818v78h606v-78h-606z" />
    <glyph glyph-name="franc.taboldstyle" horiz-adv-x="644" 
d="M140 0v103h-50v79h50v412h401v-114h-262v-123h250v-107h-250v-68h129v-79h-129v-103h-139z" />
    <glyph glyph-name="lira.taboldstyle" horiz-adv-x="636" 
d="M527 479q-36 3 -72.5 5t-65.5 2q-33 0 -53.5 -4t-32 -14.5t-15.5 -28.5t-4 -46v-19h171v-66h-171v-57h171v-66h-171v-12q0 -20 -6 -36t-15 -29h264v-108h-411v88q20 20 28.5 41t8.5 44v12h-60v66h60v57h-60v66h60v18q0 109 47.5 157t160.5 48q51 0 92 -4t74 -11v-103z
" />
    <glyph glyph-name="currency.taboldstyle" horiz-adv-x="660" 
d="M520 36l-79 78q-27 -17 -57.5 -24.5t-59.5 -7.5q-64 0 -118 32l-82 -79l-70 71l80 79q-16 26 -24.5 56.5t-8.5 60.5t8 59t25 56l-80 80l70 70l82 -78q26 16 57 24.5t61 8.5q62 0 118 -33l79 77l71 -70l-80 -79q17 -27 26 -56t9 -59q0 -61 -34 -117l79 -77zM456 302
q0 28 -10.5 52t-28.5 41t-42.5 26.5t-51.5 9.5t-51 -9.5t-41.5 -26.5t-28 -41t-10.5 -52q0 -29 10.5 -52.5t28.5 -41t41.5 -27t50.5 -9.5t51 9.5t42.5 27t29 41t10.5 52.5z" />
    <glyph glyph-name="peseta.taboldstyle" horiz-adv-x="636" 
d="M83 0v356h-49v92h49v140q55 6 100.5 8.5t98.5 2.5q51 0 95 -6.5t77.5 -23.5t55 -46.5t28.5 -74.5h51v-92h-51q-8 -45 -29.5 -74.5t-54.5 -47.5t-76 -25t-92 -7q-17 0 -37 1t-37 2v-205h-129zM412 409q0 50 -33.5 65t-93.5 15h-18t-20.5 -0.5t-20 -1t-14.5 -0.5v-171
q11 -1 33.5 -2t36.5 -1q61 0 95.5 18t34.5 68v10z" />
    <glyph glyph-name="T_h.caron" horiz-adv-x="1167" 
d="M950 0v355q0 65 -20 88t-69 23q-40 0 -77.5 -10t-60.5 -21v-435h-132v628h-201v-628h-140v628h-222v115h695v-208q30 15 75.5 28.5t99.5 13.5q52 0 87.5 -15t57 -43.5t30.5 -69.5t9 -92v-357h-132zM407 788h-164l-135 149h121l95 -91l96 91h121z" />
    <glyph glyph-name="AE.alt" horiz-adv-x="1012" 
d="M474 0v208h-229l-65 -208h-142l192 629l-55 5v109h771v-116h-333v-189h313v-112h-313v-211h333v-115h-472zM474 642h-111q-8 -27 -14.5 -55t-14.5 -55l-63 -210h203v320z" />
    <glyph glyph-name="ae.alt" horiz-adv-x="950" 
d="M511 240v-10q0 -30 3.5 -55.5t18.5 -44t45 -29t82 -10.5q53 0 106.5 4t97.5 10v-96q-32 -8 -89.5 -15.5t-124.5 -7.5q-151 0 -212 67q-53 -37 -106.5 -52t-120.5 -15q-79 0 -122 39t-43 121v21q0 56 19.5 89.5t54.5 51.5t84 23.5t108 5.5h67v35q0 28 -4 46.5t-16 29.5
t-34.5 15.5t-58.5 4.5h-40t-41 -2l-10 -50h-90v130q9 4 28.5 9t46 10t58.5 8.5t66 3.5q39 0 68 -3.5t50 -10t35.5 -16t25.5 -21.5q29 23 70 36.5t101 13.5q70 0 118.5 -21.5t78.5 -59.5t43 -89t13 -110v-56h-376zM756 335q0 24 -4 48.5t-16.5 44t-37 31.5t-65.5 12
q-40 0 -64 -12.5t-36.5 -32t-16.5 -43.5t-4 -48v-9h244v9zM382 256h-70q-36 0 -62.5 -3t-43 -12t-24.5 -25.5t-8 -44.5v-24q0 -39 21.5 -52.5t56.5 -13.5q42 0 78 12.5t52 21.5v141z" />
    <glyph glyph-name="agrave.alt2" horiz-adv-x="616" 
d="M297 626l-158 148h153l131 -148h-126zM419 0v29q-29 -19 -68 -31t-89 -12q-100 0 -155.5 61t-55.5 190v80q0 75 17.5 125t51 80t83 42.5t113.5 12.5q44 0 106 -3t121 -11v-563h-124zM412 462q-27 2 -57 3.5t-44 1.5q-32 0 -55.5 -5.5t-40 -22t-24.5 -45.5t-8 -77v-80
q0 -76 26.5 -108t88.5 -32q31 0 59.5 7t54.5 18v340z" />
    <glyph glyph-name="aacute.alt2" horiz-adv-x="616" 
d="M354 626h-127l132 148h153zM419 0v29q-29 -19 -68 -31t-89 -12q-100 0 -155.5 61t-55.5 190v80q0 75 17.5 125t51 80t83 42.5t113.5 12.5q44 0 106 -3t121 -11v-563h-124zM412 462q-27 2 -57 3.5t-44 1.5q-32 0 -55.5 -5.5t-40 -22t-24.5 -45.5t-8 -77v-80
q0 -76 26.5 -108t88.5 -32q31 0 59.5 7t54.5 18v340z" />
    <glyph glyph-name="acircumflex.alt2" horiz-adv-x="616" 
d="M404 626l-96 90l-95 -90h-121l135 148h163l135 -148h-121zM419 0v29q-29 -19 -68 -31t-89 -12q-100 0 -155.5 61t-55.5 190v80q0 75 17.5 125t51 80t83 42.5t113.5 12.5q44 0 106 -3t121 -11v-563h-124zM412 462q-27 2 -57 3.5t-44 1.5q-32 0 -55.5 -5.5t-40 -22
t-24.5 -45.5t-8 -77v-80q0 -76 26.5 -108t88.5 -32q31 0 59.5 7t54.5 18v340z" />
    <glyph glyph-name="atilde.alt2" horiz-adv-x="616" 
d="M518 755q0 -69 -27 -101t-81 -32q-26 0 -50 8.5t-53 26.5l-44 28q-17 12 -29.5 17.5t-26.5 5.5q-20 0 -26.5 -13t-6.5 -39v-28h-82v28q0 69 29 101t83 32q27 0 48 -7.5t50 -24.5l44 -29q17 -11 30 -17.5t28 -6.5q20 0 26.5 12.5t6.5 38.5v28h81v-28zM419 0v29
q-29 -19 -68 -31t-89 -12q-100 0 -155.5 61t-55.5 190v80q0 75 17.5 125t51 80t83 42.5t113.5 12.5q44 0 106 -3t121 -11v-563h-124zM412 462q-27 2 -57 3.5t-44 1.5q-32 0 -55.5 -5.5t-40 -22t-24.5 -45.5t-8 -77v-80q0 -76 26.5 -108t88.5 -32q31 0 59.5 7t54.5 18v340z
" />
    <glyph glyph-name="adieresis.alt2" horiz-adv-x="616" 
d="M374 644v124h110v-124h-110zM419 0v29q-29 -19 -68 -31t-89 -12q-100 0 -155.5 61t-55.5 190v80q0 75 17.5 125t51 80t83 42.5t113.5 12.5q44 0 106 -3t121 -11v-563h-124zM412 462q-27 2 -57 3.5t-44 1.5q-32 0 -55.5 -5.5t-40 -22t-24.5 -45.5t-8 -77v-80
q0 -76 26.5 -108t88.5 -32q31 0 59.5 7t54.5 18v340zM249 768v-124h-111v94q1 8 5 15q4 5 11 10t21 5h74z" />
    <glyph glyph-name="aring.alt2" horiz-adv-x="616" 
d="M443 732q0 -59 -36.5 -87.5t-92.5 -28.5t-93 28.5t-37 87.5t37 88.5t93 29.5t92.5 -29t36.5 -89zM369 733q0 28 -16 39t-39 11q-24 0 -39.5 -11t-15.5 -39t15.5 -39.5t39.5 -11.5q23 0 39 11.5t16 39.5zM419 0v29q-29 -19 -68 -31t-89 -12q-100 0 -155.5 61t-55.5 190v80
q0 75 17.5 125t51 80t83 42.5t113.5 12.5q44 0 106 -3t121 -11v-563h-124zM412 462q-27 2 -57 3.5t-44 1.5q-32 0 -55.5 -5.5t-40 -22t-24.5 -45.5t-8 -77v-80q0 -76 26.5 -108t88.5 -32q31 0 59.5 7t54.5 18v340z" />
    <glyph glyph-name="ugrave.alt2" horiz-adv-x="659" 
d="M280 626l-159 148h154l131 -148h-126zM562 259q0 -137 -58 -205.5t-188 -68.5q-128 0 -186.5 68.5t-58.5 205.5v304h131v-304q0 -84 24.5 -122.5t89.5 -38.5q64 0 89 38.5t25 122.5v304h132v-304z" />
    <glyph glyph-name="uacute.alt2" horiz-adv-x="659" 
d="M364 626h-127l132 148h153zM562 259q0 -137 -58 -205.5t-188 -68.5q-128 0 -186.5 68.5t-58.5 205.5v304h131v-304q0 -84 24.5 -122.5t89.5 -38.5q64 0 89 38.5t25 122.5v304h132v-304z" />
    <glyph glyph-name="ucircumflex.alt2" horiz-adv-x="659" 
d="M414 626l-96 90l-95 -90h-121l135 148h163l135 -148h-121zM562 259q0 -137 -58 -205.5t-188 -68.5q-128 0 -186.5 68.5t-58.5 205.5v304h131v-304q0 -84 24.5 -122.5t89.5 -38.5q64 0 89 38.5t25 122.5v304h132v-304z" />
    <glyph glyph-name="udieresis.alt2" horiz-adv-x="659" 
d="M382 645v124h111v-124h-111zM562 259q0 -137 -58 -205.5t-188 -68.5q-128 0 -186.5 68.5t-58.5 205.5v304h131v-304q0 -84 24.5 -122.5t89.5 -38.5q64 0 89 38.5t25 122.5v304h132v-304zM249 768v-124h-111v94q1 8 5 15q4 5 11 10t21 5h74z" />
    <glyph glyph-name="quotedbl" unicode="&#x22;" horiz-adv-x="424" 
d="M45 766h122l-52 -254h-95zM337 512h-95l26 254h122z" />
    <glyph glyph-name="exclam" unicode="!" horiz-adv-x="315" 
d="M211 211h-120l-13 566h145zM113 0q-11 0 -17 5.5t-9 12.5q-4 8 -4 19v116h135v-153h-105z" />
    </font>
</defs>
</svg>
